  0
SECTION
  2
HEADER
  9
$ACADVER
  1
AC1015
  9
$ACADMAINTVER
 70
    20
  9
$DWGCODEPAGE
  3
ANSI_1252
  9
$INSBASE
 10
229.0
 20
50.0
 30
0.0
  9
$EXTMIN
 10
9712.992562383449
 20
3861.949265620238
 30
0.0
  9
$EXTMAX
 10
13812.99256238345
 20
6731.949265620238
 30
0.1234
  9
$LIMMIN
 10
0.0
 20
0.0
  9
$LIMMAX
 10
2970.0
 20
2100.0
  9
$ORTHOMODE
 70
     0
  9
$REGENMODE
 70
     1
  9
$FILLMODE
 70
     1
  9
$QTEXTMODE
 70
     0
  9
$MIRRTEXT
 70
     1
  9
$LTSCALE
 40
10.0
  9
$ATTMODE
 70
     1
  9
$TEXTSIZE
 40
40.0
  9
$TRACEWID
 40
0.05
  9
$TEXTSTYLE
  7
SANSSERIFBOLD
  9
$CLAYER
  8
0
  9
$CELTYPE
  6
BYLAYER
  9
$CECOLOR
 62
   256
  9
$CELTSCALE
 40
1.0
  9
$DISPSILH
 70
     0
  9
$DIMSCALE
 40
10.0
  9
$DIMASZ
 40
3.0
  9
$DIMEXO
 40
2.0
  9
$DIMDLI
 40
10.0
  9
$DIMRND
 40
0.0
  9
$DIMDLE
 40
0.0
  9
$DIMEXE
 40
2.0
  9
$DIMTP
 40
0.1
  9
$DIMTM
 40
0.15
  9
$DIMTXT
 40
3.0
  9
$DIMCEN
 40
0.5
  9
$DIMTSZ
 40
0.0
  9
$DIMTOL
 70
     0
  9
$DIMLIM
 70
     0
  9
$DIMTIH
 70
     0
  9
$DIMTOH
 70
     0
  9
$DIMSE1
 70
     0
  9
$DIMSE2
 70
     0
  9
$DIMTAD
 70
     1
  9
$DIMZIN
 70
     8
  9
$DIMBLK
  1

  9
$DIMASO
 70
     1
  9
$DIMSHO
 70
     1
  9
$DIMPOST
  1

  9
$DIMAPOST
  1

  9
$DIMALT
 70
     0
  9
$DIMALTD
 70
     2
  9
$DIMALTF
 40
25.4
  9
$DIMLFAC
 40
1.0
  9
$DIMTOFL
 70
     1
  9
$DIMTVP
 40
0.0
  9
$DIMTIX
 70
     0
  9
$DIMSOXD
 70
     0
  9
$DIMSAH
 70
     0
  9
$DIMBLK1
  1

  9
$DIMBLK2
  1

  9
$DIMSTYLE
  2
BASE
  9
$DIMCLRD
 70
   256
  9
$DIMCLRE
 70
   256
  9
$DIMCLRT
 70
   254
  9
$DIMTFAC
 40
0.6666666666666666
  9
$DIMGAP
 40
1.0
  9
$DIMJUST
 70
     0
  9
$DIMSD1
 70
     0
  9
$DIMSD2
 70
     0
  9
$DIMTOLJ
 70
     1
  9
$DIMTZIN
 70
     0
  9
$DIMALTZ
 70
     0
  9
$DIMALTTZ
 70
     0
  9
$DIMUPT
 70
     0
  9
$DIMDEC
 70
     4
  9
$DIMTDEC
 70
     4
  9
$DIMALTU
 70
     2
  9
$DIMALTTD
 70
     2
  9
$DIMTXSTY
  7
ROMANS
  9
$DIMAUNIT
 70
     0
  9
$DIMADEC
 70
     0
  9
$DIMALTRND
 40
0.0
  9
$DIMAZIN
 70
     0
  9
$DIMDSEP
 70
    46
  9
$DIMATFIT
 70
     3
  9
$DIMFRAC
 70
     0
  9
$DIMLDRBLK
  1

  9
$DIMLUNIT
 70
     2
  9
$DIMLWD
 70
    -2
  9
$DIMLWE
 70
    -2
  9
$DIMTMOVE
 70
     2
  9
$LUNITS
 70
     2
  9
$LUPREC
 70
     2
  9
$SKETCHINC
 40
0.1
  9
$FILLETRAD
 40
5.0
  9
$AUNITS
 70
     1
  9
$AUPREC
 70
     3
  9
$MENU
  1
C:\promecad\acad
  9
$ELEVATION
 40
0.0
  9
$PELEVATION
 40
0.0
  9
$THICKNESS
 40
0.0
  9
$LIMCHECK
 70
     0
  9
$CHAMFERA
 40
0.0
  9
$CHAMFERB
 40
0.0
  9
$CHAMFERC
 40
0.0
  9
$CHAMFERD
 40
0.0
  9
$SKPOLY
 70
     0
  9
$TDCREATE
 40
2450688.341694190
  9
$TDUCREATE
 40
2450688.258360857
  9
$TDUPDATE
 40
2453830.345694214
  9
$TDUUPDATE
 40
2453830.262360880
  9
$TDINDWG
 40
1.0299788079
  9
$TDUSRTIMER
 40
1.0299788079
  9
$USRTIMER
 70
     1
  9
$ANGBASE
 50
0.0
  9
$ANGDIR
 70
     0
  9
$PDMODE
 70
     0
  9
$PDSIZE
 40
0.0
  9
$PLINEWID
 40
0.0
  9
$SPLFRAME
 70
     0
  9
$SPLINETYPE
 70
     6
  9
$SPLINESEGS
 70
     8
  9
$HANDSEED
  5
17AC21874A42CC
  9
$SURFTAB1
 70
     6
  9
$SURFTAB2
 70
     6
  9
$SURFTYPE
 70
     6
  9
$SURFU
 70
     6
  9
$SURFV
 70
     6
  9
$UCSBASE
  2

  9
$UCSNAME
  2

  9
$UCSORG
 10
0.0
 20
0.0
 30
0.0
  9
$UCSXDIR
 10
1.0
 20
0.0
 30
0.0
  9
$UCSYDIR
 10
0.0
 20
1.0
 30
0.0
  9
$UCSORTHOREF
  2

  9
$UCSORTHOVIEW
 70
     0
  9
$UCSORGTOP
 10
0.0
 20
0.0
 30
0.0
  9
$UCSORGBOTTOM
 10
0.0
 20
0.0
 30
0.0
  9
$UCSORGLEFT
 10
0.0
 20
0.0
 30
0.0
  9
$UCSORGRIGHT
 10
0.0
 20
0.0
 30
0.0
  9
$UCSORGFRONT
 10
0.0
 20
0.0
 30
0.0
  9
$UCSORGBACK
 10
0.0
 20
0.0
 30
0.0
  9
$PUCSBASE
  2

  9
$PUCSNAME
  2

  9
$PUCSORG
 10
0.0
 20
0.0
 30
0.0
  9
$PUCSXDIR
 10
1.0
 20
0.0
 30
0.0
  9
$PUCSYDIR
 10
0.0
 20
1.0
 30
0.0
  9
$PUCSORTHOREF
  2

  9
$PUCSORTHOVIEW
 70
     0
  9
$PUCSORGTOP
 10
0.0
 20
0.0
 30
0.0
  9
$PUCSORGBOTTOM
 10
0.0
 20
0.0
 30
0.0
  9
$PUCSORGLEFT
 10
0.0
 20
0.0
 30
0.0
  9
$PUCSORGRIGHT
 10
0.0
 20
0.0
 30
0.0
  9
$PUCSORGFRONT
 10
0.0
 20
0.0
 30
0.0
  9
$PUCSORGBACK
 10
0.0
 20
0.0
 30
0.0
  9
$USERI1
 70
    10
  9
$USERI2
 70
     1
  9
$USERI3
 70
     0
  9
$USERI4
 70
     2
  9
$USERI5
 70
     5
  9
$USERR1
 40
0.0
  9
$USERR2
 40
0.0
  9
$USERR3
 40
0.0
  9
$USERR4
 40
0.0
  9
$USERR5
 40
0.0
  9
$WORLDVIEW
 70
     1
  9
$SHADEDGE
 70
     3
  9
$SHADEDIF
 70
    70
  9
$TILEMODE
 70
     1
  9
$MAXACTVP
 70
    16
  9
$PINSBASE
 10
0.0
 20
0.0
 30
0.0
  9
$PLIMCHECK
 70
     0
  9
$PEXTMIN
 10
1.000000000000000E+20
 20
1.000000000000000E+20
 30
1.000000000000000E+20
  9
$PEXTMAX
 10
-1.000000000000000E+20
 20
-1.000000000000000E+20
 30
-1.000000000000000E+20
  9
$PLIMMIN
 10
0.0
 20
0.0
  9
$PLIMMAX
 10
12.0
 20
9.0
  9
$UNITMODE
 70
     0
  9
$VISRETAIN
 70
     0
  9
$PLINEGEN
 70
     0
  9
$PSLTSCALE
 70
     0
  9
$TREEDEPTH
 70
  3020
  9
$CMLSTYLE
  2
STANDARD
  9
$CMLJUST
 70
     0
  9
$CMLSCALE
 40
1.0
  9
$PROXYGRAPHICS
 70
     1
  9
$MEASUREMENT
 70
     0
  9
$CELWEIGHT
370
    -1
  9
$ENDCAPS
280
     0
  9
$JOINSTYLE
280
     0
  9
$LWDISPLAY
290
     0
  9
$INSUNITS
 70
     0
  9
$HYPERLINKBASE
  1

  9
$STYLESHEET
  1

  9
$XEDIT
290
     1
  9
$CEPSNTYPE
380
     0
  9
$PSTYLEMODE
290
     1
  9
$FINGERPRINTGUID
  2
{3259C564-A7EE-4FC6-9FF5-0CE8C0B76572}
  9
$VERSIONGUID
  2
{6B837B1B-A104-460F-8E10-167B7E9F5CC6}
  9
$EXTNAMES
290
     1
  9
$PSVPSCALE
 40
0.0
  9
$OLESTARTUP
290
     0
  0
ENDSEC
  0
SECTION
  2
CLASSES
  0
CLASS
  1
ACDBDICTIONARYWDFLT
  2
AcDbDictionaryWithDefault
  3
ObjectDBX Classes
 90
        0
280
     0
281
     0
  0
CLASS
  1
ACDBPLACEHOLDER
  2
AcDbPlaceHolder
  3
ObjectDBX Classes
 90
        0
280
     0
281
     0
  0
CLASS
  1
LAYOUT
  2
AcDbLayout
  3
ObjectDBX Classes
 90
        0
280
     0
281
     0
  0
CLASS
  1
TABLESTYLE
  2
AcDbTableStyle
  3
ObjectDBX Classes
 90
     2047
280
     0
281
     0
  0
CLASS
  1
ACME_DOCUMENT
  2
AcMeDbDoc
  3
AcMeServices
 90
        0
280
     0
281
     0
  0
CLASS
  1
AMGSETTINGSOBJ
  2
AmgSettingsObj
  3
"AcadM|Product Description: AutoCAD Mechanical 2000|Company: Autodesk"
 90
        0
280
     0
281
     0
  0
CLASS
  1
ACMESCOPE
  2
AcMeScope
  3
AcMeServices
 90
        0
280
     0
281
     0
  0
CLASS
  1
ACMECOMMANDHISTORY
  2
AcMeCommandHistory
  3
AcMeServices
 90
        0
280
     0
281
     0
  0
CLASS
  1
ACIMSYSVARMAN
  2
AcImSysVarManager
  3
AcMeServices
 90
        0
280
     0
281
     0
  0
CLASS
  1
ACIMINTSYSVAR
  2
AcImIntSysVar
  3
AcMeServices
 90
        0
280
     0
281
     0
  0
CLASS
  1
ACMEDRAWINGMAN
  2
AcMeDrawingMan
  3
AcMeServices
 90
        0
280
     0
281
     0
  0
CLASS
  1
ACMEVIEW
  2
AcMeView
  3
AcMeServices
 90
        0
280
     0
281
     0
  0
CLASS
  1
ACDBENTITYCACHE
  2
AcMeEntityCache
  3
AcMeServices
 90
        0
280
     0
281
     0
  0
CLASS
  1
GSMANAGER
  2
AcMeGSManager
  3
AcMeServices
 90
        0
280
     0
281
     0
  0
CLASS
  1
AMDTINTERNALREACTOR
  2
AmdtInternalReactor
  3
AcMeServices
 90
        0
280
     0
281
     0
  0
CLASS
  1
ACMESTATEMGR
  2
AcMeStateMgr
  3
AcMeServices
 90
        0
280
     0
281
     0
  0
CLASS
  1
ACGREFMASTER
  2
AcGrefMaster
  3
AcAttribServices
 90
        0
280
     0
281
     0
  0
CLASS
  1
AM_DRAWING_MGR
  2
AcDmDwgMgr
  3
AcMechDwgViewMgmt
 90
        0
280
     0
281
     0
  0
CLASS
  1
AM_DWG_DOCUMENT
  2
AcDmDwgDocument
  3
AcMechDwgViewMgmt
 90
        0
280
     0
281
     0
  0
CLASS
  1
AM_DWG_SHEET
  2
AcDmSheet
  3
AcMechDwgViewMgmt
 90
        0
280
     0
281
     0
  0
CLASS
  1
AM_VIEWDIMPARMAP
  2
AcDmViewDimParMap
  3
AcMechDwgViewMgmt
 90
        0
280
     0
281
     0
  0
CLASS
  1
ACIMREALSYSVAR
  2
AcImRealSysVar
  3
AcMeServices
 90
        0
280
     0
281
     0
  0
CLASS
  1
AM_DWGMGR_NAME
  2
AcDmDwgMgrName
  3
AcMechDwgViewMgmt
 90
        0
280
     0
281
     0
  0
CLASS
  1
ACME_DATABASE
  2
AcMeDbDatabase
  3
AcMeServices
 90
        0
280
     0
281
     0
  0
CLASS
  1
ACRFINSADJUSTERMGR
  2
AcRfInsAdjusterMgr
  3
AcMeServices
 90
        0
280
     0
281
     0
  0
CLASS
  1
ACGREFACADMASTER
  2
AcGrefacadMaster
  3
AcGrefServices
 90
        0
280
     0
281
     0
  0
CLASS
  1
AMDTMENUSTATEMGR
  2
AmdtMenuStateMgr
  3
McadcomServices
 90
        0
280
     0
281
     0
  0
CLASS
  1
AMDTMCOMMENUSTATE
  2
AmdtMcomMenuState
  3
McadcomServices
 90
        0
280
     0
281
     0
  0
CLASS
  1
AMIMASTER
  2
AmiMaster
  3
AmiServices
 90
        0
280
     0
281
     0
  0
CLASS
  1
MAPIAMMOUDLE
  2
MApiAmModule
  3
MApiAmServices
 90
        0
280
     0
281
     0
  0
CLASS
  1
AMDTADMENUSTATE
  2
AmdtAdMenuState
  3
DesignerServices
 90
        0
280
     0
281
     0
  0
CLASS
  1
ADAPPL
  2
AcAdAppl
  3
DesignerServices
 90
        0
280
     0
281
     0
  0
CLASS
  1
DEPMGR
  2
AcAdDepMgr
  3
DesignerServices
 90
        0
280
     0
281
     0
  0
CLASS
  1
PARAMMGR
  2
AcAdParamMgr
  3
DesignerServices
 90
        0
280
     0
281
     0
  0
CLASS
  1
PARAMSCOPE
  2
AcAdParamScope
  3
DesignerServices
 90
        0
280
     0
281
     0
  0
CLASS
  1
NAMEDAPPL
  2
AcAdNamedAppl
  3
DesignerServices
 90
        0
280
     0
281
     0
  0
CLASS
  1
AMDTDMMENUSTATE
  2
AmdtDmMenuState
  3
AcMechDwgViewMgmt
 90
        0
280
     0
281
     0
  0
CLASS
  1
AMDTAMMENUSTATE
  2
AmdtAmMenuState
  3
DesignerAssemblies
 90
        0
280
     0
281
     0
  0
CLASS
  1
ACIMSTRSYSVAR
  2
AcImStrSysVar
  3
AcMeServices
 90
        0
280
     0
281
     0
  0
CLASS
  1
ACAMPROJECT
  2
AcAmProject
  3
DesignerAssemblies
 90
        0
280
     0
281
     0
  0
CLASS
  1
ACAMGRCOMPDEF
  2
AcAmGrCompDef
  3
DesignerAssemblies
 90
        0
280
     0
281
     0
  0
CLASS
  1
ACCMCONTEXT
  2
AcCmContext
  3
DesignerAssemblies
 90
        0
280
     0
281
     0
  0
CLASS
  1
ACAMCOMPDEF
  2
AcAmCompDef
  3
DesignerAssemblies
 90
        0
280
     0
281
     0
  0
CLASS
  1
ACAMCOMPDEFMGR
  2
AcAmCompDefMgr
  3
DesignerAssemblies
 90
        0
280
     0
281
     0
  0
CLASS
  1
AMCONTEXTMGR
  2
AcAmContextMgr
  3
DesignerAssemblies
 90
        0
280
     0
281
     0
  0
CLASS
  1
ACAMCONTEXTMODELER
  2
AcAmContextModeler
  3
DesignerAssemblies
 90
        0
280
     0
281
     0
  0
CLASS
  1
ACMDATADICTIONARY
  2
AcmDataDictionary
  3
"AcmSymBB|Product Description: AutoCAD Mechanical 2004 DX|Company: Autodesk"
 90
        0
280
     0
281
     0
  0
CLASS
  1
CATALOGSTATE
  2
AcAmCatalogState
  3
DesignerAssemblies
 90
        0
280
     0
281
     0
  0
CLASS
  1
ACAMGRCOMPDEFSET
  2
AcAmGrCompDefSet
  3
DesignerAssemblies
 90
        0
280
     0
281
     0
  0
CLASS
  1
AMDTBROWSERDBTAB
  2
AmdtBrowserDbTab
  3
McadcomServices
 90
        0
280
     0
281
     0
  0
CLASS
  1
CBROWSERAPPOBJECT
  2
CBrowserAppObject
  3
McadcomServices
 90
        0
280
     0
281
     0
  0
CLASS
  1
DM_PLACEHOLDER
  2
AcDmSelsetPlaceholder
  3
AcMechDwgViewMgmt
 90
        0
280
     0
281
     0
  0
CLASS
  1
ACMSTANDARDANSI
  2
AcmStandardANSI
  3
"Amdt_StdImp|Product Description: AutoCAD Mechanical 2004 DX|Company: Autodesk"
 90
        0
280
     0
281
     0
  0
CLASS
  1
AMGOBJPROPCFG
  2
AmgObjPropCfg
  3
"AmgLay|Product Description: AutoCAD Mechanical 2000|Company: Autodesk"
 90
        1
280
     0
281
     0
  0
CLASS
  1
ACMSURFSTANDARDANSI
  2
AcmSurfTextStdANSI
  3
"Amdt_StdImp|Product Description: AutoCAD Mechanical 2004 DX|Company: Autodesk"
 90
        0
280
     0
281
     0
  0
CLASS
  1
ACMFCFSTANDARDANSI
  2
AcmFCFStdANSI
  3
"Amdt_StdImp|Product Description: AutoCAD Mechanical 2004 DX|Company: Autodesk"
 90
        0
280
     0
281
     0
  0
CLASS
  1
ACMWELDSTANDARDANSI
  2
AcmWeldingStdANSI
  3
"Amdt_StdImp|Product Description: AutoCAD Mechanical 2004 DX|Company: Autodesk"
 90
        0
280
     0
281
     0
  0
CLASS
  1
ACMIDSTANDARDANSI
  2
AcmIdStdANSI
  3
"Amdt_StdImp|Product Description: AutoCAD Mechanical 2004 DX|Company: Autodesk"
 90
        0
280
     0
281
     0
  0
CLASS
  1
ACMDATUMSTANDARDANSI
  2
AcmDatumStdANSI
  3
"Amdt_StdImp|Product Description: AutoCAD Mechanical 2004 DX|Company: Autodesk"
 90
        0
280
     0
281
     0
  0
CLASS
  1
ACMBOMSTANDARDANSI
  2
AcmBOMStdANSI
  3
"Amdt_StdImp|Product Description: AutoCAD Mechanical 2004 DX|Company: Autodesk"
 90
        0
280
     0
281
     0
  0
CLASS
  1
ACMDETAILSTANDARDANSI
  2
AmdtDetailSymStdANSI
  3
"Amdt_StdImp|Product Description: AutoCAD Mechanical 2004 DX|Company: Autodesk"
 90
        0
280
     0
281
     0
  0
CLASS
  1
ACMSECTIONSTANDARDANSI
  2
AmdtSectionSymStdANSI
  3
"Amdt_StdImp|Product Description: AutoCAD Mechanical 2004 DX|Company: Autodesk"
 90
        0
280
     0
281
     0
  0
CLASS
  1
ACMCENTERLINESTANDARDANSI
  2
AmdtCenterLineStdANSI
  3
"Amdt_StdImp|Product Description: AutoCAD Mechanical 2004 DX|Company: Autodesk"
 90
        0
280
     0
281
     0
  0
CLASS
  1
ACMTHREADLINESTANDARDANSI
  2
AmdtThreadLineStdANSI
  3
"Amdt_StdImp|Product Description: AutoCAD Mechanical 2004 DX|Company: Autodesk"
 90
        0
280
     0
281
     0
  0
CLASS
  1
ACMNOTESTANDARDANSI
  2
AmdtNoteStdANSI
  3
"Amdt_StdImp|Product Description: AutoCAD Mechanical 2004 DX|Company: Autodesk"
 90
        0
280
     0
281
     0
  0
CLASS
  1
AMDTNOTETEMPLATEDB
  2
AmdtNoteTemplateDB
  3
AMDT_STDIMP_MODULE_NAME
 90
        0
280
     0
281
     0
  0
CLASS
  1
ACAMGLAYSTD
  2
AcAmgLayStd
  3
"AcAmgLayStd|Product Description: AutoCAD Mechanical 2000|Company: Autodesk"
 90
        0
280
     0
281
     0
  0
CLASS
  1
ACAMGDIMSTD
  2
AcAmgDimStd
  3
"AcAmgDimStd|Product Description: AutoCAD Mechanical 2000|Company: Autodesk"
 90
        0
280
     0
281
     0
  0
CLASS
  1
ACAMGHOLECHARTSTDANSI
  2
AcAmgHoleChartStdANSI
  3
ACMSYMBB_MODULE_NAME
 90
        0
280
     0
281
     0
  0
CLASS
  1
ACAMGTITLESTD
  2
AcAmgTitleStd
  3
"TITLEAPP"
 90
        0
280
     0
281
     0
  0
CLASS
  1
ACAMGFILTERDAT
  2
AcAmgFilterDat
  3
"AcadM|Product Description: AutoCAD Mechanical 2000|Company: Autodesk"
 90
        0
280
     0
281
     0
  0
CLASS
  1
DICTIONARYVAR
  2
AcDbDictionaryVar
  3
ObjectDBX Classes
 90
        0
280
     0
281
     0
  0
ENDSEC
  0
SECTION
  2
TABLES
  0
TABLE
  2
VPORT
  5
17AC21874A2FB9
330
0
100
AcDbSymbolTable
 70
     5
  0
VPORT
  5
17AC21874A42C6
330
17AC21874A2FB9
100
AcDbSymbolTableRecord
100
AcDbViewportTableRecord
  2
*Active
 70
     0
 10
0.0
 20
0.0
 11
1.0
 21
1.0
 12
11778.96144517746
 22
5304.077879550983
 13
0.0
 23
0.0
 14
0.2
 24
0.2
 15
0.25
 25
0.25
 16
0.0
 26
0.0
 36
1.0
 17
0.0
 27
0.0
 37
0.0
 40
3047.071214237087
 41
1.516981132075471
 42
50.0
 43
0.0
 44
0.0
 50
0.0
 51
0.0
 71
     0
 72
   100
 73
     1
 74
     0
 75
     0
 76
     0
 77
     0
 78
     0
281
     0
 65
     1
110
0.0
120
0.0
130
0.0
111
1.0
121
0.0
131
0.0
112
0.0
122
1.0
132
0.0
 79
     0
146
0.0
  0
ENDTAB
  0
TABLE
  2
LTYPE
  5
17AC21874A2FB6
330
0
100
AcDbSymbolTable
 70
    22
  0
LTYPE
  5
17AC21874A2FC3
330
17AC21874A2FB6
100
AcDbSymbolTableRecord
100
AcDbLinetypeTableRecord
  2
BYBLOCK
 70
     0
  3

 72
    65
 73
     0
 40
0.0
  0
LTYPE
  5
17AC21874A2FC4
330
17AC21874A2FB6
100
AcDbSymbolTableRecord
100
AcDbLinetypeTableRecord
  2
BYLAYER
 70
     0
  3

 72
    65
 73
     0
 40
0.0
  0
LTYPE
  5
17AC21874A2FC5
330
17AC21874A2FB6
100
AcDbSymbolTableRecord
100
AcDbLinetypeTableRecord
  2
CONTINUOUS
 70
     0
  3
Solid line
 72
    65
 73
     0
 40
0.0
  0
LTYPE
  5
17AC21874A2FD5
330
17AC21874A2FB6
100
AcDbSymbolTableRecord
100
AcDbLinetypeTableRecord
  2
ASSI5
 70
     0
  3
- . - . - . -
 72
    65
 73
     4
 40
10.0
 49
5.0
 74
     0
 49
-2.5
 74
     0
 49
0.0
 74
     0
 49
-2.5
 74
     0
  0
LTYPE
  5
17AC21874A2FD6
330
17AC21874A2FB6
100
AcDbSymbolTableRecord
100
AcDbLinetypeTableRecord
  2
ASSI10
 70
     0
  3
- . - . - . -
 72
    65
 73
     4
 40
20.0
 49
10.0
 74
     0
 49
-5.0
 74
     0
 49
0.0
 74
     0
 49
-5.0
 74
     0
  0
LTYPE
  5
17AC21874A2FD7
330
17AC21874A2FB6
100
AcDbSymbolTableRecord
100
AcDbLinetypeTableRecord
  2
TRATTO
 70
     0
  3
- - - - - - - - -
 72
    65
 73
     2
 40
5.0
 49
2.5
 74
     0
 49
-2.5
 74
     0
  0
LTYPE
  5
17AC21874A2FD8
330
17AC21874A2FB6
100
AcDbSymbolTableRecord
100
AcDbLinetypeTableRecord
  2
TRATTINO
 70
     0
  3
- - - - - - - - -
 72
    65
 73
     2
 40
3.0
 49
2.0
 74
     0
 49
-1.0
 74
     0
  0
LTYPE
  5
17AC21874A2FD9
330
17AC21874A2FB6
100
AcDbSymbolTableRecord
100
AcDbLinetypeTableRecord
  2
TRATTI1
 70
     0
  3
- - - - - - - - - - - - - - - - - - - - - -
 72
    65
 73
     2
 40
4.0
 49
2.5
 74
     0
 49
-1.5
 74
     0
  0
LTYPE
  5
17AC21874A2FDA
330
17AC21874A2FB6
100
AcDbSymbolTableRecord
100
AcDbLinetypeTableRecord
  2
ASSI
 70
     0
  3
assi
 72
    65
 73
     4
 40
17.0
 49
8.0
 74
     0
 49
-4.0
 74
     0
 49
1.0
 74
     0
 49
-4.0
 74
     0
  0
LTYPE
  5
17AC21874A4253
330
17AC21874A2FB6
100
AcDbSymbolTableRecord
100
AcDbLinetypeTableRecord
  2
HIDDEN
 70
     0
  3
Nascosta __ __ __ __ __ __ __ __ __ __ __ __ __ __
 72
    65
 73
     2
 40
0.375
 49
0.25
 74
     0
 49
-0.125
 74
     0
  0
LTYPE
  5
17AC21874A4254
330
17AC21874A2FB6
100
AcDbSymbolTableRecord
100
AcDbLinetypeTableRecord
  2
PHANTOM2
 70
     0
  3
Linea-Lineette (.5x) ___ _ _ ___ _ _ ___ _ _ ___ _ _
 72
    65
 73
     6
 40
1.25
 49
0.625
 74
     0
 49
-0.125
 74
     0
 49
0.125
 74
     0
 49
-0.125
 74
     0
 49
0.125
 74
     0
 49
-0.125
 74
     0
  0
LTYPE
  5
17AC21874A4255
330
17AC21874A2FB6
100
AcDbSymbolTableRecord
100
AcDbLinetypeTableRecord
  2
CENTER
 70
     0
  3
Linea-Lineetta ____ _ ____ _ ____ _ ____ _ ____ _ ____
 72
    65
 73
     4
 40
2.0
 49
1.25
 74
     0
 49
-0.25
 74
     0
 49
0.25
 74
     0
 49
-0.25
 74
     0
  0
LTYPE
  5
17AC21874A4289
330
17AC21874A2FB6
100
AcDbSymbolTableRecord
100
AcDbLinetypeTableRecord
  2
AM_ISO02W050
 70
     0
  3
__ __ __ __ __ __ __ __ __ __ __ __ __ __ __
 72
    65
 73
     2
 40
7.5
 49
6.0
 74
     0
 49
-1.5
 74
     0
  0
LTYPE
  5
17AC21874A428A
330
17AC21874A2FB6
100
AcDbSymbolTableRecord
100
AcDbLinetypeTableRecord
  2
AM_ISO08W050
 70
     0
  3
____ . ____ . ____ . ____ . ____ . ____ . ____
 72
    65
 73
     4
 40
18.0
 49
12.0
 74
     0
 49
-1.5
 74
     0
 49
3.0
 74
     0
 49
-1.5
 74
     0
  0
LTYPE
  5
17AC21874A428B
330
17AC21874A2FB6
100
AcDbSymbolTableRecord
100
AcDbLinetypeTableRecord
  2
AM_ISO09W050
 70
     0
  3
_____ . . _____ . . _____ . . ____ .. ____
 72
    65
 73
     6
 40
22.5
 49
12.0
 74
     0
 49
-1.5
 74
     0
 49
3.0
 74
     0
 49
-1.5
 74
     0
 49
3.0
 74
     0
 49
-1.5
 74
     0
  0
LTYPE
  5
17AC21874A428C
330
17AC21874A2FB6
100
AcDbSymbolTableRecord
100
AcDbLinetypeTableRecord
  2
Amconstr
 70
     0
  3
_______________________
 72
    65
 73
     2
 40
9999.0
 49
9999.0
 74
     0
 49
0.0
 74
     0
  0
LTYPE
  5
17AC21874A428D
330
17AC21874A2FB6
100
AcDbSymbolTableRecord
100
AcDbLinetypeTableRecord
  2
AM_ISO08W050x2
 70
     0
  3
__ . __ . __ . __ . __ . __
 72
    65
 73
     4
 40
9.0
 49
6.0
 74
     0
 49
-0.75
 74
     0
 49
1.5
 74
     0
 49
-0.75
 74
     0
  0
LTYPE
  5
17AC21874A428E
330
17AC21874A2FB6
100
AcDbSymbolTableRecord
100
AcDbLinetypeTableRecord
  2
AM_ISO02W050x2
 70
     0
  3
 _ _ _ _ _ _ _ _ _ _ _ _
 72
    65
 73
     2
 40
3.75
 49
3.0
 74
     0
 49
-0.75
 74
     0
  0
LTYPE
  5
17AC21874A4291
330
17AC21874A2FB6
100
AcDbSymbolTableRecord
100
AcDbLinetypeTableRecord
  2
Amzigzag
 70
     0
  3
/\/-/\/-/\/-/\/-/\/-/\/
 72
    65
 73
     2
 40
11.0001
 49
0.0001
 74
     4
 75
   135
340
17AC21874A4290
 46
0.04
 50
0.0
 44
0.0
 45
0.0
 49
-11.0
 74
     0
  0
LTYPE
  5
17AC21874A4292
330
17AC21874A2FB6
100
AcDbSymbolTableRecord
100
AcDbLinetypeTableRecord
  2
CENTER2
 70
     0
  3
Center (.5x) ___ _ ___ _ ___ _ ___ _ ___ _ ___
 72
    65
 73
     4
 40
1.125
 49
0.75
 74
     0
 49
-0.125
 74
     0
 49
0.125
 74
     0
 49
-0.125
 74
     0
  0
LTYPE
  5
17AC21874A4293
330
17AC21874A2FB6
100
AcDbSymbolTableRecord
100
AcDbLinetypeTableRecord
  2
HIDDEN2
 70
     0
  3
Hidden (.5x) _ _ _ _ _ _ _ _ _ _ _ _ _ _ _ _ _
 72
    65
 73
     2
 40
0.1875
 49
0.125
 74
     0
 49
-0.0625
 74
     0
  0
LTYPE
  5
17AC21874A4294
330
17AC21874A2FB6
100
AcDbSymbolTableRecord
100
AcDbLinetypeTableRecord
  2
Amzigzag2
 70
     0
  3
/\/-/\/-/\/-/\/-/\/-/\/
 72
    65
 73
     2
 40
0.4401
 49
0.0001
 74
     4
 75
   135
340
17AC21874A4290
 46
0.0016
 50
0.0
 44
0.0
 45
0.0
 49
-0.4400000000000001
 74
     0
  0
LTYPE
  5
17AC21874A42A2
330
17AC21874A2FB6
100
AcDbSymbolTableRecord
100
AcDbLinetypeTableRecord
  2
ACANSTGB
 70
     0
  3
__ . . __ . .
 72
    65
 73
     6
 40
0.35433070866
 49
0.15748031496
 74
     0
 49
-0.03937007874
 74
     0
 49
0.03937007874
 74
     0
 49
-0.03937007874
 74
     0
 49
0.03937007874
 74
     0
 49
-0.03937007874
 74
     0
  0
LTYPE
  5
17AC21874A42A3
330
17AC21874A2FB6
100
AcDbSymbolTableRecord
100
AcDbLinetypeTableRecord
  2
ACANSTGL
 70
     0
  3
_ _ _ _ _
 72
    65
 73
     2
 40
0.11811023622
 49
0.07874015748
 74
     0
 49
-0.03937007874
 74
     0
  0
ENDTAB
  0
TABLE
  2
LAYER
  5
17AC21874A2FB3
330
0
100
AcDbSymbolTable
 70
    28
  0
LAYER
  5
17AC21874A2FC0
330
17AC21874A2FB3
100
AcDbSymbolTableRecord
100
AcDbLayerTableRecord
  2
0
 70
     0
 62
     7
  6
CONTINUOUS
370
    -3
390
17AC21874A39C8
  0
LAYER
  5
17AC21874A2FE0
330
17AC21874A2FB3
100
AcDbSymbolTableRecord
100
AcDbLayerTableRecord
  2
BOLLINI
 70
     0
 62
     4
  6
CONTINUOUS
370
    -3
390
17AC21874A39C8
  0
LAYER
  5
17AC21874A2FE1
330
17AC21874A2FB3
100
AcDbSymbolTableRecord
100
AcDbLayerTableRecord
  2
LINEAFIN
 70
     0
 62
     3
  6
CONTINUOUS
370
    -3
390
17AC21874A39C8
  0
LAYER
  5
17AC21874A2FE2
330
17AC21874A2FB3
100
AcDbSymbolTableRecord
100
AcDbLayerTableRecord
  2
FILETTO
 70
     0
 62
     3
  6
CONTINUOUS
370
    -3
390
17AC21874A39C8
  0
LAYER
  5
17AC21874A2FE3
330
17AC21874A2FB3
100
AcDbSymbolTableRecord
100
AcDbLayerTableRecord
  2
COSTRUZIONE
 70
     0
 62
     7
  6
CONTINUOUS
370
    -3
390
17AC21874A39C8
  0
LAYER
  5
17AC21874A2FE4
330
17AC21874A2FB3
100
AcDbSymbolTableRecord
100
AcDbLayerTableRecord
  2
TESTO
 70
     0
 62
   254
  6
CONTINUOUS
370
    -3
390
17AC21874A39C8
  0
LAYER
  5
17AC21874A2FE5
330
17AC21874A2FB3
100
AcDbSymbolTableRecord
100
AcDbLayerTableRecord
  2
FILETTONAS
 70
     0
 62
     3
  6
TRATTINO
370
    -3
390
17AC21874A39C8
  0
LAYER
  5
17AC21874A2FE6
330
17AC21874A2FB3
100
AcDbSymbolTableRecord
100
AcDbLayerTableRecord
  2
TOLLERANZE-G
 70
     0
 62
     3
  6
CONTINUOUS
370
    -3
390
17AC21874A39C8
  0
LAYER
  5
17AC21874A2FE7
330
17AC21874A2FB3
100
AcDbSymbolTableRecord
100
AcDbLayerTableRecord
  2
BULLONI
 70
     0
 62
    30
  6
CONTINUOUS
370
    -3
390
17AC21874A39C8
  0
LAYER
  5
17AC21874A2FE8
330
17AC21874A2FB3
100
AcDbSymbolTableRecord
100
AcDbLayerTableRecord
  2
VITE
 70
     0
 62
    30
  6
CONTINUOUS
370
    -3
390
17AC21874A39C8
  0
LAYER
  5
17AC21874A2FE9
330
17AC21874A2FB3
100
AcDbSymbolTableRecord
100
AcDbLayerTableRecord
  2
DADO
 70
     0
 62
    30
  6
CONTINUOUS
370
    -3
390
17AC21874A39C8
  0
LAYER
  5
17AC21874A2FEA
330
17AC21874A2FB3
100
AcDbSymbolTableRecord
100
AcDbLayerTableRecord
  2
CUSCINETTO
 70
     0
 62
   240
  6
CONTINUOUS
370
    -3
390
17AC21874A39C8
  0
LAYER
  5
17AC21874A2FEB
330
17AC21874A2FB3
100
AcDbSymbolTableRecord
100
AcDbLayerTableRecord
  2
SEDI
 70
     0
 62
     7
  6
CONTINUOUS
370
    -3
390
17AC21874A39C8
  0
LAYER
  5
17AC21874A2FEC
330
17AC21874A2FB3
100
AcDbSymbolTableRecord
100
AcDbLayerTableRecord
  2
FLANGIA
 70
     0
 62
     7
  6
CONTINUOUS
370
    -3
390
17AC21874A39C8
  0
LAYER
  5
17AC21874A2FED
330
17AC21874A2FB3
100
AcDbSymbolTableRecord
100
AcDbLayerTableRecord
  2
NASCOSTO
 70
     0
 62
     6
  6
TRATTINO
370
    -3
390
17AC21874A39C8
  0
LAYER
  5
17AC21874A2FEE
330
17AC21874A2FB3
100
AcDbSymbolTableRecord
100
AcDbLayerTableRecord
  2
SPINA
 70
     0
 62
     7
  6
CONTINUOUS
370
    -3
390
17AC21874A39C8
  0
LAYER
  5
17AC21874A2FEF
330
17AC21874A2FB3
100
AcDbSymbolTableRecord
100
AcDbLayerTableRecord
  2
SIMBOLO
 70
     0
 62
     4
  6
CONTINUOUS
370
    -3
390
17AC21874A39C8
  0
LAYER
  5
17AC21874A2FF0
330
17AC21874A2FB3
100
AcDbSymbolTableRecord
100
AcDbLayerTableRecord
  2
DISTINTA
 70
     0
 62
     7
  6
CONTINUOUS
370
    -3
390
17AC21874A39C8
  0
LAYER
  5
17AC21874A2FF1
330
17AC21874A2FB3
100
AcDbSymbolTableRecord
100
AcDbLayerTableRecord
  2
CARTIGLIO
 70
     0
 62
     9
  6
CONTINUOUS
370
    -3
390
17AC21874A39C8
  0
LAYER
  5
17AC21874A2FF2
330
17AC21874A2FB3
100
AcDbSymbolTableRecord
100
AcDbLayerTableRecord
  2
PROFILATO
 70
     0
 62
     7
  6
CONTINUOUS
370
    -3
390
17AC21874A39C8
  0
LAYER
  5
17AC21874A2FF3
330
17AC21874A2FB3
100
AcDbSymbolTableRecord
100
AcDbLayerTableRecord
  2
SQUADRATURA
 70
     0
 62
     9
  6
CONTINUOUS
370
    -3
390
17AC21874A39C8
  0
LAYER
  5
17AC21874A2FF4
330
17AC21874A2FB3
100
AcDbSymbolTableRecord
100
AcDbLayerTableRecord
  2
ASSE
 70
     0
 62
     1
  6
ASSI
370
    -3
390
17AC21874A39C8
  0
LAYER
  5
17AC21874A2FF5
330
17AC21874A2FB3
100
AcDbSymbolTableRecord
100
AcDbLayerTableRecord
  2
SEZIONE
 70
     0
 62
     4
  6
CONTINUOUS
370
    -3
390
17AC21874A39C8
  0
LAYER
  5
17AC21874A2FF6
330
17AC21874A2FB3
100
AcDbSymbolTableRecord
100
AcDbLayerTableRecord
  2
QUOTA
 70
     0
 62
     3
  6
CONTINUOUS
370
    -3
390
17AC21874A39C8
  0
LAYER
  5
17AC21874A2FF7
330
17AC21874A2FB3
100
AcDbSymbolTableRecord
100
AcDbLayerTableRecord
  2
TRAVE
 70
     0
 62
     7
  6
CONTINUOUS
370
    -3
390
17AC21874A39C8
  0
LAYER
  5
17AC21874A2FF8
330
17AC21874A2FB3
100
AcDbSymbolTableRecord
100
AcDbLayerTableRecord
  2
SALDATURA
 70
     0
 62
     2
  6
CONTINUOUS
370
    -3
390
17AC21874A39C8
  0
LAYER
  5
17AC21874A2FF9
330
17AC21874A2FB3
100
AcDbSymbolTableRecord
100
AcDbLayerTableRecord
  2
DEFPOINTS
 70
     0
 62
     7
  6
CONTINUOUS
290
     0
370
    -3
390
17AC21874A39C8
  0
LAYER
  5
17AC21874A2FFA
330
17AC21874A2FB3
100
AcDbSymbolTableRecord
100
AcDbLayerTableRecord
  2
DATI
 70
     1
 62
   254
  6
CONTINUOUS
370
    -3
390
17AC21874A39C8
  0
ENDTAB
  0
TABLE
  2
STYLE
  5
17AC21874A2FB4
330
0
100
AcDbSymbolTable
 70
     8
  0
STYLE
  5
17AC21874A2FC1
330
17AC21874A2FB4
100
AcDbSymbolTableRecord
100
AcDbTextStyleTableRecord
  2
STANDARD
 70
     0
 40
0.0
 41
1.0
 50
0.0
 71
     0
 42
0.2
  3
TXT.SHX
  4

  0
STYLE
  5
17AC21874A2FD1
330
17AC21874A2FB4
100
AcDbSymbolTableRecord
100
AcDbTextStyleTableRecord
  2
SANSSERIFBOLD
 70
     0
 40
0.0
 41
1.0
 50
0.0
 71
     0
 42
40.0
  3
sasb____.pfb
  4

  0
STYLE
  5
17AC21874A2FD2
330
17AC21874A2FB4
100
AcDbSymbolTableRecord
100
AcDbTextStyleTableRecord
  2
ROMANS
 70
     0
 40
0.0
 41
0.8
 50
0.0
 71
     0
 42
60.0
  3
romans
  4

  0
STYLE
  5
17AC21874A2FD3
330
17AC21874A2FB4
100
AcDbSymbolTableRecord
100
AcDbTextStyleTableRecord
  2
ROMANC
 70
     0
 40
2.7
 41
0.8
 50
0.0
 71
     0
 42
8.808067653947915
  3
romanc
  4

  0
STYLE
  5
17AC21874A2FD4
330
17AC21874A2FB4
100
AcDbSymbolTableRecord
100
AcDbTextStyleTableRecord
  2
ROMANT
 70
     0
 40
3.5
 41
1.0
 50
0.0
 71
     0
 42
8.808067653947915
  3
romant
  4

  0
STYLE
  5
17AC21874A4290
330
17AC21874A2FB4
100
AcDbSymbolTableRecord
100
AcDbTextStyleTableRecord
  2

 70
     1
 40
0.0
 41
1.0
 50
0.0
 71
     0
 42
40.0
  3
ltypeshp.shx
  4

  0
STYLE
  5
17AC21874A4295
330
17AC21874A2FB4
100
AcDbSymbolTableRecord
100
AcDbTextStyleTableRecord
  2
ACANSTS
 70
     0
 40
1.0
 41
1.0
 50
0.0
 71
     0
 42
40.0
  3
romans.shx
  4

  0
STYLE
  5
17AC21874A42A1
330
17AC21874A2FB4
100
AcDbSymbolTableRecord
100
AcDbTextStyleTableRecord
  2
ACANSGDT
 70
     0
 40
0.0
 41
1.0
 50
0.0
 71
     0
 42
40.0
  3
amgdtans.shx
  4

  0
ENDTAB
  0
TABLE
  2
VIEW
  5
17AC21874A2FB7
330
0
100
AcDbSymbolTable
 70
     0
  0
ENDTAB
  0
TABLE
  2
UCS
  5
17AC21874A2FB8
330
0
100
AcDbSymbolTable
 70
     0
  0
ENDTAB
  0
TABLE
  2
APPID
  5
17AC21874A2FBA
330
0
100
AcDbSymbolTable
 70
     9
  0
APPID
  5
17AC21874A2FC2
330
17AC21874A2FBA
100
AcDbSymbolTableRecord
100
AcDbRegAppTableRecord
  2
ACAD
 70
     0
  0
APPID
  5
17AC21874A2FDD
330
17AC21874A2FBA
100
AcDbSymbolTableRecord
100
AcDbRegAppTableRecord
  2
AVE_RENDER
 70
     0
  0
APPID
  5
17AC21874A4226
330
17AC21874A2FBA
100
AcDbSymbolTableRecord
100
AcDbRegAppTableRecord
  2
MCAD_NO_VIS
 70
     0
  0
APPID
  5
17AC21874A4227
330
17AC21874A2FBA
100
AcDbSymbolTableRecord
100
AcDbRegAppTableRecord
  2
ACAD_TEMP_GRAPHIC
 70
     0
  0
APPID
  5
17AC21874A4257
330
17AC21874A2FBA
100
AcDbSymbolTableRecord
100
AcDbRegAppTableRecord
  2
AD_DRAW
 70
     0
  0
APPID
  5
17AC21874A425A
330
17AC21874A2FBA
100
AcDbSymbolTableRecord
100
AcDbRegAppTableRecord
  2
ACATTRIBSERVICES
 70
     0
  0
APPID
  5
17AC21874A4278
330
17AC21874A2FBA
100
AcDbSymbolTableRecord
100
AcDbRegAppTableRecord
  2
DESIGNERASSEMBLIES
 70
     0
  0
APPID
  5
17AC21874A427E
330
17AC21874A2FBA
100
AcDbSymbolTableRecord
100
AcDbRegAppTableRecord
  2
ACADM_DIM_EDIT
 70
     0
  0
APPID
  5
17AC21874A427F
330
17AC21874A2FBA
100
AcDbSymbolTableRecord
100
AcDbRegAppTableRecord
  2
AMDT_DM_ADJ
 70
     0
  0
ENDTAB
  0
TABLE
  2
DIMSTYLE
  5
17AC21874A2FBB
330
0
100
AcDbSymbolTable
 70
     8
100
AcDbDimStyleTable
 71
     1
340
17AC21874A2FDF
  0
DIMSTYLE
105
17AC21874A2FDE
330
17AC21874A2FBB
100
AcDbSymbolTableRecord
100
AcDbDimStyleTableRecord
  2
SCALA-1
 70
     0
 41
3.0
 42
2.0
 43
10.0
 44
2.0
 47
0.1
 48
0.15
 73
     0
 74
     0
 77
     1
 78
     8
140
3.0
141
0.5
146
0.6666666666666666
147
1.0
172
     1
176
   256
177
     5
271
     2
272
     2
275
     1
279
     2
284
     8
285
     8
286
     8
340
17AC21874A2FD2
  0
DIMSTYLE
105
17AC21874A2FDF
102
{ACAD_REACTORS
330
17AC21874A38BB
330
17AC21874A3C7C
330
17AC21874A3CB1
330
17AC21874A3CC7
330
17AC21874A3C92
102
}
330
17AC21874A2FBB
100
AcDbSymbolTableRecord
100
AcDbDimStyleTableRecord
  2
BASE
 70
     0
 41
3.0
 42
2.0
 43
10.0
 44
2.0
 47
0.1
 48
0.15
 73
     0
 74
     0
 77
     1
 78
     8
140
3.0
141
0.5
146
0.6666666666666666
147
1.0
172
     1
176
   256
177
   256
178
   254
279
     2
340
17AC21874A2FD2
  0
DIMSTYLE
105
17AC21874A42AC
330
17AC21874A2FBB
100
AcDbSymbolTableRecord
100
AcDbDimStyleTableRecord
  2
AM_ANSI
 70
     0
  4
mm
 41
0.1
 42
0.05
 43
0.5
 44
0.1
 47
0.1
 48
0.1
 78
     7
 79
     2
140
0.12
141
0.0
146
0.71
147
0.06
176
   256
177
   256
178
     2
274
     4
284
     7
340
17AC21874A2FC1
371
    -1
372
    -1
  0
DIMSTYLE
105
17AC21874A42AD
330
17AC21874A2FBB
100
AcDbSymbolTableRecord
100
AcDbDimStyleTableRecord
  2
AM_ANSI$3
 70
     0
  4
mm
 41
0.1
 42
0.05
 43
0.5
 44
0.1
 47
0.1
 48
0.1
 78
     7
 79
     2
140
0.12
141
0.0
146
0.71
147
0.06
176
   256
177
   256
178
     2
274
     4
284
     7
288
     1
289
     0
340
17AC21874A2FC1
371
    -1
372
    -1
  0
DIMSTYLE
105
17AC21874A42AE
330
17AC21874A2FBB
100
AcDbSymbolTableRecord
100
AcDbDimStyleTableRecord
  2
AM_ANSI$4
 70
     0
  4
mm
 41
0.1
 42
0.05
 43
0.5
 44
0.1
 47
0.1
 48
0.1
 78
     7
 79
     2
140
0.12
141
0.0
146
0.71
147
0.06
176
   256
177
   256
178
     2
274
     4
284
     7
288
     1
289
     0
340
17AC21874A2FC1
371
    -1
372
    -1
  0
DIMSTYLE
105
17AC21874A42AF
330
17AC21874A2FBB
100
AcDbSymbolTableRecord
100
AcDbDimStyleTableRecord
  2
AM_ANSI$7
 70
     0
  4
mm
 41
0.1
 42
0.05
 43
0.5
 44
0.1
 47
0.1
 48
0.1
 78
     7
 79
     2
140
0.24
141
0.0
146
0.71
147
0.06
176
   256
177
   256
178
     2
274
     4
284
     7
340
17AC21874A2FC1
371
    -1
372
    -1
  0
DIMSTYLE
105
17AC21874A42B0
330
17AC21874A2FBB
100
AcDbSymbolTableRecord
100
AcDbDimStyleTableRecord
  2
AM_ANSI$SF
 70
     0
  4
mm
 41
0.1
 42
0.05
 43
0.5
 44
0.1
 47
0.1
 48
0.1
 75
     1
 76
     1
 78
     7
 79
     2
140
0.12
141
0.0
146
0.71
147
0.06
176
   256
177
   256
178
     2
274
     4
284
     7
340
17AC21874A2FC1
371
    -1
372
    -1
  0
DIMSTYLE
105
17AC21874A42B5
330
17AC21874A2FBB
100
AcDbSymbolTableRecord
100
AcDbDimStyleTableRecord
  2
AM_ANSI$SH
 70
     0
  4
mm
 41
0.1
 42
0.05
 43
0.5
 44
0.1
 47
0.1
 48
0.1
 75
     1
 76
     1
 78
     7
 79
     2
140
0.12
141
0.0
146
0.71
147
0.06
173
     1
176
   256
177
   256
178
     2
274
     4
284
     7
340
17AC21874A2FC1
343
17AC21874A42B1
371
    -1
372
    -1
  0
ENDTAB
  0
TABLE
  2
BLOCK_RECORD
  5
17AC21874A2FB2
330
0
100
AcDbSymbolTable
 70
    18
  0
BLOCK_RECORD
  5
17AC21874A2FC9
330
17AC21874A2FB2
100
AcDbSymbolTableRecord
100
AcDbBlockTableRecord
  2
*MODEL_SPACE
340
17AC21874A39CB
  0
BLOCK_RECORD
  5
17AC21874A2FC6
330
17AC21874A2FB2
100
AcDbSymbolTableRecord
100
AcDbBlockTableRecord
  2
*PAPER_SPACE
340
17AC21874A39CC
  0
BLOCK_RECORD
  5
17AC21874A2FCD
330
17AC21874A2FB2
100
AcDbSymbolTableRecord
100
AcDbBlockTableRecord
  2
AVE_RENDER
340
0
102
{BLKREFS
331
151
331
152
331
153
102
}
  0
BLOCK_RECORD
  5
17AC21874A2FCE
330
17AC21874A2FB2
100
AcDbSymbolTableRecord
100
AcDbBlockTableRecord
  2
SCALA1
340
0
102
{BLKREFS
331
D132099FA66
102
}
  0
BLOCK_RECORD
  5
17AC21874A2FCF
330
17AC21874A2FB2
100
AcDbSymbolTableRecord
100
AcDbBlockTableRecord
  2
FR0
340
0
  0
BLOCK_RECORD
  5
17AC21874A2FD0
330
17AC21874A2FB2
100
AcDbSymbolTableRecord
100
AcDbBlockTableRecord
  2
FR1
340
0
  0
BLOCK_RECORD
  5
17AC21874A38AF
330
17AC21874A2FB2
100
AcDbSymbolTableRecord
100
AcDbBlockTableRecord
  2
*D4
340
0
  0
BLOCK_RECORD
  5
17AC21874A3A72
330
17AC21874A2FB2
100
AcDbSymbolTableRecord
100
AcDbBlockTableRecord
  2
*X5
340
0
102
{BLKREFS
331
17AC21874A3BB1
102
}
  0
BLOCK_RECORD
  5
17AC21874A3ACC
330
17AC21874A2FB2
100
AcDbSymbolTableRecord
100
AcDbBlockTableRecord
  2
*X6
340
0
102
{BLKREFS
331
17AC21874A3C32
102
}
  0
BLOCK_RECORD
  5
17AC21874A3B4D
330
17AC21874A2FB2
100
AcDbSymbolTableRecord
100
AcDbBlockTableRecord
  2
A$C57196644
340
0
102
{BLKREFS
331
17AC21874A3C3F
331
17AC21874A3C40
331
17AC21874A3C41
331
17AC21874A3C42
102
}
  0
BLOCK_RECORD
  5
17AC21874A3C7D
330
17AC21874A2FB2
100
AcDbSymbolTableRecord
100
AcDbBlockTableRecord
  2
*D8
340
0
  0
BLOCK_RECORD
  5
17AC21874A3C93
330
17AC21874A2FB2
100
AcDbSymbolTableRecord
100
AcDbBlockTableRecord
  2
*D9
340
0
  0
BLOCK_RECORD
  5
17AC21874A3CB2
330
17AC21874A2FB2
100
AcDbSymbolTableRecord
100
AcDbBlockTableRecord
  2
*D10
340
0
  0
BLOCK_RECORD
  5
17AC21874A3CC8
330
17AC21874A2FB2
100
AcDbSymbolTableRecord
100
AcDbBlockTableRecord
  2
*D11
340
0
  0
BLOCK_RECORD
  5
17AC21874A3D69
330
17AC21874A2FB2
100
AcDbSymbolTableRecord
100
AcDbBlockTableRecord
  2
A$C6
340
0
102
{BLKREFS
331
17AC21874A4055
102
}
  0
BLOCK_RECORD
  5
17AC21874A3D6F
330
17AC21874A2FB2
100
AcDbSymbolTableRecord
100
AcDbBlockTableRecord
  2
*X13
340
0
102
{BLKREFS
331
17AC21874A3EAE
102
}
  0
BLOCK_RECORD
  5
17AC21874A3DC9
330
17AC21874A2FB2
100
AcDbSymbolTableRecord
100
AcDbBlockTableRecord
  2
*X14
340
0
102
{BLKREFS
331
17AC21874A3F2F
102
}
  0
BLOCK_RECORD
  5
17AC21874A3E4A
330
17AC21874A2FB2
100
AcDbSymbolTableRecord
100
AcDbBlockTableRecord
  2
A$C3CDD1C19
340
0
  0
BLOCK_RECORD
  5
17AC21874A42B1
330
17AC21874A2FB2
100
AcDbSymbolTableRecord
100
AcDbBlockTableRecord
  2
GENAXEH
340
0
  0
ENDTAB
  0
ENDSEC
  0
SECTION
  2
BLOCKS
  0
BLOCK
  5
17AC21874A2FFD
330
17AC21874A2FC9
100
AcDbEntity
  8
0
100
AcDbBlockBegin
  2
*MODEL_SPACE
 70
     0
 10
0.0
 20
0.0
 30
0.0
  3
*MODEL_SPACE
  1

  0
ENDBLK
  5
17AC21874A2FFE
330
17AC21874A2FC9
100
AcDbEntity
  8
0
100
AcDbBlockEnd
  0
BLOCK
  5
17AC21874A2FFB
330
17AC21874A2FC6
100
AcDbEntity
 67
     1
  8
0
100
AcDbBlockBegin
  2
*PAPER_SPACE
 70
     0
 10
0.0
 20
0.0
 30
0.0
  3
*PAPER_SPACE
  1

  0
ENDBLK
  5
17AC21874A2FFC
330
17AC21874A2FC6
100
AcDbEntity
 67
     1
  8
0
100
AcDbBlockEnd
  0
BLOCK
  5
14F
330
17AC21874A2FCD
100
AcDbEntity
  8
0
100
AcDbBlockBegin
  2
AVE_RENDER
 70
     0
 10
0.0
 20
0.0
 30
0.0
  3
AVE_RENDER
  1
AVE_RENDER
  0
ENDBLK
  5
150
330
17AC21874A2FCD
100
AcDbEntity
  8
0
100
AcDbBlockEnd
  0
BLOCK
  5
D132099F947
330
17AC21874A2FCE
100
AcDbEntity
  8
0
100
AcDbBlockBegin
  2
SCALA1
 70
     0
 10
0.0
 20
0.0
 30
0.0
  3
SCALA1
  1

  0
ENDBLK
  5
D132099FA65
330
17AC21874A2FCE
100
AcDbEntity
  8
0
100
AcDbBlockEnd
  0
BLOCK
  5
17AC21874A2E96
330
17AC21874A2FCF
100
AcDbEntity
  8
0
100
AcDbBlockBegin
  2
FR0
 70
     0
 10
0.0
 20
0.0
 30
0.0
  3
FR0
  1

  0
LINE
  5
17AC21874A2E97
330
17AC21874A2FCF
100
AcDbEntity
  8
0
 62
     0
100
AcDbLine
 10
-1.0
 20
0.0
 30
0.0
 11
0.0
 21
0.0
 31
0.0
  0
ENDBLK
  5
17AC21874A2E98
330
17AC21874A2FCF
100
AcDbEntity
  8
0
100
AcDbBlockEnd
  0
BLOCK
  5
17AC21874A2E9A
330
17AC21874A2FD0
100
AcDbEntity
  8
0
100
AcDbBlockBegin
  2
FR1
 70
     0
 10
0.0
 20
0.0
 30
0.0
  3
FR1
  1

  0
SOLID
  5
17AC21874A2E9B
330
17AC21874A2FD0
100
AcDbEntity
  8
0
  6
ByBlock
 62
     0
100
AcDbTrace
 10
-1.0
 20
0.1666666666666572
 30
0.0
 11
-1.0
 21
-0.1666666666666572
 31
0.0
 12
0.0
 22
0.0
 32
0.0
 13
0.0
 23
0.0
 33
0.0
  0
ENDBLK
  5
17AC21874A2E9C
330
17AC21874A2FD0
100
AcDbEntity
  8
0
100
AcDbBlockEnd
  0
BLOCK
  5
17AC21874A38BC
330
17AC21874A38AF
100
AcDbEntity
  8
0
100
AcDbBlockBegin
  2
*D4
 70
     1
 10
0.0
 20
0.0
 30
0.0
  3
*D4
  1

  0
LINE
  5
17AC21874A41B9
330
17AC21874A38AF
100
AcDbEntity
  8
QUOTA
370
    -2
100
AcDbLine
 10
13613.091305944
 20
4593.1699467419
 30
0.0
 11
13613.091305944
 21
4021.838943697726
 31
0.0
  0
LINE
  5
17AC21874A41BA
330
17AC21874A38AF
100
AcDbEntity
  8
QUOTA
370
    -2
100
AcDbLine
 10
10617.08366920295
 20
4593.1699467419
 30
0.0
 11
10617.08366920295
 21
4021.838943697726
 31
0.0
  0
LINE
  5
17AC21874A41BB
330
17AC21874A38AF
100
AcDbEntity
  8
QUOTA
370
    -2
100
AcDbLine
 10
13583.091305944
 20
4041.838943697727
 30
0.0
 11
10647.08366920295
 21
4041.838943697727
 31
0.0
  0
SOLID
  5
17AC21874A41BC
330
17AC21874A38AF
100
AcDbEntity
  8
QUOTA
100
AcDbTrace
 10
13583.091305944
 20
4046.838943697727
 30
0.0
 11
13583.091305944
 21
4036.838943697726
 31
0.0
 12
13613.091305944
 22
4041.838943697727
 32
0.0
 13
13613.091305944
 23
4041.838943697727
 33
0.0
  0
SOLID
  5
17AC21874A41BD
330
17AC21874A38AF
100
AcDbEntity
  8
QUOTA
100
AcDbTrace
 10
10647.08366920295
 20
4046.838943697727
 30
0.0
 11
10647.08366920295
 21
4036.838943697726
 31
0.0
 12
10617.08366920295
 22
4041.838943697727
 32
0.0
 13
10617.08366920295
 23
4041.838943697727
 33
0.0
  0
MTEXT
  5
17AC21874A41BE
330
17AC21874A38AF
100
AcDbEntity
  8
QUOTA
 62
   254
100
AcDbMText
 10
12115.08748757348
 20
4066.838943697727
 30
0.0
 40
30.0
 41
0.0
 71
     5
 72
     1
  1
\A1;3000 mm
  7
ROMANS
 73
     1
 44
1.0
1001
ACAD
1000
MTEXTBEGIN
1070
    73
1070
     1
1070
    44
1040
1.0
1070
    74
1070
     0
1000
MTEXTEND
  0
POINT
  5
17AC21874A41BF
330
17AC21874A38AF
100
AcDbEntity
  8
DEFPOINTS
 62
     0
100
AcDbPoint
 10
13613.091305944
 20
4613.1699467419
 30
0.0
  0
POINT
  5
17AC21874A41C0
330
17AC21874A38AF
100
AcDbEntity
  8
DEFPOINTS
 62
     0
100
AcDbPoint
 10
10617.08366920295
 20
4613.1699467419
 30
0.0
  0
POINT
  5
17AC21874A41C1
330
17AC21874A38AF
100
AcDbEntity
  8
DEFPOINTS
 62
     0
100
AcDbPoint
 10
10617.08366920295
 20
4041.838943697727
 30
0.0
  0
ENDBLK
  5
17AC21874A38C6
330
17AC21874A38AF
100
AcDbEntity
  8
0
100
AcDbBlockEnd
  0
BLOCK
  5
17AC21874A3ACA
330
17AC21874A3A72
100
AcDbEntity
  8
0
100
AcDbBlockBegin
  2
*X5
 70
     1
 10
0.0
 20
0.0
 30
0.0
  3
*X5
  1

  0
LINE
  5
17AC21874A3A73
330
17AC21874A3A72
100
AcDbEntity
  8
0
 62
     0
100
AcDbLine
 10
2712.260624128367
 20
1999.496988692327
 30
0.0
 11
2712.461612631596
 21
1999.697977195557
 31
0.0
  0
LINE
  5
17AC21874A3A74
330
17AC21874A3A72
100
AcDbEntity
  8
0
 62
     0
100
AcDbLine
 10
2715.290039756343
 20
2002.526404320303
 30
0.0
 11
2723.775321130581
 21
2011.011685694542
 31
0.0
  0
LINE
  5
17AC21874A3A75
330
17AC21874A3A72
100
AcDbEntity
  8
0
 62
     0
100
AcDbLine
 10
2726.603748255328
 20
2013.840112819288
 30
0.0
 11
2731.635890503999
 21
2018.872255067959
 31
0.0
  0
LINE
  5
17AC21874A3A76
330
17AC21874A3A72
100
AcDbEntity
  8
0
 62
     0
100
AcDbLine
 10
2731.635890504
 20
2018.87225506796
 30
0.0
 11
2735.089029629566
 21
2022.325394193526
 31
0.0
  0
LINE
  5
17AC21874A3A77
330
17AC21874A3A72
100
AcDbEntity
  8
0
 62
     0
100
AcDbLine
 10
2706.603769878874
 20
1999.496988692327
 30
0.0
 11
2712.461612631596
 21
2005.354831445049
 31
0.0
  0
LINE
  5
17AC21874A3A78
330
17AC21874A3A72
100
AcDbEntity
  8
0
 62
     0
100
AcDbLine
 10
2715.290039756343
 20
2008.183258569796
 30
0.0
 11
2723.775321130581
 21
2016.668539944034
 31
0.0
  0
LINE
  5
17AC21874A3A79
330
17AC21874A3A72
100
AcDbEntity
  8
0
 62
     0
100
AcDbLine
 10
2726.603748255328
 20
2019.49696706878
 30
0.0
 11
2729.795766271061
 21
2022.688985084514
 31
0.0
  0
LINE
  5
17AC21874A3A7A
330
17AC21874A3A72
100
AcDbEntity
  8
0
 62
     0
100
AcDbLine
 10
2700.946915629382
 20
1999.496988692327
 30
0.0
 11
2701.147904132612
 21
1999.697977195556
 31
0.0
  0
LINE
  5
17AC21874A3A7B
330
17AC21874A3A72
100
AcDbEntity
  8
0
 62
     0
100
AcDbLine
 10
2703.976331257358
 20
2002.526404320303
 30
0.0
 11
2712.461612631597
 21
2011.011685694541
 31
0.0
  0
LINE
  5
17AC21874A3A7C
330
17AC21874A3A72
100
AcDbEntity
  8
0
 62
     0
100
AcDbLine
 10
2715.290039756343
 20
2013.840112819288
 30
0.0
 11
2723.775321130582
 21
2022.325394193527
 31
0.0
  0
LINE
  5
17AC21874A3A7D
330
17AC21874A3A72
100
AcDbEntity
  8
0
 62
     0
100
AcDbLine
 10
2695.29006137989
 20
1999.496988692327
 30
0.0
 11
2701.147904132612
 21
2005.354831445049
 31
0.0
  0
LINE
  5
17AC21874A3A7E
330
17AC21874A3A72
100
AcDbEntity
  8
0
 62
     0
100
AcDbLine
 10
2703.976331257358
 20
2008.183258569795
 30
0.0
 11
2712.461612631596
 21
2016.668539944034
 31
0.0
  0
LINE
  5
17AC21874A3A7F
330
17AC21874A3A72
100
AcDbEntity
  8
0
 62
     0
100
AcDbLine
 10
2715.290039756343
 20
2019.49696706878
 30
0.0
 11
2718.482057772076
 21
2022.688985084514
 31
0.0
  0
LINE
  5
17AC21874A3A80
330
17AC21874A3A72
100
AcDbEntity
  8
0
 62
     0
100
AcDbLine
 10
2692.662622758373
 20
2002.526404320303
 30
0.0
 11
2701.147904132612
 21
2011.011685694541
 31
0.0
  0
LINE
  5
17AC21874A3A81
330
17AC21874A3A72
100
AcDbEntity
  8
0
 62
     0
100
AcDbLine
 10
2703.976331257358
 20
2013.840112819288
 30
0.0
 11
2712.461612631596
 21
2022.325394193526
 31
0.0
  0
LINE
  5
17AC21874A3A82
330
17AC21874A3A72
100
AcDbEntity
  8
0
 62
     0
100
AcDbLine
 10
2687.122353954997
 20
2002.642989766419
 30
0.0
 11
2689.834195633627
 21
2005.354831445049
 31
0.0
  0
LINE
  5
17AC21874A3A83
330
17AC21874A3A72
100
AcDbEntity
  8
0
 62
     0
100
AcDbLine
 10
2692.662622758374
 20
2008.183258569795
 30
0.0
 11
2701.147904132612
 21
2016.668539944034
 31
0.0
  0
LINE
  5
17AC21874A3A84
330
17AC21874A3A72
100
AcDbEntity
  8
0
 62
     0
100
AcDbLine
 10
2703.976331257358
 20
2019.49696706878
 30
0.0
 11
2707.168349273092
 21
2022.688985084514
 31
0.0
  0
LINE
  5
17AC21874A3A85
330
17AC21874A3A72
100
AcDbEntity
  8
0
 62
     0
100
AcDbLine
 10
2686.765918101505
 20
2007.943408162419
 30
0.0
 11
2689.834195633627
 21
2011.011685694541
 31
0.0
  0
LINE
  5
17AC21874A3A86
330
17AC21874A3A72
100
AcDbEntity
  8
0
 62
     0
100
AcDbLine
 10
2692.662622758374
 20
2013.840112819288
 30
0.0
 11
2701.147904132612
 21
2022.325394193526
 31
0.0
  0
LINE
  5
17AC21874A3A87
330
17AC21874A3A72
100
AcDbEntity
  8
0
 62
     0
100
AcDbLine
 10
2686.765918101505
 20
2013.600262411912
 30
0.0
 11
2689.834195633627
 21
2016.668539944034
 31
0.0
  0
LINE
  5
17AC21874A3A88
330
17AC21874A3A72
100
AcDbEntity
  8
0
 62
     0
100
AcDbLine
 10
2692.662622758374
 20
2019.49696706878
 30
0.0
 11
2695.854640774107
 21
2022.688985084514
 31
0.0
  0
LINE
  5
17AC21874A3A89
330
17AC21874A3A72
100
AcDbEntity
  8
0
 62
     0
100
AcDbLine
 10
2686.765918101505
 20
2019.257116661404
 30
0.0
 11
2689.834195633627
 21
2022.325394193526
 31
0.0
  0
LINE
  5
17AC21874A3A8A
330
17AC21874A3A72
100
AcDbEntity
  8
0
 62
     0
100
AcDbLine
 10
2717.917478377859
 20
1999.496988692327
 30
0.0
 11
2723.775321130581
 21
2005.354831445049
 31
0.0
  0
LINE
  5
17AC21874A3A8B
330
17AC21874A3A72
100
AcDbEntity
  8
0
 62
     0
100
AcDbLine
 10
2726.603748255328
 20
2008.183258569796
 30
0.0
 11
2731.635890503999
 21
2013.215400818467
 31
0.0
  0
LINE
  5
17AC21874A3A8C
330
17AC21874A3A72
100
AcDbEntity
  8
0
 62
     0
100
AcDbLine
 10
2731.635890504
 20
2013.215400818467
 30
0.0
 11
2735.089029629566
 21
2016.668539944033
 31
0.0
  0
LINE
  5
17AC21874A3A8D
330
17AC21874A3A72
100
AcDbEntity
  8
0
 62
     0
100
AcDbLine
 10
2737.917456754312
 20
2019.496967068779
 30
0.0
 11
2741.109474770046
 21
2022.688985084513
 31
0.0
  0
LINE
  5
17AC21874A3A8E
330
17AC21874A3A72
100
AcDbEntity
  8
0
 62
     0
100
AcDbLine
 10
2723.574332627352
 20
1999.496988692327
 30
0.0
 11
2723.775321130581
 21
1999.697977195557
 31
0.0
  0
LINE
  5
17AC21874A3A8F
330
17AC21874A3A72
100
AcDbEntity
  8
0
 62
     0
100
AcDbLine
 10
2726.603748255328
 20
2002.526404320303
 30
0.0
 11
2731.635890503999
 21
2007.558546568975
 31
0.0
  0
LINE
  5
17AC21874A3A90
330
17AC21874A3A72
100
AcDbEntity
  8
0
 62
     0
100
AcDbLine
 10
2731.635890504
 20
2007.558546568975
 30
0.0
 11
2735.089029629566
 21
2011.011685694541
 31
0.0
  0
LINE
  5
17AC21874A3A91
330
17AC21874A3A72
100
AcDbEntity
  8
0
 62
     0
100
AcDbLine
 10
2737.917456754312
 20
2013.840112819288
 30
0.0
 11
2746.402738128551
 21
2022.325394193526
 31
0.0
  0
LINE
  5
17AC21874A3A92
330
17AC21874A3A72
100
AcDbEntity
  8
0
 62
     0
100
AcDbLine
 10
2729.231186876844
 20
1999.496988692327
 30
0.0
 11
2731.635890504
 21
2001.901692319482
 31
0.0
  0
LINE
  5
17AC21874A3A93
330
17AC21874A3A72
100
AcDbEntity
  8
0
 62
     0
100
AcDbLine
 10
2731.635890504
 20
2001.901692319483
 30
0.0
 11
2735.089029629566
 21
2005.354831445049
 31
0.0
  0
LINE
  5
17AC21874A3A94
330
17AC21874A3A72
100
AcDbEntity
  8
0
 62
     0
100
AcDbLine
 10
2737.917456754312
 20
2008.183258569795
 30
0.0
 11
2746.402738128551
 21
2016.668539944034
 31
0.0
  0
LINE
  5
17AC21874A3A95
330
17AC21874A3A72
100
AcDbEntity
  8
0
 62
     0
100
AcDbLine
 10
2749.231165253297
 20
2019.49696706878
 30
0.0
 11
2752.423183269031
 21
2022.688985084514
 31
0.0
  0
LINE
  5
17AC21874A3A96
330
17AC21874A3A72
100
AcDbEntity
  8
0
 62
     0
100
AcDbLine
 10
2734.888041126337
 20
1999.496988692327
 30
0.0
 11
2735.089029629566
 21
1999.697977195557
 31
0.0
  0
LINE
  5
17AC21874A3A97
330
17AC21874A3A72
100
AcDbEntity
  8
0
 62
     0
100
AcDbLine
 10
2737.917456754312
 20
2002.526404320303
 30
0.0
 11
2746.402738128551
 21
2011.011685694542
 31
0.0
  0
LINE
  5
17AC21874A3A98
330
17AC21874A3A72
100
AcDbEntity
  8
0
 62
     0
100
AcDbLine
 10
2749.231165253297
 20
2013.840112819288
 30
0.0
 11
2757.716446627536
 21
2022.325394193527
 31
0.0
  0
LINE
  5
17AC21874A3A99
330
17AC21874A3A72
100
AcDbEntity
  8
0
 62
     0
100
AcDbLine
 10
2740.544895375829
 20
1999.496988692327
 30
0.0
 11
2746.402738128551
 21
2005.354831445049
 31
0.0
  0
LINE
  5
17AC21874A3A9A
330
17AC21874A3A72
100
AcDbEntity
  8
0
 62
     0
100
AcDbLine
 10
2749.231165253297
 20
2008.183258569796
 30
0.0
 11
2757.716446627536
 21
2016.668539944034
 31
0.0
  0
LINE
  5
17AC21874A3A9B
330
17AC21874A3A72
100
AcDbEntity
  8
0
 62
     0
100
AcDbLine
 10
2760.544873752282
 20
2019.49696706878
 30
0.0
 11
2763.736891768016
 21
2022.688985084514
 31
0.0
  0
LINE
  5
17AC21874A3A9C
330
17AC21874A3A72
100
AcDbEntity
  8
0
 62
     0
100
AcDbLine
 10
2746.201749625322
 20
1999.496988692327
 30
0.0
 11
2746.402738128551
 21
1999.697977195557
 31
0.0
  0
LINE
  5
17AC21874A3A9D
330
17AC21874A3A72
100
AcDbEntity
  8
0
 62
     0
100
AcDbLine
 10
2749.231165253297
 20
2002.526404320303
 30
0.0
 11
2757.716446627536
 21
2011.011685694542
 31
0.0
  0
LINE
  5
17AC21874A3A9E
330
17AC21874A3A72
100
AcDbEntity
  8
0
 62
     0
100
AcDbLine
 10
2760.544873752282
 20
2013.840112819288
 30
0.0
 11
2761.021022527084
 21
2014.31626159409
 31
0.0
  0
LINE
  5
17AC21874A3A9F
330
17AC21874A3A72
100
AcDbEntity
  8
0
 62
     0
100
AcDbLine
 10
2751.858603874814
 20
1999.496988692327
 30
0.0
 11
2755.915954095707
 21
2003.55433891322
 31
0.0
  0
LINE
  5
17AC21874A3AA0
330
17AC21874A3A72
100
AcDbEntity
  8
0
 62
     0
100
AcDbLine
 10
2735.290018133304
 20
1999.496988692327
 30
0.0
 11
2732.260602505074
 21
2002.526404320557
 31
0.0
  0
LINE
  5
17AC21874A3AA1
330
17AC21874A3A72
100
AcDbEntity
  8
0
 62
     0
100
AcDbLine
 10
2729.432175380328
 20
2005.354831445303
 30
0.0
 11
2720.94689400609
 21
2013.840112819542
 31
0.0
  0
LINE
  5
17AC21874A3AA2
330
17AC21874A3A72
100
AcDbEntity
  8
0
 62
     0
100
AcDbLine
 10
2718.118466881343
 20
2016.668539944288
 30
0.0
 11
2712.098021741117
 21
2022.688985084514
 31
0.0
  0
LINE
  5
17AC21874A3AA3
330
17AC21874A3A72
100
AcDbEntity
  8
0
 62
     0
100
AcDbLine
 10
2740.745883879313
 20
1999.697977195809
 30
0.0
 11
2732.260602505074
 21
2008.183258570047
 31
0.0
  0
LINE
  5
17AC21874A3AA4
330
17AC21874A3A72
100
AcDbEntity
  8
0
 62
     0
100
AcDbLine
 10
2729.432175380328
 20
2011.011685694795
 30
0.0
 11
2720.94689400609
 21
2019.496967069033
 31
0.0
  0
LINE
  5
17AC21874A3AA5
330
17AC21874A3A72
100
AcDbEntity
  8
0
 62
     0
100
AcDbLine
 10
2718.118466881343
 20
2022.325394193779
 30
0.0
 11
2717.754875990608
 21
2022.688985084514
 31
0.0
  0
LINE
  5
17AC21874A3AA6
330
17AC21874A3A72
100
AcDbEntity
  8
0
 62
     0
100
AcDbLine
 10
2746.603726632287
 20
1999.496988692327
 30
0.0
 11
2743.574311004059
 21
2002.526404320556
 31
0.0
  0
LINE
  5
17AC21874A3AA7
330
17AC21874A3A72
100
AcDbEntity
  8
0
 62
     0
100
AcDbLine
 10
2740.745883879312
 20
2005.354831445302
 30
0.0
 11
2732.260602505073
 21
2013.84011281954
 31
0.0
  0
LINE
  5
17AC21874A3AA8
330
17AC21874A3A72
100
AcDbEntity
  8
0
 62
     0
100
AcDbLine
 10
2729.432175380328
 20
2016.668539944287
 30
0.0
 11
2723.411730240101
 21
2022.688985084514
 31
0.0
  0
LINE
  5
17AC21874A3AA9
330
17AC21874A3A72
100
AcDbEntity
  8
0
 62
     0
100
AcDbLine
 10
2752.059592378297
 20
1999.697977195809
 30
0.0
 11
2743.574311004059
 21
2008.183258570048
 31
0.0
  0
LINE
  5
17AC21874A3AAA
330
17AC21874A3A72
100
AcDbEntity
  8
0
 62
     0
100
AcDbLine
 10
2740.745883879312
 20
2011.011685694794
 30
0.0
 11
2732.260602505073
 21
2019.496967069033
 31
0.0
  0
LINE
  5
17AC21874A3AAB
330
17AC21874A3A72
100
AcDbEntity
  8
0
 62
     0
100
AcDbLine
 10
2729.432175380328
 20
2022.32539419378
 30
0.0
 11
2729.068584489593
 21
2022.688985084514
 31
0.0
  0
LINE
  5
17AC21874A3AAC
330
17AC21874A3A72
100
AcDbEntity
  8
0
 62
     0
100
AcDbLine
 10
2755.311322949602
 20
2002.103100873998
 30
0.0
 11
2754.888019503044
 21
2002.526404320557
 31
0.0
  0
LINE
  5
17AC21874A3AAD
330
17AC21874A3A72
100
AcDbEntity
  8
0
 62
     0
100
AcDbLine
 10
2752.059592378297
 20
2005.354831445302
 30
0.0
 11
2743.574311004059
 21
2013.840112819541
 31
0.0
  0
LINE
  5
17AC21874A3AAE
330
17AC21874A3A72
100
AcDbEntity
  8
0
 62
     0
100
AcDbLine
 10
2740.745883879312
 20
2016.668539944288
 30
0.0
 11
2734.725438739086
 21
2022.688985084514
 31
0.0
  0
LINE
  5
17AC21874A3AAF
330
17AC21874A3A72
100
AcDbEntity
  8
0
 62
     0
100
AcDbLine
 10
2757.00720871049
 20
2006.064069362603
 30
0.0
 11
2754.888019503044
 21
2008.183258570049
 31
0.0
  0
LINE
  5
17AC21874A3AB0
330
17AC21874A3A72
100
AcDbEntity
  8
0
 62
     0
100
AcDbLine
 10
2752.059592378297
 20
2011.011685694795
 30
0.0
 11
2743.574311004059
 21
2019.496967069033
 31
0.0
  0
LINE
  5
17AC21874A3AB1
330
17AC21874A3A72
100
AcDbEntity
  8
0
 62
     0
100
AcDbLine
 10
2740.745883879312
 20
2022.32539419378
 30
0.0
 11
2740.382292988579
 21
2022.688985084514
 31
0.0
  0
LINE
  5
17AC21874A3AB2
330
17AC21874A3A72
100
AcDbEntity
  8
0
 62
     0
100
AcDbLine
 10
2758.802332020171
 20
2009.925800302414
 30
0.0
 11
2754.888019503044
 21
2013.840112819541
 31
0.0
  0
LINE
  5
17AC21874A3AB3
330
17AC21874A3A72
100
AcDbEntity
  8
0
 62
     0
100
AcDbLine
 10
2752.059592378297
 20
2016.668539944287
 30
0.0
 11
2746.039147238071
 21
2022.688985084514
 31
0.0
  0
LINE
  5
17AC21874A3AB4
330
17AC21874A3A72
100
AcDbEntity
  8
0
 62
     0
100
AcDbLine
 10
2760.693435000926
 20
2013.691551571151
 30
0.0
 11
2754.888019503044
 21
2019.496967069033
 31
0.0
  0
LINE
  5
17AC21874A3AB5
330
17AC21874A3A72
100
AcDbEntity
  8
0
 62
     0
100
AcDbLine
 10
2752.059592378298
 20
2022.32539419378
 30
0.0
 11
2751.696001487563
 21
2022.688985084514
 31
0.0
  0
LINE
  5
17AC21874A3AB6
330
17AC21874A3A72
100
AcDbEntity
  8
0
 62
     0
100
AcDbLine
 10
2762.677684738563
 20
2017.364156083006
 30
0.0
 11
2757.352855737055
 21
2022.688985084514
 31
0.0
  0
LINE
  5
17AC21874A3AB7
330
17AC21874A3A72
100
AcDbEntity
  8
0
 62
     0
100
AcDbLine
 10
2763.373300877282
 20
2022.32539419378
 30
0.0
 11
2763.009709986548
 21
2022.688985084514
 31
0.0
  0
LINE
  5
17AC21874A3AB8
330
17AC21874A3A72
100
AcDbEntity
  8
0
 62
     0
100
AcDbLine
 10
2729.432175380328
 20
1999.69797719581
 30
0.0
 11
2720.94689400609
 21
2008.183258570049
 31
0.0
  0
LINE
  5
17AC21874A3AB9
330
17AC21874A3A72
100
AcDbEntity
  8
0
 62
     0
100
AcDbLine
 10
2718.118466881343
 20
2011.011685694795
 30
0.0
 11
2709.633185507104
 21
2019.496967069034
 31
0.0
  0
LINE
  5
17AC21874A3ABA
330
17AC21874A3A72
100
AcDbEntity
  8
0
 62
     0
100
AcDbLine
 10
2706.804758382358
 20
2022.32539419378
 30
0.0
 11
2706.441167491625
 21
2022.688985084514
 31
0.0
  0
LINE
  5
17AC21874A3ABB
330
17AC21874A3A72
100
AcDbEntity
  8
0
 62
     0
100
AcDbLine
 10
2723.976309634319
 20
1999.496988692327
 30
0.0
 11
2720.94689400609
 21
2002.526404320557
 31
0.0
  0
LINE
  5
17AC21874A3ABC
330
17AC21874A3A72
100
AcDbEntity
  8
0
 62
     0
100
AcDbLine
 10
2718.118466881343
 20
2005.354831445303
 30
0.0
 11
2709.633185507104
 21
2013.840112819542
 31
0.0
  0
LINE
  5
17AC21874A3ABD
330
17AC21874A3A72
100
AcDbEntity
  8
0
 62
     0
100
AcDbLine
 10
2706.804758382358
 20
2016.668539944288
 30
0.0
 11
2700.784313242132
 21
2022.688985084514
 31
0.0
  0
LINE
  5
17AC21874A3ABE
330
17AC21874A3A72
100
AcDbEntity
  8
0
 62
     0
100
AcDbLine
 10
2718.118466881343
 20
1999.69797719581
 30
0.0
 11
2709.633185507104
 21
2008.183258570049
 31
0.0
  0
LINE
  5
17AC21874A3ABF
330
17AC21874A3A72
100
AcDbEntity
  8
0
 62
     0
100
AcDbLine
 10
2706.804758382358
 20
2011.011685694795
 30
0.0
 11
2698.31947700812
 21
2019.496967069034
 31
0.0
  0
LINE
  5
17AC21874A3AC0
330
17AC21874A3A72
100
AcDbEntity
  8
0
 62
     0
100
AcDbLine
 10
2695.491049883373
 20
2022.32539419378
 30
0.0
 11
2695.127458992639
 21
2022.688985084514
 31
0.0
  0
LINE
  5
17AC21874A3AC1
330
17AC21874A3A72
100
AcDbEntity
  8
0
 62
     0
100
AcDbLine
 10
2712.662601135334
 20
1999.496988692327
 30
0.0
 11
2709.633185507104
 21
2002.526404320557
 31
0.0
  0
LINE
  5
17AC21874A3AC2
330
17AC21874A3A72
100
AcDbEntity
  8
0
 62
     0
100
AcDbLine
 10
2706.804758382358
 20
2005.354831445302
 30
0.0
 11
2698.31947700812
 21
2013.840112819541
 31
0.0
  0
LINE
  5
17AC21874A3AC3
330
17AC21874A3A72
100
AcDbEntity
  8
0
 62
     0
100
AcDbLine
 10
2695.491049883373
 20
2016.668539944287
 30
0.0
 11
2689.470604743147
 21
2022.688985084514
 31
0.0
  0
LINE
  5
17AC21874A3AC4
330
17AC21874A3A72
100
AcDbEntity
  8
0
 62
     0
100
AcDbLine
 10
2706.804758382358
 20
1999.69797719581
 30
0.0
 11
2698.31947700812
 21
2008.183258570049
 31
0.0
  0
LINE
  5
17AC21874A3AC5
330
17AC21874A3A72
100
AcDbEntity
  8
0
 62
     0
100
AcDbLine
 10
2695.491049883373
 20
2011.011685694795
 30
0.0
 11
2687.005768509135
 21
2019.496967069034
 31
0.0
  0
LINE
  5
17AC21874A3AC6
330
17AC21874A3A72
100
AcDbEntity
  8
0
 62
     0
100
AcDbLine
 10
2701.348892636349
 20
1999.496988692327
 30
0.0
 11
2698.31947700812
 21
2002.526404320557
 31
0.0
  0
LINE
  5
17AC21874A3AC7
330
17AC21874A3A72
100
AcDbEntity
  8
0
 62
     0
100
AcDbLine
 10
2695.491049883373
 20
2005.354831445302
 30
0.0
 11
2687.005768509135
 21
2013.840112819541
 31
0.0
  0
LINE
  5
17AC21874A3AC8
330
17AC21874A3A72
100
AcDbEntity
  8
0
 62
     0
100
AcDbLine
 10
2695.491049883373
 20
1999.69797719581
 30
0.0
 11
2687.005768509135
 21
2008.183258570049
 31
0.0
  0
LINE
  5
17AC21874A3AC9
330
17AC21874A3A72
100
AcDbEntity
  8
0
 62
     0
100
AcDbLine
 10
2689.484204696917
 20
2000.047968132774
 30
0.0
 11
2687.316897541951
 21
2002.215275287741
 31
0.0
  0
ENDBLK
  5
17AC21874A3ACB
330
17AC21874A3A72
100
AcDbEntity
  8
0
100
AcDbBlockEnd
  0
BLOCK
  5
17AC21874A3B4B
330
17AC21874A3ACC
100
AcDbEntity
  8
0
100
AcDbBlockBegin
  2
*X6
 70
     1
 10
0.0
 20
0.0
 30
0.0
  3
*X6
  1

  0
LINE
  5
17AC21874A3ACD
330
17AC21874A3ACC
100
AcDbEntity
  8
0
 62
     0
100
AcDbLine
 10
106.3438484705329
 20
241.5884870300659
 30
0.0
 11
106.3438484705329
 21
241.5884870300659
 31
0.0
  0
LINE
  5
17AC21874A3ACE
330
17AC21874A3ACC
100
AcDbEntity
  8
0
 62
     0
100
AcDbLine
 10
110.2114460044527
 20
244.5561989964834
 30
0.0
 11
110.2114460044527
 21
244.5561989964834
 31
0.0
  0
LINE
  5
17AC21874A3ACF
330
17AC21874A3ACC
100
AcDbEntity
  8
0
 62
     0
100
AcDbLine
 10
98.49107512899085
 20
241.4883229328812
 30
0.0
 11
98.49107512899085
 21
241.4883229328812
 31
0.0
  0
LINE
  5
17AC21874A3AD0
330
17AC21874A3ACC
100
AcDbEntity
  8
0
 62
     0
100
AcDbLine
 10
102.1087663607189
 20
244.2642750491609
 30
0.0
 11
102.1087663607189
 21
244.2642750491609
 31
0.0
  0
LINE
  5
17AC21874A3AD1
330
17AC21874A3ACC
100
AcDbEntity
  8
0
 62
     0
100
AcDbLine
 10
106.1548683962042
 20
247.3689583371054
 30
0.0
 11
106.1548683962042
 21
247.3689583371054
 31
0.0
  0
LINE
  5
17AC21874A3AD2
330
17AC21874A3ACC
100
AcDbEntity
  8
0
 62
     0
100
AcDbLine
 10
98.30209505466202
 20
247.2687942399206
 30
0.0
 11
98.30209505466202
 21
247.2687942399206
 31
0.0
  0
LINE
  5
17AC21874A3AD3
330
17AC21874A3ACC
100
AcDbEntity
  8
0
 62
     0
100
AcDbLine
 10
101.91978628639
 20
250.0447463562004
 30
0.0
 11
101.91978628639
 21
250.0447463562004
 31
0.0
  0
LINE
  5
17AC21874A3AD4
330
17AC21874A3ACC
100
AcDbEntity
  8
0
 62
     0
100
AcDbLine
 10
124.9825678886562
 20
267.7414410974839
 30
0.0
 11
124.9825678886562
 21
267.7414410974839
 31
0.0
  0
LINE
  5
17AC21874A3AD5
330
17AC21874A3ACC
100
AcDbEntity
  8
0
 62
     0
100
AcDbLine
 10
94.24551744641341
 20
250.0815535805426
 30
0.0
 11
94.24551744641341
 21
250.0815535805426
 31
0.0
  0
LINE
  5
17AC21874A3AD6
330
17AC21874A3ACC
100
AcDbEntity
  8
0
 62
     0
100
AcDbLine
 10
98.11311498033319
 20
253.0492655469601
 30
0.0
 11
98.11311498033319
 21
253.0492655469601
 31
0.0
  0
LINE
  5
17AC21874A3AD7
330
17AC21874A3ACC
100
AcDbEntity
  8
0
 62
     0
100
AcDbLine
 10
117.3082990486796
 20
267.7782483218261
 30
0.0
 11
117.3082990486796
 21
267.7782483218261
 31
0.0
  0
LINE
  5
17AC21874A3AD8
330
17AC21874A3ACC
100
AcDbEntity
  8
0
 62
     0
100
AcDbLine
 10
121.1758965825993
 20
270.7459602882437
 30
0.0
 11
121.1758965825993
 21
270.7459602882437
 31
0.0
  0
LINE
  5
17AC21874A3AD9
330
17AC21874A3ACC
100
AcDbEntity
  8
0
 62
     0
100
AcDbLine
 10
94.0565373720846
 20
255.8620248875821
 30
0.0
 11
94.0565373720846
 21
255.8620248875821
 31
0.0
  0
LINE
  5
17AC21874A3ADA
330
17AC21874A3ACC
100
AcDbEntity
  8
0
 62
     0
100
AcDbLine
 10
97.92413490600438
 20
258.8297368539996
 30
0.0
 11
97.92413490600438
 21
258.8297368539996
 31
0.0
  0
LINE
  5
17AC21874A3ADB
330
17AC21874A3ACC
100
AcDbEntity
  8
0
 62
     0
100
AcDbLine
 10
101.5418261377324
 20
261.6056889702794
 30
0.0
 11
101.5418261377324
 21
261.6056889702794
 31
0.0
  0
LINE
  5
17AC21874A3ADC
330
17AC21874A3ACC
100
AcDbEntity
  8
0
 62
     0
100
AcDbLine
 10
109.4555257071374
 20
267.6780842246413
 30
0.0
 11
109.4555257071374
 21
267.6780842246413
 31
0.0
  0
LINE
  5
17AC21874A3ADD
330
17AC21874A3ACC
100
AcDbEntity
  8
0
 62
     0
100
AcDbLine
 10
113.0732169388654
 20
270.4540363409211
 30
0.0
 11
113.0732169388654
 21
270.4540363409211
 31
0.0
  0
LINE
  5
17AC21874A3ADE
330
17AC21874A3ACC
100
AcDbEntity
  8
0
 62
     0
100
AcDbLine
 10
117.1193189743507
 20
273.5587196288656
 30
0.0
 11
117.1193189743507
 21
273.5587196288656
 31
0.0
  0
LINE
  5
17AC21874A3ADF
330
17AC21874A3ACC
100
AcDbEntity
  8
0
 62
     0
100
AcDbLine
 10
93.86755729775577
 20
261.6424961946215
 30
0.0
 11
93.86755729775577
 21
261.6424961946215
 31
0.0
  0
LINE
  5
17AC21874A3AE0
330
17AC21874A3ACC
100
AcDbEntity
  8
0
 62
     0
100
AcDbLine
 10
97.73515483167555
 20
264.610208161039
 30
0.0
 11
97.73515483167555
 21
264.610208161039
 31
0.0
  0
LINE
  5
17AC21874A3AE1
330
17AC21874A3ACC
100
AcDbEntity
  8
0
 62
     0
100
AcDbLine
 10
101.3528460634036
 20
267.3861602773188
 30
0.0
 11
101.3528460634036
 21
267.3861602773188
 31
0.0
  0
LINE
  5
17AC21874A3AE2
330
17AC21874A3ACC
100
AcDbEntity
  8
0
 62
     0
100
AcDbLine
 10
105.3989480988889
 20
270.4908435652633
 30
0.0
 11
105.3989480988889
 21
270.4908435652633
 31
0.0
  0
LINE
  5
17AC21874A3AE3
330
17AC21874A3ACC
100
AcDbEntity
  8
0
 62
     0
100
AcDbLine
 10
109.2665456328086
 20
273.4585555316808
 30
0.0
 11
109.2665456328086
 21
273.4585555316808
 31
0.0
  0
LINE
  5
17AC21874A3AE4
330
17AC21874A3ACC
100
AcDbEntity
  8
0
 62
     0
100
AcDbLine
 10
112.8842368645367
 20
276.2345076479606
 30
0.0
 11
112.8842368645367
 21
276.2345076479606
 31
0.0
  0
LINE
  5
17AC21874A3AE5
330
17AC21874A3ACC
100
AcDbEntity
  8
0
 62
     0
100
AcDbLine
 10
97.54617475734669
 20
270.3906794680785
 30
0.0
 11
97.54617475734669
 21
270.3906794680785
 31
0.0
  0
LINE
  5
17AC21874A3AE6
330
17AC21874A3ACC
100
AcDbEntity
  8
0
 62
     0
100
AcDbLine
 10
101.1638659890747
 20
273.1666315843583
 30
0.0
 11
101.1638659890747
 21
273.1666315843583
 31
0.0
  0
LINE
  5
17AC21874A3AE7
330
17AC21874A3ACC
100
AcDbEntity
  8
0
 62
     0
100
AcDbLine
 10
110.4004260787815
 20
238.7757276894439
 30
0.0
 11
110.4004260787815
 21
238.7757276894439
 31
0.0
  0
LINE
  5
17AC21874A3AE8
330
17AC21874A3ACC
100
AcDbEntity
  8
0
 62
     0
100
AcDbLine
 10
114.0181173105096
 20
241.5516798057237
 30
0.0
 11
114.0181173105096
 21
241.5516798057237
 31
0.0
  0
LINE
  5
17AC21874A3AE9
330
17AC21874A3ACC
100
AcDbEntity
  8
0
 62
     0
100
AcDbLine
 10
118.0642193459949
 20
244.6563630936682
 30
0.0
 11
118.0642193459949
 21
244.6563630936682
 31
0.0
  0
LINE
  5
17AC21874A3AEA
330
17AC21874A3ACC
100
AcDbEntity
  8
0
 62
     0
100
AcDbLine
 10
118.2531994203237
 20
238.8758917866287
 30
0.0
 11
118.2531994203237
 21
238.8758917866287
 31
0.0
  0
LINE
  5
17AC21874A3AEB
330
17AC21874A3ACC
100
AcDbEntity
  8
0
 62
     0
100
AcDbLine
 10
122.1207969542435
 20
241.8436037530462
 30
0.0
 11
122.1207969542435
 21
241.8436037530462
 31
0.0
  0
LINE
  5
17AC21874A3AEC
330
17AC21874A3ACC
100
AcDbEntity
  8
0
 62
     0
100
AcDbLine
 10
125.7384881859715
 20
244.619555869326
 30
0.0
 11
125.7384881859715
 21
244.619555869326
 31
0.0
  0
LINE
  5
17AC21874A3AED
330
17AC21874A3ACC
100
AcDbEntity
  8
0
 62
     0
100
AcDbLine
 10
91.9113680268915
 20
252.8913615456751
 30
0.0
 11
91.9113680268915
 21
252.8913615456751
 31
0.0
  0
LINE
  5
17AC21874A3AEE
330
17AC21874A3ACC
100
AcDbEntity
  8
0
 62
     0
100
AcDbLine
 10
94.35032238587108
 20
253.2124559785363
 30
0.0
 11
94.35032238587108
 21
253.2124559785363
 31
0.0
  0
LINE
  5
17AC21874A3AEF
330
17AC21874A3ACC
100
AcDbEntity
  8
0
 62
     0
100
AcDbLine
 10
98.42516076611744
 20
253.7489186285608
 30
0.0
 11
98.42516076611744
 21
253.7489186285608
 31
0.0
  0
LINE
  5
17AC21874A3AF0
330
17AC21874A3ACC
100
AcDbEntity
  8
0
 62
     0
100
AcDbLine
 10
99.98668642278119
 20
253.9544973813073
 30
0.0
 11
99.98668642278119
 21
253.9544973813073
 31
0.0
  0
LINE
  5
17AC21874A3AF1
330
17AC21874A3ACC
100
AcDbEntity
  8
0
 62
     0
100
AcDbLine
 10
91.58433410578458
 20
260.6157583385932
 30
0.0
 11
91.58433410578458
 21
260.6157583385932
 31
0.0
  0
LINE
  5
17AC21874A3AF2
330
17AC21874A3ACC
100
AcDbEntity
  8
0
 62
     0
100
AcDbLine
 10
95.65917248603094
 20
261.1522209886177
 30
0.0
 11
95.65917248603094
 21
261.1522209886177
 31
0.0
  0
LINE
  5
17AC21874A3AF3
330
17AC21874A3ACC
100
AcDbEntity
  8
0
 62
     0
100
AcDbLine
 10
97.22069814269469
 20
261.3577997413643
 30
0.0
 11
97.22069814269469
 21
261.3577997413643
 31
0.0
  0
LINE
  5
17AC21874A3AF4
330
17AC21874A3ACC
100
AcDbEntity
  8
0
 62
     0
100
AcDbLine
 10
99.65965250167426
 20
261.6788941742256
 30
0.0
 11
99.65965250167426
 21
261.6788941742256
 31
0.0
  0
LINE
  5
17AC21874A3AF5
330
17AC21874A3ACC
100
AcDbEntity
  8
0
 62
     0
100
AcDbLine
 10
96.8936642215878
 20
269.0821965342824
 30
0.0
 11
96.8936642215878
 21
269.0821965342824
 31
0.0
  0
LINE
  5
17AC21874A3AF6
330
17AC21874A3ACC
100
AcDbEntity
  8
0
 62
     0
100
AcDbLine
 10
100.9685026018341
 20
269.6186591843069
 30
0.0
 11
100.9685026018341
 21
269.6186591843069
 31
0.0
  0
LINE
  5
17AC21874A3AF7
330
17AC21874A3ACC
100
AcDbEntity
  8
0
 62
     0
100
AcDbLine
 10
102.5300282584979
 20
269.8242379370535
 30
0.0
 11
102.5300282584979
 21
269.8242379370535
 31
0.0
  0
LINE
  5
17AC21874A3AF8
330
17AC21874A3ACC
100
AcDbEntity
  8
0
 62
     0
100
AcDbLine
 10
104.9689826174775
 20
270.1453323699148
 30
0.0
 11
104.9689826174775
 21
270.1453323699148
 31
0.0
  0
LINE
  5
17AC21874A3AF9
330
17AC21874A3ACC
100
AcDbEntity
  8
0
 62
     0
100
AcDbLine
 10
109.0438209977238
 20
270.6817950199392
 30
0.0
 11
109.0438209977238
 21
270.6817950199392
 31
0.0
  0
LINE
  5
17AC21874A3AFA
330
17AC21874A3ACC
100
AcDbEntity
  8
0
 62
     0
100
AcDbLine
 10
110.6053466543876
 20
270.8873737726858
 30
0.0
 11
110.6053466543876
 21
270.8873737726858
 31
0.0
  0
LINE
  5
17AC21874A3AFB
330
17AC21874A3ACC
100
AcDbEntity
  8
0
 62
     0
100
AcDbLine
 10
113.0443010133671
 20
271.2084682055472
 30
0.0
 11
113.0443010133671
 21
271.2084682055472
 31
0.0
  0
LINE
  5
17AC21874A3AFC
330
17AC21874A3ACC
100
AcDbEntity
  8
0
 62
     0
100
AcDbLine
 10
117.1191393936135
 20
271.7449308555716
 30
0.0
 11
117.1191393936135
 21
271.7449308555716
 31
0.0
  0
LINE
  5
17AC21874A3AFD
330
17AC21874A3ACC
100
AcDbEntity
  8
0
 62
     0
100
AcDbLine
 10
118.6806650502773
 20
271.9505096083182
 30
0.0
 11
118.6806650502773
 21
271.9505096083182
 31
0.0
  0
LINE
  5
17AC21874A3AFE
330
17AC21874A3ACC
100
AcDbEntity
  8
0
 62
     0
100
AcDbLine
 10
121.1196194092568
 20
272.2716040411795
 30
0.0
 11
121.1196194092568
 21
272.2716040411795
 31
0.0
  0
LINE
  5
17AC21874A3AFF
330
17AC21874A3ACC
100
AcDbEntity
  8
0
 62
     0
100
AcDbLine
 10
94.67735630697802
 20
245.4880591856182
 30
0.0
 11
94.67735630697802
 21
245.4880591856182
 31
0.0
  0
LINE
  5
17AC21874A3B00
330
17AC21874A3ACC
100
AcDbEntity
  8
0
 62
     0
100
AcDbLine
 10
97.1163106659576
 20
245.8091536184795
 30
0.0
 11
97.1163106659576
 21
245.8091536184795
 31
0.0
  0
LINE
  5
17AC21874A3B01
330
17AC21874A3ACC
100
AcDbEntity
  8
0
 62
     0
100
AcDbLine
 10
101.1911490462039
 20
246.3456162685039
 30
0.0
 11
101.1911490462039
 21
246.3456162685039
 31
0.0
  0
LINE
  5
17AC21874A3B02
330
17AC21874A3ACC
100
AcDbEntity
  8
0
 62
     0
100
AcDbLine
 10
102.7526747028677
 20
246.5511950212505
 30
0.0
 11
102.7526747028677
 21
246.5511950212505
 31
0.0
  0
LINE
  5
17AC21874A3B03
330
17AC21874A3ACC
100
AcDbEntity
  8
0
 62
     0
100
AcDbLine
 10
105.1916290618473
 20
246.8722894541118
 30
0.0
 11
105.1916290618473
 21
246.8722894541118
 31
0.0
  0
LINE
  5
17AC21874A3B04
330
17AC21874A3ACC
100
AcDbEntity
  8
0
 62
     0
100
AcDbLine
 10
103.9571373262904
 20
238.942313908447
 30
0.0
 11
103.9571373262904
 21
238.942313908447
 31
0.0
  0
LINE
  5
17AC21874A3B05
330
17AC21874A3ACC
100
AcDbEntity
  8
0
 62
     0
100
AcDbLine
 10
105.5186629829542
 20
239.1478926611935
 30
0.0
 11
105.5186629829542
 21
239.1478926611935
 31
0.0
  0
LINE
  5
17AC21874A3B06
330
17AC21874A3ACC
100
AcDbEntity
  8
0
 62
     0
100
AcDbLine
 10
107.9576173419337
 20
239.4689870940549
 30
0.0
 11
107.9576173419337
 21
239.4689870940549
 31
0.0
  0
LINE
  5
17AC21874A3B07
330
17AC21874A3ACC
100
AcDbEntity
  8
0
 62
     0
100
AcDbLine
 10
112.0324557221801
 20
240.0054497440793
 30
0.0
 11
112.0324557221801
 21
240.0054497440793
 31
0.0
  0
LINE
  5
17AC21874A3B08
330
17AC21874A3ACC
100
AcDbEntity
  8
0
 62
     0
100
AcDbLine
 10
113.5939813788438
 20
240.2110284968259
 30
0.0
 11
113.5939813788438
 21
240.2110284968259
 31
0.0
  0
LINE
  5
17AC21874A3B09
330
17AC21874A3ACC
100
AcDbEntity
  8
0
 62
     0
100
AcDbLine
 10
116.0329357378234
 20
240.5321229296872
 30
0.0
 11
116.0329357378234
 21
240.5321229296872
 31
0.0
  0
LINE
  5
17AC21874A3B0A
330
17AC21874A3ACC
100
AcDbEntity
  8
0
 62
     0
100
AcDbLine
 10
120.1077741180698
 20
241.0685855797116
 30
0.0
 11
120.1077741180698
 21
241.0685855797116
 31
0.0
  0
LINE
  5
17AC21874A3B0B
330
17AC21874A3ACC
100
AcDbEntity
  8
0
 62
     0
100
AcDbLine
 10
121.6692997747335
 20
241.2741643324582
 30
0.0
 11
121.6692997747335
 21
241.2741643324582
 31
0.0
  0
LINE
  5
17AC21874A3B0C
330
17AC21874A3ACC
100
AcDbEntity
  8
0
 62
     0
100
AcDbLine
 10
124.1082541337131
 20
241.5952587653195
 30
0.0
 11
124.1082541337131
 21
241.5952587653195
 31
0.0
  0
LINE
  5
17AC21874A3B0D
330
17AC21874A3ACC
100
AcDbEntity
  8
0
 62
     0
100
AcDbLine
 10
97.19973585573924
 20
269.9766348934648
 30
0.0
 11
97.19973585573924
 21
269.9766348934648
 31
0.0
  0
LINE
  5
17AC21874A3B0E
330
17AC21874A3ACC
100
AcDbEntity
  8
0
 62
     0
100
AcDbLine
 10
101.7540496631288
 20
267.0752170083919
 30
0.0
 11
101.7540496631288
 21
267.0752170083919
 31
0.0
  0
LINE
  5
17AC21874A3B0F
330
17AC21874A3ACC
100
AcDbEntity
  8
0
 62
     0
100
AcDbLine
 10
105.2770742722744
 20
270.7995614665959
 30
0.0
 11
105.2770742722744
 21
270.7995614665959
 31
0.0
  0
LINE
  5
17AC21874A3B10
330
17AC21874A3ACC
100
AcDbEntity
  8
0
 62
     0
100
AcDbLine
 10
106.5421614409938
 20
269.9936120540757
 30
0.0
 11
106.5421614409938
 21
269.9936120540757
 31
0.0
  0
LINE
  5
17AC21874A3B11
330
17AC21874A3ACC
100
AcDbEntity
  8
0
 62
     0
100
AcDbLine
 10
111.0964752483833
 20
267.0921941690028
 30
0.0
 11
111.0964752483833
 21
267.0921941690028
 31
0.0
  0
LINE
  5
17AC21874A3B12
330
17AC21874A3ACC
100
AcDbEntity
  8
0
 62
     0
100
AcDbLine
 10
108.673590164548
 20
274.6045008660519
 30
0.0
 11
108.673590164548
 21
274.6045008660519
 31
0.0
  0
LINE
  5
17AC21874A3B13
330
17AC21874A3ACC
100
AcDbEntity
  8
0
 62
     0
100
AcDbLine
 10
114.6194998575288
 20
270.8165386272068
 30
0.0
 11
114.6194998575288
 21
270.8165386272068
 31
0.0
  0
LINE
  5
17AC21874A3B14
330
17AC21874A3ACC
100
AcDbEntity
  8
0
 62
     0
100
AcDbLine
 10
115.8845870262481
 20
270.0105892146865
 30
0.0
 11
115.8845870262481
 21
270.0105892146865
 31
0.0
  0
LINE
  5
17AC21874A3B15
330
17AC21874A3ACC
100
AcDbEntity
  8
0
 62
     0
100
AcDbLine
 10
120.4389008336377
 20
267.1091713296137
 30
0.0
 11
120.4389008336377
 21
267.1091713296137
 31
0.0
  0
LINE
  5
17AC21874A3B16
330
17AC21874A3ACC
100
AcDbEntity
  8
0
 62
     0
100
AcDbLine
 10
118.0160157498025
 20
274.6214780266628
 30
0.0
 11
118.0160157498025
 21
274.6214780266628
 31
0.0
  0
LINE
  5
17AC21874A3B17
330
17AC21874A3ACC
100
AcDbEntity
  8
0
 62
     0
100
AcDbLine
 10
123.9619254427834
 20
270.8335157878177
 30
0.0
 11
123.9619254427834
 21
270.8335157878177
 31
0.0
  0
LINE
  5
17AC21874A3B18
330
17AC21874A3ACC
100
AcDbEntity
  8
0
 62
     0
100
AcDbLine
 10
125.2270126115027
 20
270.0275663752975
 30
0.0
 11
125.2270126115027
 21
270.0275663752975
 31
0.0
  0
LINE
  5
17AC21874A3B19
330
17AC21874A3ACC
100
AcDbEntity
  8
0
 62
     0
100
AcDbLine
 10
98.35753377085531
 20
263.2702776089359
 30
0.0
 11
98.35753377085531
 21
263.2702776089359
 31
0.0
  0
LINE
  5
17AC21874A3B1A
330
17AC21874A3ACC
100
AcDbEntity
  8
0
 62
     0
100
AcDbLine
 10
99.62262093957463
 20
262.4643281964157
 30
0.0
 11
99.62262093957463
 21
262.4643281964157
 31
0.0
  0
LINE
  5
17AC21874A3B1B
330
17AC21874A3ACC
100
AcDbEntity
  8
0
 62
     0
100
AcDbLine
 10
94.83450916170964
 20
259.5459331507319
 30
0.0
 11
94.83450916170964
 21
259.5459331507319
 31
0.0
  0
LINE
  5
17AC21874A3B1C
330
17AC21874A3ACC
100
AcDbEntity
  8
0
 62
     0
100
AcDbLine
 10
100.7804188546905
 20
255.7579709118868
 30
0.0
 11
100.7804188546905
 21
255.7579709118868
 31
0.0
  0
LINE
  5
17AC21874A3B1D
330
17AC21874A3ACC
100
AcDbEntity
  8
0
 62
     0
100
AcDbLine
 10
118.3651304998892
 20
244.5552740778556
 30
0.0
 11
118.3651304998892
 21
244.5552740778556
 31
0.0
  0
LINE
  5
17AC21874A3B1E
330
17AC21874A3ACC
100
AcDbEntity
  8
0
 62
     0
100
AcDbLine
 10
91.43799326943604
 20
255.7409937512759
 30
0.0
 11
91.43799326943604
 21
255.7409937512759
 31
0.0
  0
LINE
  5
17AC21874A3B1F
330
17AC21874A3ACC
100
AcDbEntity
  8
0
 62
     0
100
AcDbLine
 10
92.70308043815537
 20
254.9350443387557
 30
0.0
 11
92.70308043815537
 21
254.9350443387557
 31
0.0
  0
LINE
  5
17AC21874A3B20
330
17AC21874A3ACC
100
AcDbEntity
  8
0
 62
     0
100
AcDbLine
 10
97.25739424554495
 20
252.0336264536828
 30
0.0
 11
97.25739424554495
 21
252.0336264536828
 31
0.0
  0
LINE
  5
17AC21874A3B21
330
17AC21874A3ACC
100
AcDbEntity
  8
0
 62
     0
100
AcDbLine
 10
103.2033039385258
 20
248.2456642148378
 30
0.0
 11
103.2033039385258
 21
248.2456642148378
 31
0.0
  0
LINE
  5
17AC21874A3B22
330
17AC21874A3ACC
100
AcDbEntity
  8
0
 62
     0
100
AcDbLine
 10
104.4683911072451
 20
247.4397148023175
 30
0.0
 11
104.4683911072451
 21
247.4397148023175
 31
0.0
  0
LINE
  5
17AC21874A3B23
330
17AC21874A3ACC
100
AcDbEntity
  8
0
 62
     0
100
AcDbLine
 10
109.0227049146347
 20
244.5382969172447
 30
0.0
 11
109.0227049146347
 21
244.5382969172447
 31
0.0
  0
LINE
  5
17AC21874A3B24
330
17AC21874A3ACC
100
AcDbEntity
  8
0
 62
     0
100
AcDbLine
 10
114.9686146076155
 20
240.7503346783995
 30
0.0
 11
114.9686146076155
 21
240.7503346783995
 31
0.0
  0
LINE
  5
17AC21874A3B25
330
17AC21874A3ACC
100
AcDbEntity
  8
0
 62
     0
100
AcDbLine
 10
116.2337017763348
 20
239.9443852658793
 30
0.0
 11
116.2337017763348
 21
239.9443852658793
 31
0.0
  0
LINE
  5
17AC21874A3B26
330
17AC21874A3ACC
100
AcDbEntity
  8
0
 62
     0
100
AcDbLine
 10
93.86087835327137
 20
248.2286870542269
 30
0.0
 11
93.86087835327137
 21
248.2286870542269
 31
0.0
  0
LINE
  5
17AC21874A3B27
330
17AC21874A3ACC
100
AcDbEntity
  8
0
 62
     0
100
AcDbLine
 10
95.12596552199068
 20
247.4227376417066
 30
0.0
 11
95.12596552199068
 21
247.4227376417066
 31
0.0
  0
LINE
  5
17AC21874A3B28
330
17AC21874A3ACC
100
AcDbEntity
  8
0
 62
     0
100
AcDbLine
 10
99.68027932938028
 20
244.5213197566338
 30
0.0
 11
99.68027932938028
 21
244.5213197566338
 31
0.0
  0
LINE
  5
17AC21874A3B29
330
17AC21874A3ACC
100
AcDbEntity
  8
0
 62
     0
100
AcDbLine
 10
105.6261890223611
 20
240.7333575177887
 30
0.0
 11
105.6261890223611
 21
240.7333575177887
 31
0.0
  0
LINE
  5
17AC21874A3B2A
330
17AC21874A3ACC
100
AcDbEntity
  8
0
 62
     0
100
AcDbLine
 10
106.8912761910804
 20
239.9274081052685
 30
0.0
 11
106.8912761910804
 21
239.9274081052685
 31
0.0
  0
LINE
  5
17AC21874A3B2B
330
17AC21874A3ACC
100
AcDbEntity
  8
0
 62
     0
100
AcDbLine
 10
111.44558999847
 20
237.0259902201956
 30
0.0
 11
111.44558999847
 21
237.0259902201956
 31
0.0
  0
LINE
  5
17AC21874A3B2C
330
17AC21874A3ACC
100
AcDbEntity
  8
0
 62
     0
100
AcDbLine
 10
97.15195820477115
 20
267.1913955369581
 30
0.0
 11
97.15195820477115
 21
267.1913955369581
 31
0.0
  0
LINE
  5
17AC21874A3B2D
330
17AC21874A3ACC
100
AcDbEntity
  8
0
 62
     0
100
AcDbLine
 10
97.70491620737875
 20
266.6847028812463
 30
0.0
 11
97.70491620737875
 21
266.6847028812463
 31
0.0
  0
LINE
  5
17AC21874A3B2E
330
17AC21874A3ACC
100
AcDbEntity
  8
0
 62
     0
100
AcDbLine
 10
100.3148779796866
 20
264.2931135462869
 30
0.0
 11
100.3148779796866
 21
264.2931135462869
 31
0.0
  0
LINE
  5
17AC21874A3B2F
330
17AC21874A3ACC
100
AcDbEntity
  8
0
 62
     0
100
AcDbLine
 10
121.7475301607569
 20
244.6537062108997
 30
0.0
 11
121.7475301607569
 21
244.6537062108997
 31
0.0
  0
LINE
  5
17AC21874A3B30
330
17AC21874A3ACC
100
AcDbEntity
  8
0
 62
     0
100
AcDbLine
 10
122.3004881633645
 20
244.147013555188
 30
0.0
 11
122.3004881633645
 21
244.147013555188
 31
0.0
  0
LINE
  5
17AC21874A3B31
330
17AC21874A3ACC
100
AcDbEntity
  8
0
 62
     0
100
AcDbLine
 10
103.184364804407
 20
272.5605625726042
 30
0.0
 11
103.184364804407
 21
272.5605625726042
 31
0.0
  0
LINE
  5
17AC21874A3B32
330
17AC21874A3ACC
100
AcDbEntity
  8
0
 62
     0
100
AcDbLine
 10
106.170338018488
 20
269.8244222317608
 30
0.0
 11
106.170338018488
 21
269.8244222317608
 31
0.0
  0
LINE
  5
17AC21874A3B33
330
17AC21874A3ACC
100
AcDbEntity
  8
0
 62
     0
100
AcDbLine
 10
106.7232960210956
 20
269.3177295760491
 30
0.0
 11
106.7232960210956
 21
269.3177295760491
 31
0.0
  0
LINE
  5
17AC21874A3B34
330
17AC21874A3ACC
100
AcDbEntity
  8
0
 62
     0
100
AcDbLine
 10
109.3332577934035
 20
266.9261402410896
 30
0.0
 11
109.3332577934035
 21
266.9261402410896
 31
0.0
  0
LINE
  5
17AC21874A3B35
330
17AC21874A3ACC
100
AcDbEntity
  8
0
 62
     0
100
AcDbLine
 10
112.2027446181239
 20
275.193589267407
 30
0.0
 11
112.2027446181239
 21
275.193589267407
 31
0.0
  0
LINE
  5
17AC21874A3B36
330
17AC21874A3ACC
100
AcDbEntity
  8
0
 62
     0
100
AcDbLine
 10
115.1887178322049
 20
272.4574489265636
 30
0.0
 11
115.1887178322049
 21
272.4574489265636
 31
0.0
  0
LINE
  5
17AC21874A3B37
330
17AC21874A3ACC
100
AcDbEntity
  8
0
 62
     0
100
AcDbLine
 10
115.7416758348125
 20
271.9507562708519
 30
0.0
 11
115.7416758348125
 21
271.9507562708519
 31
0.0
  0
LINE
  5
17AC21874A3B38
330
17AC21874A3ACC
100
AcDbEntity
  8
0
 62
     0
100
AcDbLine
 10
118.3516376071203
 20
269.5591669358924
 30
0.0
 11
118.3516376071203
 21
269.5591669358924
 31
0.0
  0
LINE
  5
17AC21874A3B39
330
17AC21874A3ACC
100
AcDbEntity
  8
0
 62
     0
100
AcDbLine
 10
121.3376108212013
 20
266.823026595049
 30
0.0
 11
121.3376108212013
 21
266.823026595049
 31
0.0
  0
LINE
  5
17AC21874A3B3A
330
17AC21874A3ACC
100
AcDbEntity
  8
0
 62
     0
100
AcDbLine
 10
94.28247138005071
 20
258.9239465106407
 30
0.0
 11
94.28247138005071
 21
258.9239465106407
 31
0.0
  0
LINE
  5
17AC21874A3B3B
330
17AC21874A3ACC
100
AcDbEntity
  8
0
 62
     0
100
AcDbLine
 10
94.83542938265831
 20
258.417253854929
 30
0.0
 11
94.83542938265831
 21
258.417253854929
 31
0.0
  0
LINE
  5
17AC21874A3B3C
330
17AC21874A3ACC
100
AcDbEntity
  8
0
 62
     0
100
AcDbLine
 10
97.44539115496614
 20
256.0256645199695
 30
0.0
 11
97.44539115496614
 21
256.0256645199695
 31
0.0
  0
LINE
  5
17AC21874A3B3D
330
17AC21874A3ACC
100
AcDbEntity
  8
0
 62
     0
100
AcDbLine
 10
100.4313643690471
 20
253.2895241791261
 30
0.0
 11
100.4313643690471
 21
253.2895241791261
 31
0.0
  0
LINE
  5
17AC21874A3B3E
330
17AC21874A3ACC
100
AcDbEntity
  8
0
 62
     0
100
AcDbLine
 10
100.9843223716547
 20
252.7828315234143
 30
0.0
 11
100.9843223716547
 21
252.7828315234143
 31
0.0
  0
LINE
  5
17AC21874A3B3F
330
17AC21874A3ACC
100
AcDbEntity
  8
0
 62
     0
100
AcDbLine
 10
106.5802573580435
 20
247.6551018476115
 30
0.0
 11
106.5802573580435
 21
247.6551018476115
 31
0.0
  0
LINE
  5
17AC21874A3B40
330
17AC21874A3ACC
100
AcDbEntity
  8
0
 62
     0
100
AcDbLine
 10
107.1332153606511
 20
247.1484091918998
 30
0.0
 11
107.1332153606511
 21
247.1484091918998
 31
0.0
  0
LINE
  5
17AC21874A3B41
330
17AC21874A3ACC
100
AcDbEntity
  8
0
 62
     0
100
AcDbLine
 10
109.743177132959
 20
244.7568198569404
 30
0.0
 11
109.743177132959
 21
244.7568198569404
 31
0.0
  0
LINE
  5
17AC21874A3B42
330
17AC21874A3ACC
100
AcDbEntity
  8
0
 62
     0
100
AcDbLine
 10
112.72915034704
 20
242.0206795160969
 30
0.0
 11
112.72915034704
 21
242.0206795160969
 31
0.0
  0
LINE
  5
17AC21874A3B43
330
17AC21874A3ACC
100
AcDbEntity
  8
0
 62
     0
100
AcDbLine
 10
113.2821083496476
 20
241.5139868603852
 30
0.0
 11
113.2821083496476
 21
241.5139868603852
 31
0.0
  0
LINE
  5
17AC21874A3B44
330
17AC21874A3ACC
100
AcDbEntity
  8
0
 62
     0
100
AcDbLine
 10
115.8920701219554
 20
239.1223975254258
 30
0.0
 11
115.8920701219554
 21
239.1223975254258
 31
0.0
  0
LINE
  5
17AC21874A3B45
330
17AC21874A3ACC
100
AcDbEntity
  8
0
 62
     0
100
AcDbLine
 10
94.57590433024572
 20
247.7582154936522
 30
0.0
 11
94.57590433024572
 21
247.7582154936522
 31
0.0
  0
LINE
  5
17AC21874A3B46
330
17AC21874A3ACC
100
AcDbEntity
  8
0
 62
     0
100
AcDbLine
 10
97.56187754432673
 20
245.0220751528088
 30
0.0
 11
97.56187754432673
 21
245.0220751528088
 31
0.0
  0
LINE
  5
17AC21874A3B47
330
17AC21874A3ACC
100
AcDbEntity
  8
0
 62
     0
100
AcDbLine
 10
98.11483554693431
 20
244.515382497097
 30
0.0
 11
98.11483554693431
 21
244.515382497097
 31
0.0
  0
LINE
  5
17AC21874A3B48
330
17AC21874A3ACC
100
AcDbEntity
  8
0
 62
     0
100
AcDbLine
 10
100.7247973192421
 20
242.1237931621376
 30
0.0
 11
100.7247973192421
 21
242.1237931621376
 31
0.0
  0
LINE
  5
17AC21874A3B49
330
17AC21874A3ACC
100
AcDbEntity
  8
0
 62
     0
100
AcDbLine
 10
103.7107705333231
 20
239.3876528212941
 30
0.0
 11
103.7107705333231
 21
239.3876528212941
 31
0.0
  0
LINE
  5
17AC21874A3B4A
330
17AC21874A3ACC
100
AcDbEntity
  8
0
 62
     0
100
AcDbLine
 10
104.2637285359307
 20
238.8809601655824
 30
0.0
 11
104.2637285359307
 21
238.8809601655824
 31
0.0
  0
ENDBLK
  5
17AC21874A3B4C
330
17AC21874A3ACC
100
AcDbEntity
  8
0
100
AcDbBlockEnd
  0
BLOCK
  5
17AC21874A3C3D
330
17AC21874A3B4D
100
AcDbEntity
  8
0
100
AcDbBlockBegin
  2
A$C57196644
 70
     0
 10
0.0
 20
0.0
 30
0.0
  3
A$C57196644
  1

  0
LINE
  5
17AC21874A3B4E
330
17AC21874A3B4D
100
AcDbEntity
  8
0
100
AcDbLine
 10
-305.1808589696877
 20
31.56007335932668
 30
0.0
 11
-344.8293330831714
 21
31.34860646152106
 31
0.0
  0
LINE
  5
17AC21874A3B4F
330
17AC21874A3B4D
100
AcDbEntity
  8
ASSE
100
AcDbLine
 10
-242.4680050389241
 20
-88.06184811450226
 30
0.0
 11
-427.1937866471628
 21
-89.04709127593037
 31
0.0
  0
ARC
  5
17AC21874A3B50
330
17AC21874A3B4D
100
AcDbEntity
  8
0
100
AcDbCircle
 10
-325.4198523413657
 20
-89.28611306432435
 30
0.0
 40
90.0
100
AcDbArc
 50
43.06548357823177
 51
314.6691401962816
  0
LINE
  5
17AC21874A3B51
330
17AC21874A3B4D
100
AcDbEntity
  8
0
100
AcDbLine
 10
-132.1728528676369
 20
-179.9239844866131
 30
0.0
 11
-532.1671636498033
 21
-182.0573719102706
 31
0.0
  0
LINE
  5
17AC21874A3B52
330
17AC21874A3B4D
100
AcDbEntity
  8
0
100
AcDbLine
 10
-521.5668724745999
 20
18.00200986293635
 30
0.0
 11
-133.239546579465
 21
20.07317090447009
 31
0.0
  0
CIRCLE
  5
17AC21874A3B53
330
17AC21874A3B4D
100
AcDbEntity
  8
0
100
AcDbCircle
 10
-325.4198523413657
 20
-89.28611306432435
 30
0.0
 40
25.0
  0
LINE
  5
17AC21874A3B54
330
17AC21874A3B4D
100
AcDbEntity
  8
ASSE
100
AcDbLine
 10
-264.8114187203089
 20
219.8150560669017
 30
0.0
 11
-395.8237891844031
 21
219.1162957696731
 31
0.0
  0
CIRCLE
  5
17AC21874A3B55
330
17AC21874A3B4D
100
AcDbEntity
  8
0
100
AcDbCircle
 10
-325.6904207955261
 20
219.4379200527517
 30
0.0
 40
44.0
  0
CIRCLE
  5
17AC21874A3B56
330
17AC21874A3B4D
100
AcDbEntity
  8
0
100
AcDbCircle
 10
-325.6904207955261
 20
219.4379200527517
 30
0.0
 40
34.0
  0
LINE
  5
17AC21874A3B57
330
17AC21874A3B4D
100
AcDbEntity
  8
0
100
AcDbLine
 10
-129.5323556496937
 20
265.5628106265983
 30
0.0
 11
-539.5265242014145
 21
263.3760885173495
 31
0.0
  0
LINE
  5
17AC21874A3B58
330
17AC21874A3B4D
100
AcDbEntity
  8
ASSE
100
AcDbLine
 10
-109.8216066501331
 20
249.9689941133472
 30
0.0
 11
-626.9756907407411
 21
247.2107298347016
 31
0.0
1001
ACAD
1000
ASC_BOUNDS
1002
{
1070
    19
1005
17AC21874A3BB1
1002
}
  0
LINE
  5
17AC21874A3B59
330
17AC21874A3B4D
100
AcDbEntity
  8
0
100
AcDbLine
 10
-344.8293330831714
 20
31.34860646152106
 30
0.0
 11
-345.5561979032093
 21
167.6303663981314
 31
0.0
  0
LINE
  5
17AC21874A3B5A
330
17AC21874A3B4D
100
AcDbEntity
  8
ASSE
100
AcDbLine
 10
-326.2748051847479
 20
269.5161475771826
 30
0.0
 11
-324.9222846265818
 21
15.92857952319696
 31
0.0
  0
LINE
  5
17AC21874A3B5B
330
17AC21874A3B4D
100
AcDbEntity
  8
0
100
AcDbLine
 10
-344.7650025157245
 20
19.28710244089848
 30
0.0
 11
-344.8615360185479
 21
37.38641787748725
 31
0.0
  0
CIRCLE
  5
17AC21874A3B5C
330
17AC21874A3B4D
100
AcDbEntity
  8
0
100
AcDbCircle
 10
-638.69584159694
 20
93.9379366296905
 30
0.0
 40
140.0
1001
ACAD
1000
ASC_BOUNDS
1002
{
1070
    19
1005
17AC21874A3BB1
1002
}
  0
ARC
  5
17AC21874A3B5D
330
17AC21874A3B4D
100
AcDbEntity
  8
0
100
AcDbCircle
 10
-397.6715131637464
 20
48.86567915664477
 30
0.0
 40
25.11337410049601
100
AcDbArc
 50
259.3439829561773
 51
349.3439829561735
  0
LINE
  5
17AC21874A3B5E
330
17AC21874A3B4D
100
AcDbEntity
  8
ASSE
100
AcDbLine
 10
-398.2103506023707
 20
80.27934783185514
 30
0.0
 11
-397.8384024083277
 21
10.54182155177818
 31
0.0
  0
CIRCLE
  5
17AC21874A3B5F
330
17AC21874A3B4D
100
AcDbEntity
  8
VITE
100
AcDbCircle
 10
-397.8480293794398
 20
48.64019217069131
 30
0.0
 40
17.0
  0
LWPOLYLINE
  5
17AC21874A3B60
330
17AC21874A3B4D
100
AcDbEntity
  8
VITE
100
AcDbPolyline
 90
        6
 70
     1
 43
0.0
 10
-380.9006189228401
 20
58.5456761138837
 10
-397.9527248827228
 20
68.26982212606594
 10
-414.9001353393234
 20
58.36433818287265
 10
-414.7954398360404
 20
38.73470822749892
 10
-397.7433338761564
 20
29.01056221531712
 10
-380.795923419556
 20
38.91604615850997
  0
LINE
  5
17AC21874A3B61
330
17AC21874A3B4D
100
AcDbEntity
  8
0
100
AcDbLine
 10
-402.3152839398648
 20
24.18538435106507
 30
0.0
 11
-508.2273987886003
 21
44.11349248939882
 31
0.0
  0
LINE
  5
17AC21874A3B62
330
17AC21874A3B4D
100
AcDbEntity
  8
ASSE
100
AcDbLine
 10
-610.6289903392997
 20
243.512226279626
 30
0.0
 11
-666.0319033147064
 21
-50.93818724047856
 31
0.0
  0
LINE
  5
17AC21874A3B63
330
17AC21874A3B4D
100
AcDbEntity
  8
0
100
AcDbLine
 10
-356.9652710850335
 20
44.22238734773941
 30
0.0
 11
-356.8319343710548
 21
19.22274292385441
 31
0.0
  0
LINE
  5
17AC21874A3B64
330
17AC21874A3B4D
100
AcDbEntity
  8
0
100
AcDbLine
 10
-372.8452910979247
 20
48.93499873309224
 30
0.0
 11
-372.6852870411506
 21
18.93542542442969
 31
0.0
  0
LINE
  5
17AC21874A3B65
330
17AC21874A3B4D
100
AcDbEntity
  8
0
100
AcDbLine
 39
0.1234
 10
-402.0386303337597
 20
-313.2886549613061
 30
0.0
 11
-531.9909859674659
 21
-313.2886549613061
 31
0.0
  0
LINE
  5
17AC21874A3B66
330
17AC21874A3B4D
100
AcDbEntity
  8
0
100
AcDbLine
 39
0.1234
 10
-401.9671752907049
 20
-313.2671490621391
 30
0.0
 11
-401.9671752907049
 21
-183.236310074148
 31
0.0
  0
LINE
  5
17AC21874A3B67
330
17AC21874A3B4D
100
AcDbEntity
  8
ASSE
100
AcDbLine
 10
-742.7722140421681
 20
9.737100119066099
 30
0.0
 11
-789.6447606119957
 21
-32.03762728123661
 31
0.0
  0
LINE
  5
17AC21874A3B68
330
17AC21874A3B4D
100
AcDbEntity
  8
ASSE
100
AcDbLine
 10
-744.0519900874065
 20
-32.86496337361155
 30
0.0
 11
-785.24013555594
 21
13.34941998068075
 31
0.0
  0
CIRCLE
  5
17AC21874A3B69
330
17AC21874A3B4D
100
AcDbEntity
  8
0
100
AcDbCircle
 10
-764.6475115736564
 20
-9.760328455951139
 30
0.0
 40
14.5
  0
LINE
  5
17AC21874A3B6A
330
17AC21874A3B4D
100
AcDbEntity
  8
0
100
AcDbLine
 10
-774.376714957795
 20
4.484369881151678
 30
0.0
 11
-776.3189475325969
 21
2.814719431093408
 31
0.0
  0
ARC
  5
17AC21874A3B6B
330
17AC21874A3B4D
100
AcDbEntity
  8
0
100
AcDbCircle
 10
-764.6430331282957
 20
-9.761171106893698
 30
0.0
 40
17.08566650733891
100
AcDbArc
 50
131.7087292011559
 51
311.7087292011629
  0
CIRCLE
  5
17AC21874A3B6C
330
17AC21874A3B4D
100
AcDbEntity
  8
0
100
AcDbCircle
 10
-764.6475115736564
 20
-9.760328455951139
 30
0.0
 40
11.0
  0
CIRCLE
  5
17AC21874A3B6D
330
17AC21874A3B4D
100
AcDbEntity
  8
0
100
AcDbCircle
 10
-764.6475115736564
 20
-9.760328455951139
 30
0.0
 40
13.0
  0
LWPOLYLINE
  5
17AC21874A3B6E
330
17AC21874A3B4D
100
AcDbEntity
  8
VITE
100
AcDbPolyline
 90
        6
 70
     1
 43
0.0
 10
-757.5609117142168
 20
-7.273556353263529
 10
-763.2548849996992
 20
-2.383566418963937
 10
-770.3367271497938
 20
-4.869696965513185
 10
-771.7245960144055
 20
-12.24581744636066
 10
-766.0306227289226
 20
-17.1358073806598
 10
-758.948780578828
 20
-14.64967683411055
  0
CIRCLE
  5
17AC21874A3B6F
330
17AC21874A3B4D
100
AcDbEntity
  8
VITE
100
AcDbCircle
 10
-764.6427538643106
 20
-9.759686899812322
 30
0.0
 40
6.5
  0
CIRCLE
  5
17AC21874A3B70
330
17AC21874A3B4D
100
AcDbEntity
  8
VITE
100
AcDbCircle
 10
-764.6427538643106
 20
-9.759686899812322
 30
0.0
 40
6.5
  0
CIRCLE
  5
17AC21874A3B71
330
17AC21874A3B4D
100
AcDbEntity
  8
VITE
100
AcDbCircle
 10
-764.6427538643106
 20
-9.759686899812322
 30
0.0
 40
5.75
  0
LINE
  5
17AC21874A3B72
330
17AC21874A3B4D
100
AcDbEntity
  8
ASSE
100
AcDbLine
 10
-757.2720911130161
 20
-11.14652885428245
 30
0.0
 11
-772.0134166156051
 21
-8.372844945341284
 31
0.0
  0
LINE
  5
17AC21874A3B73
330
17AC21874A3B4D
100
AcDbEntity
  8
ASSE
100
AcDbLine
 10
-766.0295958187819
 20
-17.1303496511066
 30
0.0
 11
-763.2559119098401
 21
-2.389024148517137
 31
0.0
  0
CIRCLE
  5
17AC21874A3B74
330
17AC21874A3B4D
100
AcDbEntity
  8
VITE
100
AcDbCircle
 10
-764.6427538643106
 20
-9.759686899812322
 30
0.0
 40
4.978571428571428
  0
LINE
  5
17AC21874A3B75
330
17AC21874A3B4D
100
AcDbEntity
  8
0
100
AcDbLine
 10
-753.2947949136776
 20
-22.32594524422461
 30
0.0
 11
-737.1936584529562
 21
-5.564526026258818
 31
0.0
  0
LINE
  5
17AC21874A3B76
330
17AC21874A3B4D
100
AcDbEntity
  8
0
100
AcDbLine
 10
-754.9093512987965
 20
-24.00671209493907
 30
0.0
 11
-754.2572785779952
 21
-23.32789887820695
 31
0.0
  0
LINE
  5
17AC21874A3B77
330
17AC21874A3B4D
100
AcDbEntity
  8
0
100
AcDbLine
 10
-774.376714957795
 20
4.484369881151678
 30
0.0
 11
-755.6940382521617
 21
17.24985424770762
 31
0.0
  0
LINE
  5
17AC21874A3B78
330
17AC21874A3B4D
100
AcDbEntity
  8
0
100
AcDbLine
 10
-532.4443625542648
 20
-182.4429669580979
 30
0.0
 11
-532.4443625542648
 21
-313.5472142914916
 31
0.0
  0
CIRCLE
  5
17AC21874A3B79
330
17AC21874A3B4D
100
AcDbEntity
  8
0
100
AcDbCircle
 10
-486.190605052023
 20
1.994005438413978
 30
0.0
 40
14.5
  0
LINE
  5
17AC21874A3B7A
330
17AC21874A3B4D
100
AcDbEntity
  8
ASSE
100
AcDbLine
 10
-479.3167349813455
 20
-162.775221559745
 30
0.0
 11
-541.220883022497
 21
-163.105390083004
 31
0.0
  0
CIRCLE
  5
17AC21874A3B7B
330
17AC21874A3B4D
100
AcDbEntity
  8
0
100
AcDbCircle
 10
-510.2688124594076
 20
-162.940305839815
 30
0.0
 40
13.0
  0
CIRCLE
  5
17AC21874A3B7C
330
17AC21874A3B4D
100
AcDbEntity
  8
0
100
AcDbCircle
 10
-510.2688124594076
 20
-162.940305839815
 30
0.0
 40
14.5
  0
LINE
  5
17AC21874A3B7D
330
17AC21874A3B4D
100
AcDbEntity
  8
ASSE
100
AcDbLine
 10
-455.2385275739614
 20
2.159089718484892
 30
0.0
 11
-517.1426756151129
 21
1.828921195224893
 31
0.0
  0
LINE
  5
17AC21874A3B7E
330
17AC21874A3B4D
100
AcDbEntity
  8
0
100
AcDbLine
 10
-532.1671636498033
 20
-182.0573719102706
 30
0.0
 11
-532.1671636498033
 21
3.208304275701038
 31
0.0
  0
LINE
  5
17AC21874A3B7F
330
17AC21874A3B4D
100
AcDbEntity
  8
ASSE
100
AcDbLine
 10
-510.2242625336957
 20
-170.438664632363
 30
0.0
 11
-510.3042645620828
 21
-155.4388779780322
 31
0.0
  0
LINE
  5
17AC21874A3B80
330
17AC21874A3B4D
100
AcDbEntity
  8
ASSE
100
AcDbLine
 10
-510.425085389714
 20
-133.6402910564754
 30
0.0
 11
-510.09021476375
 21
-196.4260484619092
 31
0.0
  0
LWPOLYLINE
  5
17AC21874A3B81
330
17AC21874A3B4D
100
AcDbEntity
  8
VITE
100
AcDbPolyline
 90
        6
 70
     1
 43
0.0
 10
-503.7843713144832
 20
-159.1513803857417
 10
-510.3042941814974
 20
-155.4333245575547
 10
-516.7841864149034
 20
-159.2207154770106
 10
-516.7441557812951
 20
-166.726162224654
 10
-510.2242329142809
 20
-170.4442180528406
 10
-503.7443406808749
 20
-166.6568271333847
  0
CIRCLE
  5
17AC21874A3B82
330
17AC21874A3B4D
100
AcDbEntity
  8
VITE
100
AcDbCircle
 10
-510.2642635478889
 20
-162.9387713051976
 30
0.0
 40
4.978571428571428
  0
CIRCLE
  5
17AC21874A3B83
330
17AC21874A3B4D
100
AcDbEntity
  8
VITE
100
AcDbCircle
 10
-510.2642635478889
 20
-162.9387713051976
 30
0.0
 40
5.75
  0
CIRCLE
  5
17AC21874A3B84
330
17AC21874A3B4D
100
AcDbEntity
  8
VITE
100
AcDbCircle
 10
-510.2642635478889
 20
-162.9387713051976
 30
0.0
 40
6.5
  0
CIRCLE
  5
17AC21874A3B85
330
17AC21874A3B4D
100
AcDbEntity
  8
VITE
100
AcDbCircle
 10
-510.2642635478889
 20
-162.9387713051976
 30
0.0
 40
6.5
  0
CIRCLE
  5
17AC21874A3B86
330
17AC21874A3B4D
100
AcDbEntity
  8
0
100
AcDbCircle
 10
-510.2688124594076
 20
-162.940305839815
 30
0.0
 40
11.0
  0
LINE
  5
17AC21874A3B87
330
17AC21874A3B4D
100
AcDbEntity
  8
ASSE
100
AcDbLine
 10
-502.7643702207237
 20
-162.8987702910037
 30
0.0
 11
-517.7641568750548
 21
-162.978772319391
 31
0.0
  0
LINE
  5
17AC21874A3B88
330
17AC21874A3B4D
100
AcDbEntity
  8
ASSE
100
AcDbLine
 10
-325.7692983867648
 20
10.49193814003979
 30
0.0
 11
-324.7079193831107
 21
-188.5087489070049
 31
0.0
  0
CIRCLE
  5
17AC21874A3B89
330
17AC21874A3B4D
100
AcDbEntity
  8
0
100
AcDbCircle
 10
-325.4198523413657
 20
-89.28611306432435
 30
0.0
 40
15.0
  0
LINE
  5
17AC21874A3B8A
330
17AC21874A3B4D
100
AcDbEntity
  8
0
100
AcDbLine
 10
-450.7866368010979
 20
-108.905692208745
 30
0.0
 11
-450.873271547811
 21
-92.66232008747852
 31
0.0
  0
LINE
  5
17AC21874A3B8B
330
17AC21874A3B4D
100
AcDbEntity
  8
0
100
AcDbLine
 10
-489.7420280349868
 20
-109.2646967941907
 30
0.0
 11
-489.8292511604267
 21
-92.91100802776531
 31
0.0
  0
LINE
  5
17AC21874A3B8C
330
17AC21874A3B4D
100
AcDbEntity
  8
0
100
AcDbLine
 10
-433.5353290479059
 20
-77.5286381351982
 30
0.0
 11
-433.3676670336967
 21
-108.9640216357322
 31
0.0
  0
LINE
  5
17AC21874A3B8D
330
17AC21874A3B4D
100
AcDbEntity
  8
0
100
AcDbLine
 10
-462.1559712773287
 20
-109.1175653351458
 30
0.0
 11
-461.7841265907607
 21
-178.8356847316866
 31
0.0
  0
LINE
  5
17AC21874A3B8E
330
17AC21874A3B4D
100
AcDbEntity
  8
0
100
AcDbLine
 10
-441.7844110516523
 20
-178.7290153605038
 30
0.0
 11
-442.156255738221
 21
-109.0108959639622
 31
0.0
  0
LINE
  5
17AC21874A3B8F
330
17AC21874A3B4D
100
AcDbEntity
  8
0
100
AcDbLine
 10
-461.7841265907607
 20
-178.8356847316866
 30
0.0
 11
-441.7844110516523
 21
-178.7290153605038
 31
0.0
  0
LINE
  5
17AC21874A3B90
330
17AC21874A3B4D
100
AcDbEntity
  8
0
100
AcDbLine
 10
-433.3731957030939
 20
-108.9640511231362
 30
0.0
 11
-489.7420280349868
 21
-109.2646967941907
 31
0.0
  0
LINE
  5
17AC21874A3B91
330
17AC21874A3B4D
100
AcDbEntity
  8
0
100
AcDbLine
 10
-372.6852870411506
 20
18.93542542442969
 30
0.0
 11
-422.684575888921
 21
18.66875199647279
 31
0.0
  0
LINE
  5
17AC21874A3B92
330
17AC21874A3B4D
100
AcDbEntity
  8
0
100
AcDbLine
 10
-442.323917752429
 20
-77.57551246342905
 30
0.0
 11
-442.7339429331111
 21
-0.6988337451555254
 31
0.0
  0
LINE
  5
17AC21874A3B93
330
17AC21874A3B4D
100
AcDbEntity
  8
0
100
AcDbLine
 10
-462.7336584722193
 20
-0.8055031163382864
 30
0.0
 11
-462.3236332915375
 21
-77.6821818346109
 31
0.0
  0
LINE
  5
17AC21874A3B94
330
17AC21874A3B4D
100
AcDbEntity
  8
ASSE
100
AcDbLine
 10
-486.3468779823297
 20
31.2940202217535
 30
0.0
 11
-486.0120073563655
 21
-31.49173718368024
 31
0.0
  0
LINE
  5
17AC21874A3B95
330
17AC21874A3B4D
100
AcDbEntity
  8
0
100
AcDbLine
 10
-467.5574776845103
 20
-77.71009677616007
 30
0.0
 11
-441.0798489441197
 21
-77.56887716717961
 31
0.0
  0
LINE
  5
17AC21874A3B96
330
17AC21874A3B4D
100
AcDbEntity
  8
0
100
AcDbLine
 10
-450.873271547811
 20
-92.66232008747852
 30
0.0
 11
-489.8293662506469
 21
-92.87009414894351
 31
0.0
  0
LINE
  5
17AC21874A3B97
330
17AC21874A3B4D
100
AcDbEntity
  8
0
100
AcDbLine
 10
-467.5909068280835
 20
-77.72594645881077
 30
0.0
 11
-467.510769734032
 21
-92.75105692306556
 31
0.0
  0
CIRCLE
  5
17AC21874A3B98
330
17AC21874A3B4D
100
AcDbEntity
  8
0
100
AcDbCircle
 10
-459.8051884938015
 20
-85.17065606773462
 30
0.0
 40
5.306069902824674
  0
LINE
  5
17AC21874A3B99
330
17AC21874A3B4D
100
AcDbEntity
  8
0
100
AcDbLine
 10
-442.6349349545064
 20
-77.5771712874905
 30
0.0
 11
-433.5408577173027
 21
-77.52866762260168
 31
0.0
  0
LINE
  5
17AC21874A3B9A
330
17AC21874A3B4D
100
AcDbEntity
  8
0
100
AcDbLine
 10
-442.7339429331111
 20
-0.6988337451555254
 30
0.0
 11
-462.7336584722193
 21
-0.8055031163382864
 31
0.0
  0
LINE
  5
17AC21874A3B9B
330
17AC21874A3B4D
100
AcDbEntity
  8
ASSE
100
AcDbLine
 10
-486.1460551263112
 20
-5.504353354134082
 30
0.0
 11
-486.2260571546983
 21
9.495433300197646
 31
0.0
  0
CIRCLE
  5
17AC21874A3B9C
330
17AC21874A3B4D
100
AcDbEntity
  8
0
100
AcDbCircle
 10
-486.190605052023
 20
1.994005438413978
 30
0.0
 40
13.0
  0
CIRCLE
  5
17AC21874A3B9D
330
17AC21874A3B4D
100
AcDbEntity
  8
0
100
AcDbCircle
 10
-486.190605052023
 20
1.994005438413978
 30
0.0
 40
11.0
  0
CIRCLE
  5
17AC21874A3B9E
330
17AC21874A3B4D
100
AcDbEntity
  8
VITE
100
AcDbCircle
 10
-486.1860561405046
 20
1.995539973031782
 30
0.0
 40
6.5
  0
CIRCLE
  5
17AC21874A3B9F
330
17AC21874A3B4D
100
AcDbEntity
  8
VITE
100
AcDbCircle
 10
-486.1860561405046
 20
1.995539973031782
 30
0.0
 40
6.5
  0
CIRCLE
  5
17AC21874A3BA0
330
17AC21874A3B4D
100
AcDbEntity
  8
VITE
100
AcDbCircle
 10
-486.1860561405046
 20
1.995539973031782
 30
0.0
 40
5.75
  0
LWPOLYLINE
  5
17AC21874A3BA1
330
17AC21874A3B4D
100
AcDbEntity
  8
VITE
100
AcDbPolyline
 90
        6
 70
     1
 43
0.0
 10
-479.7061639070987
 20
5.782930892488138
 10
-486.2260867741131
 20
9.5009867206752
 10
-492.7059790075193
 20
5.713595801218843
 10
-492.665948373911
 20
-1.791850946424574
 10
-486.1460255068961
 20
-5.509906774611636
 10
-479.6661332734904
 20
-1.722515855155279
  0
CIRCLE
  5
17AC21874A3BA2
330
17AC21874A3B4D
100
AcDbEntity
  8
VITE
100
AcDbCircle
 10
-486.1860561405046
 20
1.995539973031782
 30
0.0
 40
4.978571428571428
  0
LINE
  5
17AC21874A3BA3
330
17AC21874A3B4D
100
AcDbEntity
  8
ASSE
100
AcDbLine
 10
-478.686162813339
 20
2.035540987225203
 30
0.0
 11
-493.6859494676705
 21
1.95553895883836
 31
0.0
  0
LINE
  5
17AC21874A3BA4
330
17AC21874A3B4D
100
AcDbEntity
  8
0
100
AcDbLine
 10
-422.684575888921
 20
18.66875199647279
 30
0.0
 11
-422.7119872826945
 21
23.80818491817513
 31
0.0
  0
LINE
  5
17AC21874A3BA5
330
17AC21874A3B4D
100
AcDbEntity
  8
0
100
AcDbLine
 10
-422.7119872826945
 20
23.80818491817513
 30
0.0
 11
-422.7344833306153
 21
28.02602696774852
 31
0.0
  0
LINE
  5
17AC21874A3BA6
330
17AC21874A3B4D
100
AcDbEntity
  8
0
100
AcDbLine
 10
-356.8319343710548
 20
19.22274292385441
 30
0.0
 11
-344.7650025157245
 21
19.28710244089848
 31
0.0
  0
LINE
  5
17AC21874A3BA7
330
17AC21874A3B4D
100
AcDbEntity
  8
ASSE
100
AcDbLine
 10
-548.0718335008432
 20
76.88639313206909
 30
0.0
 11
-802.9315146829862
 21
124.8400318064821
 31
0.0
  0
LINE
  5
17AC21874A3BA8
330
17AC21874A3B4D
100
AcDbEntity
  8
ASSE
100
AcDbLine
 10
-534.519483529579
 20
74.33642331849774
 30
0.0
 11
-361.3988464937268
 21
41.76255978310178
 31
0.0
  0
LINE
  5
17AC21874A3BA9
330
17AC21874A3B4D
100
AcDbEntity
  8
0
100
AcDbLine
 10
-539.3665201446406
 20
233.3765152086869
 30
0.0
 11
-367.0294938202601
 21
234.2956823935199
 31
0.0
  0
CIRCLE
  5
17AC21874A3BAA
330
17AC21874A3B4D
100
AcDbEntity
  8
0
100
AcDbCircle
 10
-638.69584159694
 20
93.9379366296905
 30
0.0
 40
10.0
  0
CIRCLE
  5
17AC21874A3BAB
330
17AC21874A3B4D
100
AcDbEntity
  8
0
100
AcDbCircle
 10
-638.69584159694
 20
93.9379366296905
 30
0.0
 40
18.0
  0
CIRCLE
  5
17AC21874A3BAC
330
17AC21874A3B4D
100
AcDbEntity
  8
0
100
AcDbCircle
 10
-638.69584159694
 20
93.9379366296905
 30
0.0
 40
32.5
  0
LINE
  5
17AC21874A3BAD
330
17AC21874A3B4D
100
AcDbEntity
  8
0
100
AcDbLine
 10
-539.4022986033019
 20
248.5477911878622
 30
0.0
 11
-539.3089629035173
 21
231.0480400911426
 31
0.0
  0
LINE
  5
17AC21874A3BAE
330
17AC21874A3B4D
100
AcDbEntity
  8
0
100
AcDbLine
 10
-559.3086784426252
 20
230.9413707199599
 30
0.0
 11
-559.40201414241
 21
248.4411218166794
 31
0.0
  0
LINE
  5
17AC21874A3BAF
330
17AC21874A3B4D
100
AcDbEntity
  8
0
100
AcDbLine
 10
-589.0086544929718
 20
248.2832134852904
 30
0.0
 11
-588.8803076744795
 21
224.2191374367919
 31
0.0
1001
ACAD
1000
ASC_BOUNDS
1002
{
1070
    19
1005
17AC21874A3BB1
1002
}
  0
LINE
  5
17AC21874A3BB0
330
17AC21874A3B4D
100
AcDbEntity
  8
0
100
AcDbLine
 10
-566.0509942598484
 20
292.2813517110419
 30
0.0
 11
-565.6287105780736
 21
213.1062950040275
 31
0.0
1001
ACAD
1000
ASC_BOUNDS
1002
{
1070
    19
1005
17AC21874A3BB1
1002
}
  0
INSERT
  5
17AC21874A3BB1
330
17AC21874A3B4D
100
AcDbEntity
  8
0
100
AcDbBlockReference
  2
*X5
 10
-2603.041658417061
 20
2968.346037458103
 30
0.0
 50
270.3055866873954
1001
ACAD
1000
HATCH
1002
{
1070
    19
1000
AR-HBONE
1040
1.0
1040
14.14250043499941
1000
ASC_BOUNDS
1070
     2
1070
     1
1070
     4
1005
17AC21874A3BB0
1005
17AC21874A3B58
1005
17AC21874A3BAF
1005
17AC21874A3B5C
1070
     1
1070
     7
1005
17AC21874A3BB0
1005
17AC21874A3BB5
1005
17AC21874A3BB8
1005
17AC21874A3BB9
1005
17AC21874A3BB6
1005
17AC21874A3BAF
1005
17AC21874A3B58
1000
ASC_SEEDPOINT
1011
-2082.33916983116
1021
-4460.32438901807
1031
0.0
1002
}
  0
LINE
  5
17AC21874A3BB2
330
17AC21874A3B4D
100
AcDbEntity
  8
0
100
AcDbLine
 10
-539.3089629035173
 20
231.0480400911426
 30
0.0
 11
-559.3086784426252
 21
230.9413707199599
 31
0.0
  0
LINE
  5
17AC21874A3BB3
330
17AC21874A3B4D
100
AcDbEntity
  8
0
100
AcDbLine
 10
-563.8509973781253
 20
212.1729823519729
 30
0.0
 11
-559.1883753398738
 21
231.0009917724276
 31
0.0
  0
LINE
  5
17AC21874A3BB4
330
17AC21874A3B4D
100
AcDbEntity
  8
0
100
AcDbLine
 10
-539.4956343030874
 20
266.0475422845827
 30
0.0
 11
-559.4953498421955
 21
265.9408729134
 31
0.0
  0
LINE
  5
17AC21874A3BB5
330
17AC21874A3B4D
100
AcDbEntity
  8
0
100
AcDbLine
 10
-566.2436542395992
 20
292.40525744819
 30
0.0
 11
-559.3744176187287
 21
265.8825385002599
 31
0.0
1001
ACAD
1000
ASC_BOUNDS
1002
{
1070
    19
1005
17AC21874A3BB1
1002
}
  0
LINE
  5
17AC21874A3BB6
330
17AC21874A3B4D
100
AcDbEntity
  8
0
100
AcDbLine
 10
-589.0086544929718
 20
248.2832134852904
 30
0.0
 11
-589.2166597667783
 21
287.2826587865518
 31
0.0
1001
ACAD
1000
ASC_BOUNDS
1002
{
1070
    19
1005
17AC21874A3BB1
1002
}
  0
LINE
  5
17AC21874A3BB7
330
17AC21874A3B4D
100
AcDbEntity
  8
0
100
AcDbLine
 10
-559.4953498421955
 20
265.9408729134
 30
0.0
 11
-559.40201414241
 21
248.4411218166794
 31
0.0
  0
LINE
  5
17AC21874A3BB8
330
17AC21874A3B4D
100
AcDbEntity
  8
0
100
AcDbLine
 10
-584.2433982247968
 20
292.3092550141253
 30
0.0
 11
-566.2436542395992
 21
292.40525744819
 31
0.0
1001
ACAD
1000
ASC_BOUNDS
1002
{
1070
    19
1005
17AC21874A3BB1
1002
}
  0
ARC
  5
17AC21874A3BB9
330
17AC21874A3B4D
100
AcDbEntity
  8
0
100
AcDbCircle
 10
-584.2167308820012
 20
287.3093261293477
 30
0.0
 40
5.0
100
AcDbArc
 50
90.30558668739542
 51
180.3055866873954
1001
ACAD
1000
ASC_BOUNDS
1002
{
1070
    19
1005
17AC21874A3BB1
1002
}
  0
LINE
  5
17AC21874A3BBA
330
17AC21874A3B4D
100
AcDbEntity
  8
0
100
AcDbLine
 10
-539.4022986033019
 20
248.5477911878622
 30
0.0
 11
-539.4956343030874
 21
266.0475422845827
 31
0.0
  0
LINE
  5
17AC21874A3BBB
330
17AC21874A3B4D
100
AcDbEntity
  8
0
100
AcDbLine
 10
-345.5561979032089
 20
167.6303663981277
 30
0.0
 11
-345.6298044690805
 21
181.4310512893905
 31
0.0
  0
LINE
  5
17AC21874A3BBC
330
17AC21874A3B4D
100
AcDbEntity
  8
0
100
AcDbLine
 10
-356.9652711568135
 20
44.22240080607275
 30
0.0
 11
-357.6586220695026
 21
174.2205518102771
 31
0.0
  0
LINE
  5
17AC21874A3BBD
330
17AC21874A3B4D
100
AcDbEntity
  8
0
100
AcDbLine
 10
-393.1577153954624
 20
72.85520512267317
 30
0.0
 11
-499.0698302441976
 21
92.78331326100738
 31
0.0
  0
ARC
  5
17AC21874A3BBE
330
17AC21874A3B4D
100
AcDbEntity
  8
0
100
AcDbCircle
 10
-397.8014861715831
 20
48.17491031709301
 30
0.0
 40
25.11337410049601
100
AcDbArc
 50
349.3439829561735
 51
79.34398295617732
  0
LINE
  5
17AC21874A3BBF
330
17AC21874A3B4D
100
AcDbEntity
  8
0
100
AcDbLine
 10
-370.9506347422732
 20
204.4572152148291
 30
0.0
 11
-371.1106387990473
 21
234.4567885234917
 31
0.0
  0
LINE
  5
17AC21874A3BC0
330
17AC21874A3B4D
100
AcDbEntity
  8
0
100
AcDbLine
 10
-357.6599330414742
 20
174.4663493267142
 30
0.0
 11
-345.5930011861449
 21
174.5307088437573
 31
0.0
  0
LINE
  5
17AC21874A3BC1
330
17AC21874A3B4D
100
AcDbEntity
  8
0
100
AcDbLine
 10
-367.0859470402902
 20
204.4778276983509
 30
0.0
 11
-370.9506347422732
 21
204.4572152148291
 31
0.0
  0
LINE
  5
17AC21874A3BC2
330
17AC21874A3B4D
100
AcDbEntity
  8
0
100
AcDbLine
 10
-293.1166239190309
 20
19.54847906676582
 30
0.0
 11
-293.3282427779666
 21
59.22544476455346
 31
0.0
  0
LINE
  5
17AC21874A3BC3
330
17AC21874A3B4D
100
AcDbEntity
  8
0
100
AcDbLine
 10
-305.9077237897256
 20
167.8418332959374
 30
0.0
 11
-305.1808589696877
 21
31.56007335932668
 31
0.0
  0
LINE
  5
17AC21874A3BC4
330
17AC21874A3B4D
100
AcDbEntity
  8
COSTRUZIONE
 62
     1
100
AcDbLine
 39
0.1234
 10
-62.00745853626358
 20
-80.55938148087284
 30
0.0
 11
-80.75862971667016
 21
-110.81581236596
 31
0.0
  0
LINE
  5
17AC21874A3BC5
330
17AC21874A3B4D
100
AcDbEntity
  8
0
100
AcDbLine
 39
0.1234
 10
-42.97979441310895
 20
-65.27689068637323
 30
0.0
 11
-50.2121200166996
 21
-69.15674427204749
 31
0.0
  0
ARC
  5
17AC21874A3BC6
330
17AC21874A3B4D
100
AcDbEntity
  8
COSTRUZIONE
100
AcDbCircle
 10
-95.86247403084394
 20
-150.1921403661949
 30
0.0
 40
25.09637090367701
100
AcDbArc
 50
94.61584905883944
 51
20.45797883069474
  0
LINE
  5
17AC21874A3BC7
330
17AC21874A3B4D
100
AcDbEntity
  8
0
100
AcDbLine
 10
-95.56954293299032
 20
-175.36286157331
 30
0.0
 11
-131.9370680962312
 21
-175.36286157331
 31
0.0
  0
LINE
  5
17AC21874A3BC8
330
17AC21874A3B4D
100
AcDbEntity
  8
0
100
AcDbLine
 10
-97.88209565784393
 20
-125.1771656306754
 30
0.0
 11
-131.9370680962312
 21
-125.1771656306754
 31
0.0
  0
LINE
  5
17AC21874A3BC9
330
17AC21874A3B4D
100
AcDbEntity
  8
0
100
AcDbLine
 10
-133.239546579465
 20
20.07317090447009
 30
0.0
 11
-132.1728528676369
 21
-179.9239844866131
 31
0.0
  0
LINE
  5
17AC21874A3BCA
330
17AC21874A3B4D
100
AcDbEntity
  8
0
100
AcDbLine
 10
-152.9849045354995
 20
-41.89115355929811
 30
0.0
 11
-152.3287312409823
 21
-164.9187770389906
 31
0.0
  0
CIRCLE
  5
17AC21874A3BCB
330
17AC21874A3B4D
100
AcDbEntity
  8
0
100
AcDbCircle
 10
-207.4183658312418
 20
-97.75925561813687
 30
0.0
 40
10.77928353839161
  0
LINE
  5
17AC21874A3BCC
330
17AC21874A3B4D
100
AcDbEntity
  8
0
100
AcDbLine
 10
-221.1101862615296
 20
-95.2410609720207
 30
0.0
 11
-233.1736713274927
 21
-51.07149129701269
 31
0.0
  0
LINE
  5
17AC21874A3BCD
330
17AC21874A3B4D
100
AcDbEntity
  8
0
100
AcDbLine
 10
-262.2843611868313
 20
-165.5052302753581
 30
0.0
 11
-262.9403265638207
 21
-42.51658978928458
 31
0.0
  0
LINE
  5
17AC21874A3BCE
330
17AC21874A3B4D
100
AcDbEntity
  8
ASSE
100
AcDbLine
 10
-207.9644330927183
 20
14.33373467861133
 30
0.0
 11
-207.1891081462847
 21
-131.0339393509941
 31
0.0
  0
LINE
  5
17AC21874A3BCF
330
17AC21874A3B4D
100
AcDbEntity
  8
0
100
AcDbLine
 10
-195.2483050965143
 20
-96.0477161290985
 30
0.0
 11
-183.16066087074
 21
-50.80474468424404
 31
0.0
  0
LINE
  5
17AC21874A3BD0
330
17AC21874A3B4D
100
AcDbEntity
  8
0
100
AcDbLine
 10
-164.264558941737
 20
-176.9826079851648
 30
0.0
 11
-250.2205302406569
 21
-177.4410579761136
 31
0.0
  0
ARC
  5
17AC21874A3BD1
330
17AC21874A3B4D
100
AcDbEntity
  8
0
100
AcDbCircle
 10
-250.2845318633667
 20
-165.4412286526487
 30
0.0
 40
12.0
100
AcDbArc
 50
180.3055866873954
 51
270.3055866873954
  0
ARC
  5
17AC21874A3BD2
330
17AC21874A3B4D
100
AcDbEntity
  8
0
100
AcDbCircle
 10
-207.9378964269761
 20
-87.90657689595787
 30
0.0
 40
15.07660028479595
100
AcDbArc
 50
209.1095686839556
 51
227.3828301462501
  0
ARC
  5
17AC21874A3BD3
330
17AC21874A3B4D
100
AcDbEntity
  8
0
100
AcDbCircle
 10
-164.3285605644478
 20
-164.9827786617004
 30
0.0
 40
12.0
100
AcDbArc
 50
270.3055866873954
 51
0.3055866873986775
  0
ARC
  5
17AC21874A3BD4
330
17AC21874A3B4D
100
AcDbEntity
  8
0
100
AcDbCircle
 10
-207.9378964269761
 20
-87.90657689595787
 30
0.0
 40
15.07660028479595
100
AcDbArc
 50
317.0874932552984
 51
327.3173767165694
  0
CIRCLE
  5
17AC21874A3BD5
330
17AC21874A3B4D
100
AcDbEntity
  8
0
100
AcDbCircle
 10
-207.7371797291253
 20
-37.98401557599414
 30
0.0
 40
10.0
  0
LINE
  5
17AC21874A3BD6
330
17AC21874A3B4D
100
AcDbEntity
  8
ASSE
100
AcDbLine
 10
-171.5073999675326
 20
-37.54578936972325
 30
0.0
 11
-244.9487934384886
 21
-37.93749230394883
 31
0.0
  0
CIRCLE
  5
17AC21874A3BD7
330
17AC21874A3B4D
100
AcDbEntity
  8
0
100
AcDbCircle
 10
-207.7371797291253
 20
-37.98401557599414
 30
0.0
 40
21.92606435362723
  0
LINE
  5
17AC21874A3BD8
330
17AC21874A3B4D
100
AcDbEntity
  8
0
100
AcDbLine
 10
-247.433706785346
 20
15.57655075721982
 30
0.0
 11
-168.8950158910281
 21
15.99544035366648
 31
0.0
  0
LINE
  5
17AC21874A3BD9
330
17AC21874A3B4D
100
AcDbEntity
  8
0
100
AcDbLine
 10
-183.4556655732164
 20
-5.842556526580892
 30
0.0
 11
-233.4549544209872
 21
-6.10922995453734
 31
0.0
  0
LINE
  5
17AC21874A3BDA
330
17AC21874A3B4D
100
AcDbEntity
  8
0
100
AcDbLine
 10
-262.6403486744637
 20
-42.58361267801251
 30
0.0
 11
-247.3710346464581
 21
15.66493099212834
 31
0.0
  0
LINE
  5
17AC21874A3BDB
330
17AC21874A3B4D
100
AcDbEntity
  8
0
100
AcDbLine
 10
-233.4549544209872
 20
-6.10922995453734
 30
0.0
 11
-233.2157836163376
 21
-50.95198101988604
 31
0.0
  0
LINE
  5
17AC21874A3BDC
330
17AC21874A3B4D
100
AcDbEntity
  8
0
100
AcDbLine
 10
-305.1808589696877
 20
31.56007335932668
 30
0.0
 11
-305.1164532424957
 21
19.48447744405644
 31
0.0
  0
LINE
  5
17AC21874A3BDD
330
17AC21874A3B4D
100
AcDbEntity
  8
0
100
AcDbLine
 10
-305.1164532424957
 20
19.48447744405644
 30
0.0
 11
-293.1166239190309
 21
19.54847906676582
 31
0.0
  0
LINE
  5
17AC21874A3BDE
330
17AC21874A3B4D
100
AcDbEntity
  8
0
100
AcDbLine
 10
-183.2164947685667
 20
-50.68530759192913
 30
0.0
 11
-183.4556655732164
 21
-5.842556526580892
 31
0.0
  0
LINE
  5
17AC21874A3BDF
330
17AC21874A3B4D
100
AcDbEntity
  8
0
100
AcDbLine
 10
-152.9843306254486
 20
-41.99875743500501
 30
0.0
 11
-168.874100670401
 21
16.08359787619679
 31
0.0
  0
LINE
  5
17AC21874A3BE0
330
17AC21874A3B4D
100
AcDbEntity
  8
ASSE
100
AcDbLine
 10
-152.5516256346113
 20
33.07433202679545
 30
0.0
 11
-152.2167550086476
 21
-29.71142537863784
 31
0.0
  0
LINE
  5
17AC21874A3BE1
330
17AC21874A3B4D
100
AcDbEntity
  8
0
100
AcDbLine
 10
-211.5390646913463
 20
-59.56319261568228
 30
0.0
 11
-211.3901106898072
 21
-87.49096256648522
 31
0.0
  0
LINE
  5
17AC21874A3BE2
330
17AC21874A3B4D
100
AcDbEntity
  8
0
100
AcDbLine
 10
-203.4605254474298
 20
-59.52010536778903
 30
0.0
 11
-203.3089581574234
 21
-87.93784751379485
 31
0.0
  0
LINE
  5
17AC21874A3BE3
330
17AC21874A3B4D
100
AcDbEntity
  8
ASSE
100
AcDbLine
 10
-121.443275226243
 20
3.939401523526839
 30
0.0
 11
-183.3474232673945
 21
3.609233000267295
 31
0.0
  0
LINE
  5
17AC21874A3BE4
330
17AC21874A3B4D
100
AcDbEntity
  8
ASSE
100
AcDbLine
 10
-152.3508027785931
 20
-3.72404154909168
 30
0.0
 11
-152.4308048069795
 21
11.27574510524005
 31
0.0
  0
CIRCLE
  5
17AC21874A3BE5
330
17AC21874A3B4D
100
AcDbEntity
  8
VITE
100
AcDbCircle
 10
-152.3908037927863
 20
3.775851778073729
 30
0.0
 40
4.978571428571428
  0
ARC
  5
17AC21874A3BE6
330
17AC21874A3B4D
100
AcDbEntity
  8
0
100
AcDbCircle
 10
-152.3953527043047
 20
3.77431724345638
 30
0.0
 40
14.5
100
AcDbArc
 50
224.4532235826828
 51
166.048260837995
  0
ARC
  5
17AC21874A3BE7
330
17AC21874A3B4D
100
AcDbEntity
  8
0
100
AcDbCircle
 10
-152.3953527043047
 20
3.77431724345638
 30
0.0
 40
13.0
100
AcDbArc
 50
208.067214421717
 51
181.6856592318009
  0
CIRCLE
  5
17AC21874A3BE8
330
17AC21874A3B4D
100
AcDbEntity
  8
0
100
AcDbCircle
 10
-152.3953527043047
 20
3.77431724345638
 30
0.0
 40
11.0
  0
LWPOLYLINE
  5
17AC21874A3BE9
330
17AC21874A3B4D
100
AcDbEntity
  8
VITE
100
AcDbPolyline
 90
        6
 70
     1
 43
0.0
 10
-145.9109115593808
 20
7.563242697529631
 10
-152.4308344263948
 20
11.28129852571714
 10
-158.9107266598009
 20
7.49390760626079
 10
-158.8706960261927
 20
-0.0115391413821726
 10
-152.3507731591778
 20
-3.729594969569234
 10
-145.8708809257725
 20
0.0577959498862129
  0
CIRCLE
  5
17AC21874A3BEA
330
17AC21874A3B4D
100
AcDbEntity
  8
VITE
100
AcDbCircle
 10
-152.3908037927863
 20
3.775851778073729
 30
0.0
 40
6.5
  0
CIRCLE
  5
17AC21874A3BEB
330
17AC21874A3B4D
100
AcDbEntity
  8
VITE
100
AcDbCircle
 10
-152.3908037927863
 20
3.775851778073729
 30
0.0
 40
6.5
  0
CIRCLE
  5
17AC21874A3BEC
330
17AC21874A3B4D
100
AcDbEntity
  8
VITE
100
AcDbCircle
 10
-152.3908037927863
 20
3.775851778073729
 30
0.0
 40
5.75
  0
LINE
  5
17AC21874A3BED
330
17AC21874A3B4D
100
AcDbEntity
  8
ASSE
100
AcDbLine
 10
-144.8909104656204
 20
3.815852792267605
 30
0.0
 11
-159.8906971199524
 21
3.735850763879852
 31
0.0
  0
ARC
  5
17AC21874A3BEE
330
17AC21874A3B4D
100
AcDbEntity
  8
COSTRUZIONE
100
AcDbCircle
 10
-60.80631488394647
 20
-93.84456535496349
 30
0.0
 40
4.014477155476527
100
AcDbArc
 50
148.2117796047919
 51
328.2117796047919
  0
LINE
  5
17AC21874A3BEF
330
17AC21874A3B4D
100
AcDbEntity
  8
COSTRUZIONE
100
AcDbLine
 10
-57.64895954523649
 20
-96.32390681933749
 30
0.0
 11
-50.71919523972906
 21
-85.16152351371625
 31
0.0
  0
ARC
  5
17AC21874A3BF0
330
17AC21874A3B4D
100
AcDbEntity
  8
0
100
AcDbCircle
 10
-70.98007464729381
 20
-95.06385357468616
 30
0.0
 40
13.0
100
AcDbArc
 50
91.12502195559796
 51
204.4480527542834
  0
ARC
  5
17AC21874A3BF1
330
17AC21874A3B4D
100
AcDbEntity
  8
0
100
AcDbCircle
 10
-70.98007464729381
 20
-95.06385357468616
 30
0.0
 40
11.0
100
AcDbArc
 50
97.7615315563597
 51
198.3204874186282
  0
LINE
  5
17AC21874A3BF2
330
17AC21874A3B4D
100
AcDbEntity
  8
ASSE
100
AcDbLine
 10
-88.9192478493137
 20
-83.94620031202634
 30
0.0
 11
-54.83120859642031
 21
-105.0719788833007
 31
0.0
  0
LINE
  5
17AC21874A3BF3
330
17AC21874A3B4D
100
AcDbEntity
  8
COSTRUZIONE
100
AcDbLine
 10
-58.63511020256055
 20
-137.7624649207482
 30
0.0
 11
-21.76043652982253
 21
-78.26239398357142
 31
0.0
  0
LINE
  5
17AC21874A3BF4
330
17AC21874A3B4D
100
AcDbEntity
  8
COSTRUZIONE
100
AcDbLine
 10
-76.60811385750003
 20
-93.85945103784411
 30
0.0
 11
-54.78152466686196
 21
-107.3862979998166
 31
0.0
  0
LINE
  5
17AC21874A3BF5
330
17AC21874A3B4D
100
AcDbEntity
  8
COSTRUZIONE
100
AcDbLine
 10
-101.5295789496322
 20
-131.0626553987926
 30
0.0
 11
-69.76195845362053
 21
-79.80320047335294
 31
0.0
  0
LINE
  5
17AC21874A3BF6
330
17AC21874A3B4D
100
AcDbEntity
  8
COSTRUZIONE
100
AcDbLine
 10
-98.17673204817721
 20
-130.3911104875227
 30
0.0
 11
-75.83941783798673
 21
-94.33584399715687
 31
0.0
  0
LINE
  5
17AC21874A3BF7
330
17AC21874A3B4D
100
AcDbEntity
  8
COSTRUZIONE
100
AcDbLine
 10
-0.9707182126953739
 20
-20.55849771539829
 30
0.0
 11
-77.06606056154441
 21
-143.3440797093792
 31
0.0
  0
LINE
  5
17AC21874A3BF8
330
17AC21874A3B4D
100
AcDbEntity
  8
COSTRUZIONE
100
AcDbLine
 10
-67.13512033644292
 20
-132.4946543960712
 30
0.0
 11
1.346416484356268
 21
-21.99452265559989
 31
0.0
  0
LINE
  5
17AC21874A3BF9
330
17AC21874A3B4D
100
AcDbEntity
  8
ASSE
100
AcDbLine
 39
0.1234
 10
-96.05005922601641
 20
-118.0764638865078
 30
0.0
 11
-96.05005922601641
 21
-181.2856808916462
 31
0.0
  0
CIRCLE
  5
17AC21874A3BFA
330
17AC21874A3B4D
100
AcDbEntity
  8
COSTRUZIONE
100
AcDbCircle
 10
-95.70354960170197
 20
-150.2376056084866
 30
0.0
 40
20.0
  0
LINE
  5
17AC21874A3BFB
330
17AC21874A3B4D
100
AcDbEntity
  8
COSTRUZIONE
100
AcDbLine
 10
-93.43066555470182
 20
-174.9706743076715
 30
0.0
 11
-118.9425934253145
 21
-159.1598693762865
 31
0.0
  0
LINE
  5
17AC21874A3BFC
330
17AC21874A3B4D
100
AcDbEntity
  8
COSTRUZIONE
100
AcDbLine
 10
-89.97876287510701
 20
-169.4007686285886
 30
0.0
 11
-93.43066555470182
 21
-174.9706743076715
 31
0.0
  0
LINE
  5
17AC21874A3BFD
330
17AC21874A3B4D
100
AcDbEntity
  8
COSTRUZIONE
100
AcDbLine
 10
-67.17132227942284
 20
-132.5992406914901
 30
0.0
 11
-76.06017653997742
 21
-146.9420783731758
 31
0.0
  0
LINE
  5
17AC21874A3BFE
330
17AC21874A3B4D
100
AcDbEntity
  8
ASSE
100
AcDbLine
 39
0.1234
 10
-120.672434169586
 20
-150.2009535521194
 30
0.0
 11
-65.57787931492794
 21
-150.2009535521194
 31
0.0
  0
CIRCLE
  5
17AC21874A3BFF
330
17AC21874A3B4D
100
AcDbEntity
  8
0
100
AcDbCircle
 10
-96.05005922601641
 20
-150.2009535521193
 30
0.0
 40
6.0
  0
LINE
  5
17AC21874A3C00
330
17AC21874A3B4D
100
AcDbEntity
  8
COSTRUZIONE
100
AcDbLine
 10
-118.9425934253145
 20
-159.1598693762865
 30
0.0
 11
-115.4355196569605
 21
-153.5009409786841
 31
0.0
  0
CIRCLE
  5
17AC21874A3C01
330
17AC21874A3B4D
100
AcDbEntity
  8
COSTRUZIONE
100
AcDbCircle
 10
-110.8811173678855
 20
-140.8359451494287
 30
0.0
 40
1.5
  0
LINE
  5
17AC21874A3C02
330
17AC21874A3B4D
100
AcDbEntity
  8
COSTRUZIONE
100
AcDbLine
 10
-67.13512033644292
 20
-132.4946543960712
 30
0.0
 11
-58.63511020256055
 21
-137.7624649207482
 31
0.0
  0
LINE
  5
17AC21874A3C03
330
17AC21874A3B4D
100
AcDbEntity
  8
COSTRUZIONE
100
AcDbLine
 10
-67.13512033644292
 20
-132.4946543960712
 30
0.0
 11
-66.95290214253645
 21
-132.2006315781417
 31
0.0
  0
LINE
  5
17AC21874A3C04
330
17AC21874A3B4D
100
AcDbEntity
  8
COSTRUZIONE
100
AcDbLine
 10
-69.453052985044
 20
-131.0581349320391
 30
0.0
 11
-67.13512033644292
 21
-132.4946543960712
 31
0.0
  0
ARC
  5
17AC21874A3C05
330
17AC21874A3B4D
100
AcDbEntity
  8
COSTRUZIONE
100
AcDbCircle
 10
-22.75960682671007
 20
-32.41997957358262
 30
0.0
 40
3.97942060725154
100
AcDbArc
 50
324.5619765594824
 51
149.4298783302872
  0
LINE
  5
17AC21874A3C06
330
17AC21874A3B4D
100
AcDbEntity
  8
COSTRUZIONE
100
AcDbLine
 10
-38.05540630626729
 20
-49.54096856232422
 30
0.0
 11
-26.10010697883604
 21
-30.25019017142972
 31
0.0
  0
LINE
  5
17AC21874A3C07
330
17AC21874A3B4D
100
AcDbEntity
  8
COSTRUZIONE
100
AcDbLine
 10
-19.33252629388334
 20
-34.44434196622433
 30
0.0
 11
-31.25539819916162
 21
-53.75521698206603
 31
0.0
  0
LINE
  5
17AC21874A3C08
330
17AC21874A3B4D
100
AcDbEntity
  8
COSTRUZIONE
100
AcDbLine
 10
-21.76043652982253
 20
-78.26239398357142
 30
0.0
 11
-30.2821109334634
 21
-72.98115720804935
 31
0.0
  0
LINE
  5
17AC21874A3C09
330
17AC21874A3B4D
100
AcDbEntity
  8
VITE
100
AcDbLine
 10
-26.87465894093725
 20
-87.97483629945395
 30
0.0
 11
-22.70965397533473
 21
-90.55606345654565
 31
0.0
  0
LINE
  5
17AC21874A3C0A
330
17AC21874A3B4D
100
AcDbEntity
  8
VITE
100
AcDbLine
 10
-28.55509049830926
 20
-90.68633953216249
 30
0.0
 11
-24.39008553270674
 21
-93.26756668925417
 31
0.0
  0
LINE
  5
17AC21874A3C0B
330
17AC21874A3B4D
100
AcDbEntity
  8
VITE
100
AcDbLine
 10
-28.39487553033382
 20
-88.90916307383418
 30
0.0
 11
-22.50019555322024
 21
-79.39765173401974
 31
0.0
  0
ARC
  5
17AC21874A3C0C
330
17AC21874A3B4D
100
AcDbEntity
  8
VITE
100
AcDbCircle
 10
-16.60752500255467
 20
-89.63193034958022
 30
0.0
 40
10.39999999998251
100
AcDbArc
 50
125.591914656718
 51
170.8316445528757
  0
LINE
  5
17AC21874A3C0D
330
17AC21874A3B4D
100
AcDbEntity
  8
ASSE
100
AcDbLine
 10
-34.73873143665992
 20
-78.39526608985966
 30
0.0
 11
-14.00631771847793
 21
-91.24400691091455
 31
0.0
  0
LINE
  5
17AC21874A3C0E
330
17AC21874A3B4D
100
AcDbEntity
  8
COSTRUZIONE
100
AcDbLine
 10
-24.85933400222439
 20
-21.02568971677261
 30
0.0
 11
-38.64078350250452
 21
-29.58930729199278
 31
0.0
  0
LINE
  5
17AC21874A3C0F
330
17AC21874A3B4D
100
AcDbEntity
  8
COSTRUZIONE
100
AcDbLine
 10
-77.96442037145744
 20
-93.01889136598765
 30
0.0
 11
-38.45328001571761
 21
-29.26468231617742
 31
0.0
  0
LINE
  5
17AC21874A3C10
330
17AC21874A3B4D
100
AcDbEntity
  8
COSTRUZIONE
100
AcDbLine
 10
-75.83941783798673
 20
-94.33584399715687
 30
0.0
 11
-77.96442037145744
 21
-93.01889136598765
 31
0.0
  0
LINE
  5
17AC21874A3C11
330
17AC21874A3B4D
100
AcDbEntity
  8
COSTRUZIONE
100
AcDbLine
 10
-51.12218836138436
 20
-70.62520827926801
 30
0.0
 11
-44.45242129171833
 21
-59.86303537703111
 31
0.0
  0
LWPOLYLINE
  5
17AC21874A3C12
330
17AC21874A3B4D
100
AcDbEntity
  8
VITE
100
AcDbPolyline
 90
        6
 70
     1
 43
0.0
 10
-38.08812254618738
 20
-64.31102445247233
 10
-31.47418166485477
 20
-60.76290955134914
 10
-31.23996886410737
 20
-53.26101127842526
 10
-37.61969694469235
 20
-49.30722790662457
 10
-44.23363782602495
 20
-52.85534280774777
 10
-44.46785062677236
 20
-60.35724108067165
  0
LINE
  5
17AC21874A3C13
330
17AC21874A3B4D
100
AcDbEntity
  8
ASSE
100
AcDbLine
 10
-42.33154869141526
 20
-64.03413479334858
 30
0.0
 11
-33.37627079946447
 21
-49.58411756574832
 31
0.0
  0
CIRCLE
  5
17AC21874A3C14
330
17AC21874A3B4D
100
AcDbEntity
  8
VITE
100
AcDbCircle
 10
-37.85390974543998
 20
-56.80912617954835
 30
0.0
 40
6.5
  0
LINE
  5
17AC21874A3C15
330
17AC21874A3B4D
100
AcDbEntity
  8
ASSE
100
AcDbLine
 10
-55.39833074653211
 20
-85.11837451029236
 30
0.0
 11
-46.44305285458131
 21
-70.66835728269211
 31
0.0
  0
LINE
  5
17AC21874A3C16
330
17AC21874A3B4D
100
AcDbEntity
  8
ASSE
100
AcDbLine
 10
-58.14570041435672
 20
-73.41572695051695
 30
0.0
 11
-43.69568318675669
 21
-82.37100484246752
 31
0.0
  0
LWPOLYLINE
  5
17AC21874A3C17
330
17AC21874A3B4D
100
AcDbEntity
  8
VITE
100
AcDbPolyline
 90
        6
 70
     1
 43
0.0
 10
-51.15490460130422
 20
-85.39526416941612
 10
-44.54096371997184
 20
-81.84714926829292
 10
-44.30675091922421
 20
-74.34525099536904
 10
-50.68647899980942
 20
-70.39146762356836
 10
-57.3004198811418
 20
-73.93958252469156
 10
-57.5346326818892
 20
-81.44148079761544
  0
CIRCLE
  5
17AC21874A3C18
330
17AC21874A3B4D
100
AcDbEntity
  8
VITE
100
AcDbCircle
 10
-50.92069180055682
 20
-77.89336589649213
 30
0.0
 40
6.5
  0
LINE
  5
17AC21874A3C19
330
17AC21874A3B4D
100
AcDbEntity
  8
COSTRUZIONE
100
AcDbLine
 10
-57.51920334683518
 20
-80.9472750939749
 30
0.0
 11
-64.38575484792341
 21
-92.02697453849031
 31
0.0
  0
ARC
  5
17AC21874A3C1A
330
17AC21874A3B4D
100
AcDbEntity
  8
VITE
100
AcDbCircle
 10
-26.70336023242135
 20
-89.95746559920361
 30
0.0
 40
1.990015625005356
100
AcDbArc
 50
94.93807888100265
 51
201.4854803285026
  0
LINE
  5
17AC21874A3C1B
330
17AC21874A3B4D
100
AcDbEntity
  8
COSTRUZIONE
100
AcDbLine
 10
-44.32218025427846
 20
-74.83945669900982
 30
0.0
 11
-37.65241318461221
 21
-64.07728379677246
 31
0.0
  0
LINE
  5
17AC21874A3C1C
330
17AC21874A3B4D
100
AcDbEntity
  8
COSTRUZIONE
100
AcDbLine
 10
-39.68224521778075
 20
-67.35257108571113
 30
0.0
 11
-43.10896423711073
 21
-65.22889049818104
 31
0.0
  0
LINE
  5
17AC21874A3C1D
330
17AC21874A3B4D
100
AcDbEntity
  8
ASSE
100
AcDbLine
 10
-45.07891835923987
 20
-52.33148723357317
 30
0.0
 11
-30.62890113163985
 21
-61.28676512552374
 31
0.0
  0
ARC
  5
17AC21874A3C1E
330
17AC21874A3B4D
100
AcDbEntity
  8
VITE
100
AcDbCircle
 10
-20.80868025530776
 20
-80.44595425938927
 30
0.0
 40
1.990015625005242
100
AcDbArc
 50
94.93807888101562
 51
201.4854803285026
  0
LINE
  5
17AC21874A3C1F
330
17AC21874A3B4D
100
AcDbEntity
  8
FILETTO
100
AcDbLine
 10
-18.66960246805138
 20
-93.0442856121906
 30
0.0
 11
-14.45535404831025
 21
-86.24427750508472
 31
0.0
  0
LINE
  5
17AC21874A3C20
330
17AC21874A3B4D
100
AcDbEntity
  8
VITE
100
AcDbLine
 10
-14.10545631986497
 20
-87.73469572070121
 30
0.0
 11
-17.17918425243533
 21
-92.69438788374555
 31
0.0
  0
LINE
  5
17AC21874A3C21
330
17AC21874A3B4D
100
AcDbEntity
  8
VITE
100
AcDbLine
 10
-17.8084347829872
 20
-84.16623363148801
 30
0.0
 11
-14.45535404831025
 21
-86.24427750508472
 31
0.0
  0
LINE
  5
17AC21874A3C22
330
17AC21874A3B4D
100
AcDbEntity
  8
VITE
100
AcDbLine
 10
-20.97997896382367
 20
-78.46332495963952
 30
0.0
 11
-16.81497399822137
 21
-81.04455211673121
 31
0.0
  0
LINE
  5
17AC21874A3C23
330
17AC21874A3B4D
100
AcDbEntity
  8
VITE
100
AcDbLine
 10
-22.66041052119567
 20
-81.17482819234806
 30
0.0
 11
-18.49540555559315
 21
-83.75605534943975
 31
0.0
  0
ARC
  5
17AC21874A3C24
330
17AC21874A3B4D
100
AcDbEntity
  8
VITE
100
AcDbCircle
 10
-18.66670426411474
 20
-81.77342604969158
 30
0.0
 40
1.990015625004127
100
AcDbArc
 50
274.9380788811595
 51
21.48548032849109
  0
LINE
  5
17AC21874A3C25
330
17AC21874A3B4D
100
AcDbEntity
  8
FILETTO
100
AcDbLine
 10
-18.099342224466
 20
-92.12412764015994
 30
0.0
 11
-21.45242295914295
 21
-90.04608376656324
 31
0.0
  0
LINE
  5
17AC21874A3C26
330
17AC21874A3B4D
100
AcDbEntity
  8
VITE
100
AcDbLine
 10
-18.66960246805138
 20
-93.0442856121906
 30
0.0
 11
-22.02268320272878
 21
-90.96624173859391
 31
0.0
  0
LINE
  5
17AC21874A3C27
330
17AC21874A3B4D
100
AcDbEntity
  8
VITE
100
AcDbLine
 10
-17.17918425243533
 20
-92.69438788374555
 30
0.0
 11
-18.66960246805138
 21
-93.0442856121906
 31
0.0
  0
ARC
  5
17AC21874A3C28
330
17AC21874A3B4D
100
AcDbEntity
  8
VITE
100
AcDbCircle
 10
-24.56138424124333
 20
-91.28493738949646
 30
0.0
 40
1.990015625014936
100
AcDbArc
 50
274.938078881578
 51
21.48548032807558
  0
ARC
  5
17AC21874A3C29
330
17AC21874A3B4D
100
AcDbEntity
  8
VITE
100
AcDbCircle
 10
-28.76253949398643
 20
-82.09896129930678
 30
0.0
 40
10.39999999999405
100
AcDbArc
 50
305.5919146567506
 51
350.8316445528489
  0
LINE
  5
17AC21874A3C2A
330
17AC21874A3B4D
100
AcDbEntity
  8
VITE
100
AcDbLine
 10
-22.86986894331016
 20
-92.33323991487418
 30
0.0
 11
-16.97518896619658
 21
-82.82172857505974
 31
0.0
  0
LINE
  5
17AC21874A3C2B
330
17AC21874A3B4D
100
AcDbEntity
  8
FILETTO
100
AcDbLine
 10
-18.37869502657304
 20
-85.08639160351867
 30
0.0
 11
-15.02561429189609
 21
-87.16443547711538
 31
0.0
  0
LINE
  5
17AC21874A3C2C
330
17AC21874A3B4D
100
AcDbEntity
  8
VITE
100
AcDbLine
 10
-14.45535404831025
 20
-86.24427750508472
 30
0.0
 11
-14.10545631986497
 21
-87.73469572070121
 31
0.0
  0
LINE
  5
17AC21874A3C2D
330
17AC21874A3B4D
100
AcDbEntity
  8
ASSE
100
AcDbLine
 10
5.0436581572676
 20
8.087697725394946
 30
0.0
 11
-4.905753325213026
 21
-8.099000861787317
 31
0.0
  0
CIRCLE
  5
17AC21874A3C2E
330
17AC21874A3B4D
100
AcDbEntity
  8
VITE
100
AcDbCircle
 10
0.0164744716630594
 20
0.0268712009869887
 30
0.0
 40
6.5
  0
LINE
  5
17AC21874A3C2F
330
17AC21874A3B4D
100
AcDbEntity
  8
ASSE
100
AcDbLine
 10
8.109823765254077
 20
-4.947834540253552
 30
0.0
 11
-8.076874821927958
 21
5.001576942227075
 31
0.0
  0
ARC
  5
17AC21874A3C30
330
17AC21874A3B4D
100
AcDbEntity
  8
COSTRUZIONE
100
AcDbCircle
 10
-0.0233476038647496
 20
0.0099625839775399
 30
0.0
 40
10.03538752971838
100
AcDbArc
 50
328.225895213386
 51
148.239699427273
  0
LINE
  5
17AC21874A3C31
330
17AC21874A3B4D
100
AcDbEntity
  8
COSTRUZIONE
100
AcDbLine
 10
-8.364350121411007
 20
5.590212561477983
 30
0.0
 11
-24.85933400222439
 21
-21.02568971677261
 31
0.0
  0
INSERT
  5
17AC21874A3C32
330
17AC21874A3B4D
100
AcDbEntity
  8
SEZIONE
100
AcDbBlockReference
  2
*X6
 10
-159.7078845012865
 20
229.7626493853142
 30
0.0
 50
238.2117796047964
1001
ACAD
1000
HATCH
1002
{
1070
    19
1000
AR-SAND
1040
3.0
1040
0.0
1002
}
  0
ARC
  5
17AC21874A3C33
330
17AC21874A3B4D
100
AcDbEntity
  8
COSTRUZIONE
100
AcDbCircle
 10
0.0
 20
0.0
 30
0.0
 40
20.00029388615192
100
AcDbArc
 50
268.2514904710282
 51
208.0303609500807
  0
LINE
  5
17AC21874A3C34
330
17AC21874A3B4D
100
AcDbEntity
  8
COSTRUZIONE
100
AcDbLine
 10
8.525350730948048
 20
-5.246434012579811
 30
0.0
 11
-0.9552792803233387
 21
-20.54414656201425
 31
0.0
  0
LINE
  5
17AC21874A3C35
330
17AC21874A3B4D
100
AcDbEntity
  8
COSTRUZIONE
100
AcDbLine
 10
1.346416484356268
 20
-21.99452265559989
 30
0.0
 11
-0.9649828820224684
 21
-20.56205213884073
 31
0.0
  0
LWPOLYLINE
  5
17AC21874A3C36
330
17AC21874A3B4D
100
AcDbEntity
  8
VITE
100
AcDbPolyline
 90
        6
 70
     1
 43
0.0
 10
0.0990682300221124
 20
3.025734030640705
 10
-2.539320042103099
 20
1.597830908747027
 10
-2.621913800461697
 20
-1.401031920906916
 10
-0.0661192866964484
 20
-2.971991628666955
 10
2.572268985428308
 20
-1.544088506773277
 10
2.654862743787816
 20
1.454774322880439
  0
LINE
  5
17AC21874A3C37
330
17AC21874A3B4D
100
AcDbEntity
  8
0
100
AcDbLine
 10
-305.9077237897256
 20
167.8418332959374
 30
0.0
 11
-305.9721295169181
 21
179.9174292112036
 31
0.0
  0
LINE
  5
17AC21874A3C38
330
17AC21874A3B4D
100
AcDbEntity
  8
0
100
AcDbLine
 10
-293.3282427779666
 20
59.22544476455346
 30
0.0
 11
-305.3280721014314
 21
59.16144314184362
 31
0.0
  0
LINE
  5
17AC21874A3C39
330
17AC21874A3B4D
100
AcDbEntity
  8
0
100
AcDbLine
 10
-284.7157983946854
 20
234.7347061443131
 30
0.0
 11
-129.3723515929198
 21
235.5632373179358
 31
0.0
  0
LINE
  5
17AC21874A3C3A
330
17AC21874A3B4D
100
AcDbEntity
  8
0
100
AcDbLine
 10
-281.1119188730597
 20
234.9368006938146
 30
0.0
 11
-280.9519148162856
 21
204.937227385152
 31
0.0
  0
LINE
  5
17AC21874A3C3B
330
17AC21874A3B4D
100
AcDbEntity
  8
0
100
AcDbLine
 10
-280.9519148162856
 20
204.937227385152
 30
0.0
 11
-284.5567696719568
 21
204.9180007316579
 31
0.0
  0
LINE
  5
17AC21874A3C3C
330
17AC21874A3B4D
100
AcDbEntity
  8
0
100
AcDbLine
 10
-129.5701681213338
 20
235.2628459773844
 30
0.0
 11
-129.730172178108
 21
265.2624192860474
 31
0.0
  0
ENDBLK
  5
17AC21874A3C3E
330
17AC21874A3B4D
100
AcDbEntity
  8
0
100
AcDbBlockEnd
  0
BLOCK
  5
17AC21874A3C87
330
17AC21874A3C7D
100
AcDbEntity
  8
0
100
AcDbBlockBegin
  2
*D8
 70
     1
 10
0.0
 20
0.0
 30
0.0
  3
*D8
  1

  0
LINE
  5
17AC21874A4183
330
17AC21874A3C7D
100
AcDbEntity
  8
QUOTA
370
    -2
100
AcDbLine
 10
10986.27035977068
 20
4303.907648845775
 30
0.0
 11
10986.27035977068
 21
4148.24314440358
 31
0.0
  0
LINE
  5
17AC21874A4184
330
17AC21874A3C7D
100
AcDbEntity
  8
QUOTA
370
    -2
100
AcDbLine
 10
13256.45062542905
 20
4303.907648845775
 30
0.0
 11
13256.45062542905
 21
4148.24314440358
 31
0.0
  0
LINE
  5
17AC21874A4185
330
17AC21874A3C7D
100
AcDbEntity
  8
QUOTA
370
    -2
100
AcDbLine
 10
11016.27035977068
 20
4168.24314440358
 30
0.0
 11
13226.45062542906
 21
4168.24314440358
 31
0.0
  0
SOLID
  5
17AC21874A4186
330
17AC21874A3C7D
100
AcDbEntity
  8
QUOTA
100
AcDbTrace
 10
11016.27035977068
 20
4173.24314440358
 30
0.0
 11
11016.27035977068
 21
4163.24314440358
 31
0.0
 12
10986.27035977068
 22
4168.24314440358
 32
0.0
 13
10986.27035977068
 23
4168.24314440358
 33
0.0
  0
SOLID
  5
17AC21874A4187
330
17AC21874A3C7D
100
AcDbEntity
  8
QUOTA
100
AcDbTrace
 10
13226.45062542906
 20
4173.24314440358
 30
0.0
 11
13226.45062542906
 21
4163.24314440358
 31
0.0
 12
13256.45062542905
 22
4168.24314440358
 32
0.0
 13
13256.45062542905
 23
4168.24314440358
 33
0.0
  0
MTEXT
  5
17AC21874A4188
330
17AC21874A3C7D
100
AcDbEntity
  8
QUOTA
 62
   254
100
AcDbMText
 10
12121.36049259987
 20
4193.24314440358
 30
0.0
 40
30.0
 41
0.0
 71
     5
 72
     1
  1
\A1;2300 mm
  7
ROMANS
 73
     1
 44
1.0
1001
ACAD
1000
MTEXTBEGIN
1070
    73
1070
     1
1070
    44
1040
1.0
1070
    74
1070
     0
1000
MTEXTEND
  0
POINT
  5
17AC21874A4189
330
17AC21874A3C7D
100
AcDbEntity
  8
DEFPOINTS
 62
     0
100
AcDbPoint
 10
10986.27035977068
 20
4323.907648845774
 30
0.0
  0
POINT
  5
17AC21874A418A
330
17AC21874A3C7D
100
AcDbEntity
  8
DEFPOINTS
 62
     0
100
AcDbPoint
 10
13256.45062542905
 20
4323.907648845774
 30
0.0
  0
POINT
  5
17AC21874A418B
330
17AC21874A3C7D
100
AcDbEntity
  8
DEFPOINTS
 62
     0
100
AcDbPoint
 10
13256.45062542905
 20
4168.24314440358
 30
0.0
  0
ENDBLK
  5
17AC21874A3C88
330
17AC21874A3C7D
100
AcDbEntity
  8
0
100
AcDbBlockEnd
  0
BLOCK
  5
17AC21874A3C9D
330
17AC21874A3C93
100
AcDbEntity
  8
0
100
AcDbBlockBegin
  2
*D9
 70
     1
 10
0.0
 20
0.0
 30
0.0
  3
*D9
  1

  0
LINE
  5
17AC21874A419E
330
17AC21874A3C93
100
AcDbEntity
  8
QUOTA
370
    -2
100
AcDbLine
 10
13276.45062542905
 20
4323.907648845774
 30
0.0
 11
13712.82907429663
 21
4323.907648845774
 31
0.0
  0
LINE
  5
17AC21874A419F
330
17AC21874A3C93
100
AcDbEntity
  8
QUOTA
370
    -2
100
AcDbLine
 10
13276.54522641575
 20
6406.812278914914
 30
0.0
 11
13712.82907429663
 21
6406.812278914914
 31
0.0
  0
LINE
  5
17AC21874A41A0
330
17AC21874A3C93
100
AcDbEntity
  8
QUOTA
370
    -2
100
AcDbLine
 10
13692.82907429663
 20
4353.907648845775
 30
0.0
 11
13692.82907429663
 21
6376.812278914914
 31
0.0
  0
SOLID
  5
17AC21874A41A1
330
17AC21874A3C93
100
AcDbEntity
  8
QUOTA
100
AcDbTrace
 10
13687.82907429663
 20
4353.907648845775
 30
0.0
 11
13697.82907429663
 21
4353.907648845775
 31
0.0
 12
13692.82907429663
 22
4323.907648845774
 32
0.0
 13
13692.82907429663
 23
4323.907648845774
 33
0.0
  0
SOLID
  5
17AC21874A41A2
330
17AC21874A3C93
100
AcDbEntity
  8
QUOTA
100
AcDbTrace
 10
13687.82907429663
 20
6376.812278914914
 30
0.0
 11
13697.82907429663
 21
6376.812278914914
 31
0.0
 12
13692.82907429663
 22
6406.812278914914
 32
0.0
 13
13692.82907429663
 23
6406.812278914914
 33
0.0
  0
MTEXT
  5
17AC21874A41A3
330
17AC21874A3C93
100
AcDbEntity
  8
QUOTA
 62
   254
100
AcDbMText
 10
13667.82907429663
 20
5365.359963880346
 30
0.0
 40
30.0
 41
0.0
 71
     5
 72
     1
  1
\A1;2100 mm
  7
ROMANS
 11
0.0000000000000001
 21
1.0
 31
0.0
 73
     1
 44
1.0
1001
ACAD
1000
MTEXTBEGIN
1070
    73
1070
     1
1070
    44
1040
1.0
1070
    74
1070
     0
1000
MTEXTEND
  0
POINT
  5
17AC21874A41A4
330
17AC21874A3C93
100
AcDbEntity
  8
DEFPOINTS
 62
     0
100
AcDbPoint
 10
13256.45062542905
 20
4323.907648845774
 30
0.0
  0
POINT
  5
17AC21874A41A5
330
17AC21874A3C93
100
AcDbEntity
  8
DEFPOINTS
 62
     0
100
AcDbPoint
 10
13256.54522641575
 20
6406.812278914914
 30
0.0
  0
POINT
  5
17AC21874A41A6
330
17AC21874A3C93
100
AcDbEntity
  8
DEFPOINTS
 62
     0
100
AcDbPoint
 10
13692.82907429663
 20
6406.812278914914
 30
0.0
  0
ENDBLK
  5
17AC21874A3C9E
330
17AC21874A3C93
100
AcDbEntity
  8
0
100
AcDbBlockEnd
  0
BLOCK
  5
17AC21874A3CBC
330
17AC21874A3CB2
100
AcDbEntity
  8
0
100
AcDbBlockBegin
  2
*D10
 70
     1
 10
0.0
 20
0.0
 30
0.0
  3
*D10
  1

  0
LINE
  5
17AC21874A41B0
330
17AC21874A3CB2
100
AcDbEntity
  8
QUOTA
370
    -2
100
AcDbLine
 10
10966.27035977068
 20
4323.907648845774
 30
0.0
 11
10465.28475723414
 21
4323.907648845774
 31
0.0
  0
LINE
  5
17AC21874A41B1
330
17AC21874A3CB2
100
AcDbEntity
  8
QUOTA
370
    -2
100
AcDbLine
 10
10559.32515527851
 20
4671.00116592316
 30
0.0
 11
10465.28475723414
 21
4671.00116592316
 31
0.0
  0
LINE
  5
17AC21874A41B2
330
17AC21874A3CB2
100
AcDbEntity
  8
QUOTA
370
    -2
100
AcDbLine
 10
10485.28475723414
 20
4353.907648845775
 30
0.0
 11
10485.28475723414
 21
4641.00116592316
 31
0.0
  0
SOLID
  5
17AC21874A41B3
330
17AC21874A3CB2
100
AcDbEntity
  8
QUOTA
100
AcDbTrace
 10
10480.28475723414
 20
4353.907648845775
 30
0.0
 11
10490.28475723414
 21
4353.907648845775
 31
0.0
 12
10485.28475723414
 22
4323.907648845774
 32
0.0
 13
10485.28475723414
 23
4323.907648845774
 33
0.0
  0
SOLID
  5
17AC21874A41B4
330
17AC21874A3CB2
100
AcDbEntity
  8
QUOTA
100
AcDbTrace
 10
10480.28475723414
 20
4641.00116592316
 30
0.0
 11
10490.28475723414
 21
4641.00116592316
 31
0.0
 12
10485.28475723414
 22
4671.00116592316
 32
0.0
 13
10485.28475723414
 23
4671.00116592316
 33
0.0
  0
MTEXT
  5
17AC21874A41B5
330
17AC21874A3CB2
100
AcDbEntity
  8
QUOTA
 62
   254
100
AcDbMText
 10
10460.28475723414
 20
4497.454407384469
 30
0.0
 40
30.0
 41
0.0
 71
     5
 72
     1
  1
\A1;350 mm
  7
ROMANS
 11
0.0000000000000001
 21
1.0
 31
0.0
 73
     1
 44
1.0
1001
ACAD
1000
MTEXTBEGIN
1070
    73
1070
     1
1070
    44
1040
1.0
1070
    74
1070
     0
1000
MTEXTEND
  0
POINT
  5
17AC21874A41B6
330
17AC21874A3CB2
100
AcDbEntity
  8
DEFPOINTS
 62
     0
100
AcDbPoint
 10
10986.27035977068
 20
4323.907648845774
 30
0.0
  0
POINT
  5
17AC21874A41B7
330
17AC21874A3CB2
100
AcDbEntity
  8
DEFPOINTS
 62
     0
100
AcDbPoint
 10
10579.32515527851
 20
4671.00116592316
 30
0.0
  0
POINT
  5
17AC21874A41B8
330
17AC21874A3CB2
100
AcDbEntity
  8
DEFPOINTS
 62
     0
100
AcDbPoint
 10
10485.28475723414
 20
4671.00116592316
 30
0.0
  0
ENDBLK
  5
17AC21874A3CBD
330
17AC21874A3CB2
100
AcDbEntity
  8
0
100
AcDbBlockEnd
  0
BLOCK
  5
17AC21874A3CD2
330
17AC21874A3CC8
100
AcDbEntity
  8
0
100
AcDbBlockBegin
  2
*D11
 70
     1
 10
0.0
 20
0.0
 30
0.0
  3
*D11
  1

  0
LINE
  5
17AC21874A41A7
330
17AC21874A3CC8
100
AcDbEntity
  8
QUOTA
370
    -2
100
AcDbLine
 10
10559.32515527851
 20
4671.00116592316
 30
0.0
 11
10465.28475723414
 21
4671.00116592316
 31
0.0
  0
LINE
  5
17AC21874A41A8
330
17AC21874A3CC8
100
AcDbEntity
  8
QUOTA
370
    -2
100
AcDbLine
 10
10966.27035977068
 20
6407.106498150143
 30
0.0
 11
10465.28475723414
 21
6407.106498150143
 31
0.0
  0
LINE
  5
17AC21874A41A9
330
17AC21874A3CC8
100
AcDbEntity
  8
QUOTA
370
    -2
100
AcDbLine
 10
10485.28475723414
 20
4701.001165923161
 30
0.0
 11
10485.28475723414
 21
6377.106498150144
 31
0.0
  0
SOLID
  5
17AC21874A41AA
330
17AC21874A3CC8
100
AcDbEntity
  8
QUOTA
100
AcDbTrace
 10
10480.28475723414
 20
4701.001165923161
 30
0.0
 11
10490.28475723414
 21
4701.001165923161
 31
0.0
 12
10485.28475723414
 22
4671.00116592316
 32
0.0
 13
10485.28475723414
 23
4671.00116592316
 33
0.0
  0
SOLID
  5
17AC21874A41AB
330
17AC21874A3CC8
100
AcDbEntity
  8
QUOTA
100
AcDbTrace
 10
10480.28475723414
 20
6377.106498150144
 30
0.0
 11
10490.28475723414
 21
6377.106498150144
 31
0.0
 12
10485.28475723414
 22
6407.106498150143
 32
0.0
 13
10485.28475723414
 23
6407.106498150143
 33
0.0
  0
MTEXT
  5
17AC21874A41AC
330
17AC21874A3CC8
100
AcDbEntity
  8
QUOTA
 62
   254
100
AcDbMText
 10
10460.28475723414
 20
5539.053832036654
 30
0.0
 40
30.0
 41
0.0
 71
     5
 72
     1
  1
\A1;1750 mm
  7
ROMANS
 11
0.0000000000000001
 21
1.0
 31
0.0
 73
     1
 44
1.0
1001
ACAD
1000
MTEXTBEGIN
1070
    73
1070
     1
1070
    44
1040
1.0
1070
    74
1070
     0
1000
MTEXTEND
  0
POINT
  5
17AC21874A41AD
330
17AC21874A3CC8
100
AcDbEntity
  8
DEFPOINTS
 62
     0
100
AcDbPoint
 10
10579.32515527851
 20
4671.00116592316
 30
0.0
  0
POINT
  5
17AC21874A41AE
330
17AC21874A3CC8
100
AcDbEntity
  8
DEFPOINTS
 62
     0
100
AcDbPoint
 10
10986.27035977068
 20
6407.106498150143
 30
0.0
  0
POINT
  5
17AC21874A41AF
330
17AC21874A3CC8
100
AcDbEntity
  8
DEFPOINTS
 62
     0
100
AcDbPoint
 10
10485.28475723414
 20
6407.106498150143
 30
0.0
  0
ENDBLK
  5
17AC21874A3CD3
330
17AC21874A3CC8
100
AcDbEntity
  8
0
100
AcDbBlockEnd
  0
BLOCK
  5
17AC21874A3D6D
330
17AC21874A3D69
100
AcDbEntity
  8
0
100
AcDbBlockBegin
  2
A$C6
 70
     0
 10
0.0
 20
0.0
 30
0.0
  3
A$C6
  1

  0
LINE
  5
17AC21874A3D6A
330
17AC21874A3D69
100
AcDbEntity
  8
0
100
AcDbLine
 10
1.900637218473519
 20
0.8165157741112096
 30
0.0
 11
1700.64860396784
 21
0.8165157741112096
 31
0.0
  0
LINE
  5
17AC21874A3D6B
330
17AC21874A3D69
100
AcDbEntity
  8
0
100
AcDbLine
 10
1.900637218473519
 20
14.30680798376833
 30
0.0
 11
1700.64860396784
 21
14.30680798376833
 31
0.0
  0
TEXT
  5
17AC21874A3D6C
330
17AC21874A3D69
100
AcDbEntity
  8
TESTO
100
AcDbText
 10
8.733529025279011
 20
25.88597534847286
 30
0.0
 40
25.0
  1
DATI NON INPEGNATIVI con la possibilità di modifica da parte del costruttore
  7
ROMANC
100
AcDbText
  0
ENDBLK
  5
17AC21874A3D6E
330
17AC21874A3D69
100
AcDbEntity
  8
0
100
AcDbBlockEnd
  0
BLOCK
  5
17AC21874A3DC7
330
17AC21874A3D6F
100
AcDbEntity
  8
0
100
AcDbBlockBegin
  2
*X13
 70
     1
 10
0.0
 20
0.0
 30
0.0
  3
*X13
  1

  0
LINE
  5
17AC21874A3D70
330
17AC21874A3D6F
100
AcDbEntity
  8
0
 62
     0
100
AcDbLine
 10
2712.260624128367
 20
1999.496988692327
 30
0.0
 11
2712.461612631596
 21
1999.697977195557
 31
0.0
  0
LINE
  5
17AC21874A3D71
330
17AC21874A3D6F
100
AcDbEntity
  8
0
 62
     0
100
AcDbLine
 10
2715.290039756343
 20
2002.526404320303
 30
0.0
 11
2723.775321130581
 21
2011.011685694542
 31
0.0
  0
LINE
  5
17AC21874A3D72
330
17AC21874A3D6F
100
AcDbEntity
  8
0
 62
     0
100
AcDbLine
 10
2726.603748255328
 20
2013.840112819288
 30
0.0
 11
2731.635890503999
 21
2018.872255067959
 31
0.0
  0
LINE
  5
17AC21874A3D73
330
17AC21874A3D6F
100
AcDbEntity
  8
0
 62
     0
100
AcDbLine
 10
2731.635890504
 20
2018.87225506796
 30
0.0
 11
2735.089029629566
 21
2022.325394193526
 31
0.0
  0
LINE
  5
17AC21874A3D74
330
17AC21874A3D6F
100
AcDbEntity
  8
0
 62
     0
100
AcDbLine
 10
2706.603769878874
 20
1999.496988692327
 30
0.0
 11
2712.461612631596
 21
2005.354831445049
 31
0.0
  0
LINE
  5
17AC21874A3D75
330
17AC21874A3D6F
100
AcDbEntity
  8
0
 62
     0
100
AcDbLine
 10
2715.290039756343
 20
2008.183258569796
 30
0.0
 11
2723.775321130581
 21
2016.668539944034
 31
0.0
  0
LINE
  5
17AC21874A3D76
330
17AC21874A3D6F
100
AcDbEntity
  8
0
 62
     0
100
AcDbLine
 10
2726.603748255328
 20
2019.49696706878
 30
0.0
 11
2729.795766271061
 21
2022.688985084514
 31
0.0
  0
LINE
  5
17AC21874A3D77
330
17AC21874A3D6F
100
AcDbEntity
  8
0
 62
     0
100
AcDbLine
 10
2700.946915629382
 20
1999.496988692327
 30
0.0
 11
2701.147904132612
 21
1999.697977195556
 31
0.0
  0
LINE
  5
17AC21874A3D78
330
17AC21874A3D6F
100
AcDbEntity
  8
0
 62
     0
100
AcDbLine
 10
2703.976331257358
 20
2002.526404320303
 30
0.0
 11
2712.461612631597
 21
2011.011685694541
 31
0.0
  0
LINE
  5
17AC21874A3D79
330
17AC21874A3D6F
100
AcDbEntity
  8
0
 62
     0
100
AcDbLine
 10
2715.290039756343
 20
2013.840112819288
 30
0.0
 11
2723.775321130582
 21
2022.325394193527
 31
0.0
  0
LINE
  5
17AC21874A3D7A
330
17AC21874A3D6F
100
AcDbEntity
  8
0
 62
     0
100
AcDbLine
 10
2695.29006137989
 20
1999.496988692327
 30
0.0
 11
2701.147904132612
 21
2005.354831445049
 31
0.0
  0
LINE
  5
17AC21874A3D7B
330
17AC21874A3D6F
100
AcDbEntity
  8
0
 62
     0
100
AcDbLine
 10
2703.976331257358
 20
2008.183258569795
 30
0.0
 11
2712.461612631596
 21
2016.668539944034
 31
0.0
  0
LINE
  5
17AC21874A3D7C
330
17AC21874A3D6F
100
AcDbEntity
  8
0
 62
     0
100
AcDbLine
 10
2715.290039756343
 20
2019.49696706878
 30
0.0
 11
2718.482057772076
 21
2022.688985084514
 31
0.0
  0
LINE
  5
17AC21874A3D7D
330
17AC21874A3D6F
100
AcDbEntity
  8
0
 62
     0
100
AcDbLine
 10
2692.662622758373
 20
2002.526404320303
 30
0.0
 11
2701.147904132612
 21
2011.011685694541
 31
0.0
  0
LINE
  5
17AC21874A3D7E
330
17AC21874A3D6F
100
AcDbEntity
  8
0
 62
     0
100
AcDbLine
 10
2703.976331257358
 20
2013.840112819288
 30
0.0
 11
2712.461612631596
 21
2022.325394193526
 31
0.0
  0
LINE
  5
17AC21874A3D7F
330
17AC21874A3D6F
100
AcDbEntity
  8
0
 62
     0
100
AcDbLine
 10
2687.122353954997
 20
2002.642989766419
 30
0.0
 11
2689.834195633627
 21
2005.354831445049
 31
0.0
  0
LINE
  5
17AC21874A3D80
330
17AC21874A3D6F
100
AcDbEntity
  8
0
 62
     0
100
AcDbLine
 10
2692.662622758374
 20
2008.183258569795
 30
0.0
 11
2701.147904132612
 21
2016.668539944034
 31
0.0
  0
LINE
  5
17AC21874A3D81
330
17AC21874A3D6F
100
AcDbEntity
  8
0
 62
     0
100
AcDbLine
 10
2703.976331257358
 20
2019.49696706878
 30
0.0
 11
2707.168349273092
 21
2022.688985084514
 31
0.0
  0
LINE
  5
17AC21874A3D82
330
17AC21874A3D6F
100
AcDbEntity
  8
0
 62
     0
100
AcDbLine
 10
2686.765918101505
 20
2007.943408162419
 30
0.0
 11
2689.834195633627
 21
2011.011685694541
 31
0.0
  0
LINE
  5
17AC21874A3D83
330
17AC21874A3D6F
100
AcDbEntity
  8
0
 62
     0
100
AcDbLine
 10
2692.662622758374
 20
2013.840112819288
 30
0.0
 11
2701.147904132612
 21
2022.325394193526
 31
0.0
  0
LINE
  5
17AC21874A3D84
330
17AC21874A3D6F
100
AcDbEntity
  8
0
 62
     0
100
AcDbLine
 10
2686.765918101505
 20
2013.600262411912
 30
0.0
 11
2689.834195633627
 21
2016.668539944034
 31
0.0
  0
LINE
  5
17AC21874A3D85
330
17AC21874A3D6F
100
AcDbEntity
  8
0
 62
     0
100
AcDbLine
 10
2692.662622758374
 20
2019.49696706878
 30
0.0
 11
2695.854640774107
 21
2022.688985084514
 31
0.0
  0
LINE
  5
17AC21874A3D86
330
17AC21874A3D6F
100
AcDbEntity
  8
0
 62
     0
100
AcDbLine
 10
2686.765918101505
 20
2019.257116661404
 30
0.0
 11
2689.834195633627
 21
2022.325394193526
 31
0.0
  0
LINE
  5
17AC21874A3D87
330
17AC21874A3D6F
100
AcDbEntity
  8
0
 62
     0
100
AcDbLine
 10
2717.917478377859
 20
1999.496988692327
 30
0.0
 11
2723.775321130581
 21
2005.354831445049
 31
0.0
  0
LINE
  5
17AC21874A3D88
330
17AC21874A3D6F
100
AcDbEntity
  8
0
 62
     0
100
AcDbLine
 10
2726.603748255328
 20
2008.183258569796
 30
0.0
 11
2731.635890503999
 21
2013.215400818467
 31
0.0
  0
LINE
  5
17AC21874A3D89
330
17AC21874A3D6F
100
AcDbEntity
  8
0
 62
     0
100
AcDbLine
 10
2731.635890504
 20
2013.215400818467
 30
0.0
 11
2735.089029629566
 21
2016.668539944033
 31
0.0
  0
LINE
  5
17AC21874A3D8A
330
17AC21874A3D6F
100
AcDbEntity
  8
0
 62
     0
100
AcDbLine
 10
2737.917456754312
 20
2019.496967068779
 30
0.0
 11
2741.109474770046
 21
2022.688985084513
 31
0.0
  0
LINE
  5
17AC21874A3D8B
330
17AC21874A3D6F
100
AcDbEntity
  8
0
 62
     0
100
AcDbLine
 10
2723.574332627352
 20
1999.496988692327
 30
0.0
 11
2723.775321130581
 21
1999.697977195557
 31
0.0
  0
LINE
  5
17AC21874A3D8C
330
17AC21874A3D6F
100
AcDbEntity
  8
0
 62
     0
100
AcDbLine
 10
2726.603748255328
 20
2002.526404320303
 30
0.0
 11
2731.635890503999
 21
2007.558546568975
 31
0.0
  0
LINE
  5
17AC21874A3D8D
330
17AC21874A3D6F
100
AcDbEntity
  8
0
 62
     0
100
AcDbLine
 10
2731.635890504
 20
2007.558546568975
 30
0.0
 11
2735.089029629566
 21
2011.011685694541
 31
0.0
  0
LINE
  5
17AC21874A3D8E
330
17AC21874A3D6F
100
AcDbEntity
  8
0
 62
     0
100
AcDbLine
 10
2737.917456754312
 20
2013.840112819288
 30
0.0
 11
2746.402738128551
 21
2022.325394193526
 31
0.0
  0
LINE
  5
17AC21874A3D8F
330
17AC21874A3D6F
100
AcDbEntity
  8
0
 62
     0
100
AcDbLine
 10
2729.231186876844
 20
1999.496988692327
 30
0.0
 11
2731.635890504
 21
2001.901692319482
 31
0.0
  0
LINE
  5
17AC21874A3D90
330
17AC21874A3D6F
100
AcDbEntity
  8
0
 62
     0
100
AcDbLine
 10
2731.635890504
 20
2001.901692319483
 30
0.0
 11
2735.089029629566
 21
2005.354831445049
 31
0.0
  0
LINE
  5
17AC21874A3D91
330
17AC21874A3D6F
100
AcDbEntity
  8
0
 62
     0
100
AcDbLine
 10
2737.917456754312
 20
2008.183258569795
 30
0.0
 11
2746.402738128551
 21
2016.668539944034
 31
0.0
  0
LINE
  5
17AC21874A3D92
330
17AC21874A3D6F
100
AcDbEntity
  8
0
 62
     0
100
AcDbLine
 10
2749.231165253297
 20
2019.49696706878
 30
0.0
 11
2752.423183269031
 21
2022.688985084514
 31
0.0
  0
LINE
  5
17AC21874A3D93
330
17AC21874A3D6F
100
AcDbEntity
  8
0
 62
     0
100
AcDbLine
 10
2734.888041126337
 20
1999.496988692327
 30
0.0
 11
2735.089029629566
 21
1999.697977195557
 31
0.0
  0
LINE
  5
17AC21874A3D94
330
17AC21874A3D6F
100
AcDbEntity
  8
0
 62
     0
100
AcDbLine
 10
2737.917456754312
 20
2002.526404320303
 30
0.0
 11
2746.402738128551
 21
2011.011685694542
 31
0.0
  0
LINE
  5
17AC21874A3D95
330
17AC21874A3D6F
100
AcDbEntity
  8
0
 62
     0
100
AcDbLine
 10
2749.231165253297
 20
2013.840112819288
 30
0.0
 11
2757.716446627536
 21
2022.325394193527
 31
0.0
  0
LINE
  5
17AC21874A3D96
330
17AC21874A3D6F
100
AcDbEntity
  8
0
 62
     0
100
AcDbLine
 10
2740.544895375829
 20
1999.496988692327
 30
0.0
 11
2746.402738128551
 21
2005.354831445049
 31
0.0
  0
LINE
  5
17AC21874A3D97
330
17AC21874A3D6F
100
AcDbEntity
  8
0
 62
     0
100
AcDbLine
 10
2749.231165253297
 20
2008.183258569796
 30
0.0
 11
2757.716446627536
 21
2016.668539944034
 31
0.0
  0
LINE
  5
17AC21874A3D98
330
17AC21874A3D6F
100
AcDbEntity
  8
0
 62
     0
100
AcDbLine
 10
2760.544873752282
 20
2019.49696706878
 30
0.0
 11
2763.736891768016
 21
2022.688985084514
 31
0.0
  0
LINE
  5
17AC21874A3D99
330
17AC21874A3D6F
100
AcDbEntity
  8
0
 62
     0
100
AcDbLine
 10
2746.201749625322
 20
1999.496988692327
 30
0.0
 11
2746.402738128551
 21
1999.697977195557
 31
0.0
  0
LINE
  5
17AC21874A3D9A
330
17AC21874A3D6F
100
AcDbEntity
  8
0
 62
     0
100
AcDbLine
 10
2749.231165253297
 20
2002.526404320303
 30
0.0
 11
2757.716446627536
 21
2011.011685694542
 31
0.0
  0
LINE
  5
17AC21874A3D9B
330
17AC21874A3D6F
100
AcDbEntity
  8
0
 62
     0
100
AcDbLine
 10
2760.544873752282
 20
2013.840112819288
 30
0.0
 11
2761.021022527084
 21
2014.31626159409
 31
0.0
  0
LINE
  5
17AC21874A3D9C
330
17AC21874A3D6F
100
AcDbEntity
  8
0
 62
     0
100
AcDbLine
 10
2751.858603874814
 20
1999.496988692327
 30
0.0
 11
2755.915954095707
 21
2003.55433891322
 31
0.0
  0
LINE
  5
17AC21874A3D9D
330
17AC21874A3D6F
100
AcDbEntity
  8
0
 62
     0
100
AcDbLine
 10
2735.290018133304
 20
1999.496988692327
 30
0.0
 11
2732.260602505074
 21
2002.526404320557
 31
0.0
  0
LINE
  5
17AC21874A3D9E
330
17AC21874A3D6F
100
AcDbEntity
  8
0
 62
     0
100
AcDbLine
 10
2729.432175380328
 20
2005.354831445303
 30
0.0
 11
2720.94689400609
 21
2013.840112819542
 31
0.0
  0
LINE
  5
17AC21874A3D9F
330
17AC21874A3D6F
100
AcDbEntity
  8
0
 62
     0
100
AcDbLine
 10
2718.118466881343
 20
2016.668539944288
 30
0.0
 11
2712.098021741117
 21
2022.688985084514
 31
0.0
  0
LINE
  5
17AC21874A3DA0
330
17AC21874A3D6F
100
AcDbEntity
  8
0
 62
     0
100
AcDbLine
 10
2740.745883879313
 20
1999.697977195809
 30
0.0
 11
2732.260602505074
 21
2008.183258570047
 31
0.0
  0
LINE
  5
17AC21874A3DA1
330
17AC21874A3D6F
100
AcDbEntity
  8
0
 62
     0
100
AcDbLine
 10
2729.432175380328
 20
2011.011685694795
 30
0.0
 11
2720.94689400609
 21
2019.496967069033
 31
0.0
  0
LINE
  5
17AC21874A3DA2
330
17AC21874A3D6F
100
AcDbEntity
  8
0
 62
     0
100
AcDbLine
 10
2718.118466881343
 20
2022.325394193779
 30
0.0
 11
2717.754875990608
 21
2022.688985084514
 31
0.0
  0
LINE
  5
17AC21874A3DA3
330
17AC21874A3D6F
100
AcDbEntity
  8
0
 62
     0
100
AcDbLine
 10
2746.603726632287
 20
1999.496988692327
 30
0.0
 11
2743.574311004059
 21
2002.526404320556
 31
0.0
  0
LINE
  5
17AC21874A3DA4
330
17AC21874A3D6F
100
AcDbEntity
  8
0
 62
     0
100
AcDbLine
 10
2740.745883879312
 20
2005.354831445302
 30
0.0
 11
2732.260602505073
 21
2013.84011281954
 31
0.0
  0
LINE
  5
17AC21874A3DA5
330
17AC21874A3D6F
100
AcDbEntity
  8
0
 62
     0
100
AcDbLine
 10
2729.432175380328
 20
2016.668539944287
 30
0.0
 11
2723.411730240101
 21
2022.688985084514
 31
0.0
  0
LINE
  5
17AC21874A3DA6
330
17AC21874A3D6F
100
AcDbEntity
  8
0
 62
     0
100
AcDbLine
 10
2752.059592378297
 20
1999.697977195809
 30
0.0
 11
2743.574311004059
 21
2008.183258570048
 31
0.0
  0
LINE
  5
17AC21874A3DA7
330
17AC21874A3D6F
100
AcDbEntity
  8
0
 62
     0
100
AcDbLine
 10
2740.745883879312
 20
2011.011685694794
 30
0.0
 11
2732.260602505073
 21
2019.496967069033
 31
0.0
  0
LINE
  5
17AC21874A3DA8
330
17AC21874A3D6F
100
AcDbEntity
  8
0
 62
     0
100
AcDbLine
 10
2729.432175380328
 20
2022.32539419378
 30
0.0
 11
2729.068584489593
 21
2022.688985084514
 31
0.0
  0
LINE
  5
17AC21874A3DA9
330
17AC21874A3D6F
100
AcDbEntity
  8
0
 62
     0
100
AcDbLine
 10
2755.311322949602
 20
2002.103100873998
 30
0.0
 11
2754.888019503044
 21
2002.526404320557
 31
0.0
  0
LINE
  5
17AC21874A3DAA
330
17AC21874A3D6F
100
AcDbEntity
  8
0
 62
     0
100
AcDbLine
 10
2752.059592378297
 20
2005.354831445302
 30
0.0
 11
2743.574311004059
 21
2013.840112819541
 31
0.0
  0
LINE
  5
17AC21874A3DAB
330
17AC21874A3D6F
100
AcDbEntity
  8
0
 62
     0
100
AcDbLine
 10
2740.745883879312
 20
2016.668539944288
 30
0.0
 11
2734.725438739086
 21
2022.688985084514
 31
0.0
  0
LINE
  5
17AC21874A3DAC
330
17AC21874A3D6F
100
AcDbEntity
  8
0
 62
     0
100
AcDbLine
 10
2757.00720871049
 20
2006.064069362603
 30
0.0
 11
2754.888019503044
 21
2008.183258570049
 31
0.0
  0
LINE
  5
17AC21874A3DAD
330
17AC21874A3D6F
100
AcDbEntity
  8
0
 62
     0
100
AcDbLine
 10
2752.059592378297
 20
2011.011685694795
 30
0.0
 11
2743.574311004059
 21
2019.496967069033
 31
0.0
  0
LINE
  5
17AC21874A3DAE
330
17AC21874A3D6F
100
AcDbEntity
  8
0
 62
     0
100
AcDbLine
 10
2740.745883879312
 20
2022.32539419378
 30
0.0
 11
2740.382292988579
 21
2022.688985084514
 31
0.0
  0
LINE
  5
17AC21874A3DAF
330
17AC21874A3D6F
100
AcDbEntity
  8
0
 62
     0
100
AcDbLine
 10
2758.802332020171
 20
2009.925800302414
 30
0.0
 11
2754.888019503044
 21
2013.840112819541
 31
0.0
  0
LINE
  5
17AC21874A3DB0
330
17AC21874A3D6F
100
AcDbEntity
  8
0
 62
     0
100
AcDbLine
 10
2752.059592378297
 20
2016.668539944287
 30
0.0
 11
2746.039147238071
 21
2022.688985084514
 31
0.0
  0
LINE
  5
17AC21874A3DB1
330
17AC21874A3D6F
100
AcDbEntity
  8
0
 62
     0
100
AcDbLine
 10
2760.693435000926
 20
2013.691551571151
 30
0.0
 11
2754.888019503044
 21
2019.496967069033
 31
0.0
  0
LINE
  5
17AC21874A3DB2
330
17AC21874A3D6F
100
AcDbEntity
  8
0
 62
     0
100
AcDbLine
 10
2752.059592378298
 20
2022.32539419378
 30
0.0
 11
2751.696001487563
 21
2022.688985084514
 31
0.0
  0
LINE
  5
17AC21874A3DB3
330
17AC21874A3D6F
100
AcDbEntity
  8
0
 62
     0
100
AcDbLine
 10
2762.677684738563
 20
2017.364156083006
 30
0.0
 11
2757.352855737055
 21
2022.688985084514
 31
0.0
  0
LINE
  5
17AC21874A3DB4
330
17AC21874A3D6F
100
AcDbEntity
  8
0
 62
     0
100
AcDbLine
 10
2763.373300877282
 20
2022.32539419378
 30
0.0
 11
2763.009709986548
 21
2022.688985084514
 31
0.0
  0
LINE
  5
17AC21874A3DB5
330
17AC21874A3D6F
100
AcDbEntity
  8
0
 62
     0
100
AcDbLine
 10
2729.432175380328
 20
1999.69797719581
 30
0.0
 11
2720.94689400609
 21
2008.183258570049
 31
0.0
  0
LINE
  5
17AC21874A3DB6
330
17AC21874A3D6F
100
AcDbEntity
  8
0
 62
     0
100
AcDbLine
 10
2718.118466881343
 20
2011.011685694795
 30
0.0
 11
2709.633185507104
 21
2019.496967069034
 31
0.0
  0
LINE
  5
17AC21874A3DB7
330
17AC21874A3D6F
100
AcDbEntity
  8
0
 62
     0
100
AcDbLine
 10
2706.804758382358
 20
2022.32539419378
 30
0.0
 11
2706.441167491625
 21
2022.688985084514
 31
0.0
  0
LINE
  5
17AC21874A3DB8
330
17AC21874A3D6F
100
AcDbEntity
  8
0
 62
     0
100
AcDbLine
 10
2723.976309634319
 20
1999.496988692327
 30
0.0
 11
2720.94689400609
 21
2002.526404320557
 31
0.0
  0
LINE
  5
17AC21874A3DB9
330
17AC21874A3D6F
100
AcDbEntity
  8
0
 62
     0
100
AcDbLine
 10
2718.118466881343
 20
2005.354831445303
 30
0.0
 11
2709.633185507104
 21
2013.840112819542
 31
0.0
  0
LINE
  5
17AC21874A3DBA
330
17AC21874A3D6F
100
AcDbEntity
  8
0
 62
     0
100
AcDbLine
 10
2706.804758382358
 20
2016.668539944288
 30
0.0
 11
2700.784313242132
 21
2022.688985084514
 31
0.0
  0
LINE
  5
17AC21874A3DBB
330
17AC21874A3D6F
100
AcDbEntity
  8
0
 62
     0
100
AcDbLine
 10
2718.118466881343
 20
1999.69797719581
 30
0.0
 11
2709.633185507104
 21
2008.183258570049
 31
0.0
  0
LINE
  5
17AC21874A3DBC
330
17AC21874A3D6F
100
AcDbEntity
  8
0
 62
     0
100
AcDbLine
 10
2706.804758382358
 20
2011.011685694795
 30
0.0
 11
2698.31947700812
 21
2019.496967069034
 31
0.0
  0
LINE
  5
17AC21874A3DBD
330
17AC21874A3D6F
100
AcDbEntity
  8
0
 62
     0
100
AcDbLine
 10
2695.491049883373
 20
2022.32539419378
 30
0.0
 11
2695.127458992639
 21
2022.688985084514
 31
0.0
  0
LINE
  5
17AC21874A3DBE
330
17AC21874A3D6F
100
AcDbEntity
  8
0
 62
     0
100
AcDbLine
 10
2712.662601135334
 20
1999.496988692327
 30
0.0
 11
2709.633185507104
 21
2002.526404320557
 31
0.0
  0
LINE
  5
17AC21874A3DBF
330
17AC21874A3D6F
100
AcDbEntity
  8
0
 62
     0
100
AcDbLine
 10
2706.804758382358
 20
2005.354831445302
 30
0.0
 11
2698.31947700812
 21
2013.840112819541
 31
0.0
  0
LINE
  5
17AC21874A3DC0
330
17AC21874A3D6F
100
AcDbEntity
  8
0
 62
     0
100
AcDbLine
 10
2695.491049883373
 20
2016.668539944287
 30
0.0
 11
2689.470604743147
 21
2022.688985084514
 31
0.0
  0
LINE
  5
17AC21874A3DC1
330
17AC21874A3D6F
100
AcDbEntity
  8
0
 62
     0
100
AcDbLine
 10
2706.804758382358
 20
1999.69797719581
 30
0.0
 11
2698.31947700812
 21
2008.183258570049
 31
0.0
  0
LINE
  5
17AC21874A3DC2
330
17AC21874A3D6F
100
AcDbEntity
  8
0
 62
     0
100
AcDbLine
 10
2695.491049883373
 20
2011.011685694795
 30
0.0
 11
2687.005768509135
 21
2019.496967069034
 31
0.0
  0
LINE
  5
17AC21874A3DC3
330
17AC21874A3D6F
100
AcDbEntity
  8
0
 62
     0
100
AcDbLine
 10
2701.348892636349
 20
1999.496988692327
 30
0.0
 11
2698.31947700812
 21
2002.526404320557
 31
0.0
  0
LINE
  5
17AC21874A3DC4
330
17AC21874A3D6F
100
AcDbEntity
  8
0
 62
     0
100
AcDbLine
 10
2695.491049883373
 20
2005.354831445302
 30
0.0
 11
2687.005768509135
 21
2013.840112819541
 31
0.0
  0
LINE
  5
17AC21874A3DC5
330
17AC21874A3D6F
100
AcDbEntity
  8
0
 62
     0
100
AcDbLine
 10
2695.491049883373
 20
1999.69797719581
 30
0.0
 11
2687.005768509135
 21
2008.183258570049
 31
0.0
  0
LINE
  5
17AC21874A3DC6
330
17AC21874A3D6F
100
AcDbEntity
  8
0
 62
     0
100
AcDbLine
 10
2689.484204696917
 20
2000.047968132774
 30
0.0
 11
2687.316897541951
 21
2002.215275287741
 31
0.0
  0
ENDBLK
  5
17AC21874A3DC8
330
17AC21874A3D6F
100
AcDbEntity
  8
0
100
AcDbBlockEnd
  0
BLOCK
  5
17AC21874A3E48
330
17AC21874A3DC9
100
AcDbEntity
  8
0
100
AcDbBlockBegin
  2
*X14
 70
     1
 10
0.0
 20
0.0
 30
0.0
  3
*X14
  1

  0
LINE
  5
17AC21874A3DCA
330
17AC21874A3DC9
100
AcDbEntity
  8
0
 62
     0
100
AcDbLine
 10
106.3438484705329
 20
241.5884870300659
 30
0.0
 11
106.3438484705329
 21
241.5884870300659
 31
0.0
  0
LINE
  5
17AC21874A3DCB
330
17AC21874A3DC9
100
AcDbEntity
  8
0
 62
     0
100
AcDbLine
 10
110.2114460044527
 20
244.5561989964834
 30
0.0
 11
110.2114460044527
 21
244.5561989964834
 31
0.0
  0
LINE
  5
17AC21874A3DCC
330
17AC21874A3DC9
100
AcDbEntity
  8
0
 62
     0
100
AcDbLine
 10
98.49107512899085
 20
241.4883229328812
 30
0.0
 11
98.49107512899085
 21
241.4883229328812
 31
0.0
  0
LINE
  5
17AC21874A3DCD
330
17AC21874A3DC9
100
AcDbEntity
  8
0
 62
     0
100
AcDbLine
 10
102.1087663607189
 20
244.2642750491609
 30
0.0
 11
102.1087663607189
 21
244.2642750491609
 31
0.0
  0
LINE
  5
17AC21874A3DCE
330
17AC21874A3DC9
100
AcDbEntity
  8
0
 62
     0
100
AcDbLine
 10
106.1548683962042
 20
247.3689583371054
 30
0.0
 11
106.1548683962042
 21
247.3689583371054
 31
0.0
  0
LINE
  5
17AC21874A3DCF
330
17AC21874A3DC9
100
AcDbEntity
  8
0
 62
     0
100
AcDbLine
 10
98.30209505466202
 20
247.2687942399206
 30
0.0
 11
98.30209505466202
 21
247.2687942399206
 31
0.0
  0
LINE
  5
17AC21874A3DD0
330
17AC21874A3DC9
100
AcDbEntity
  8
0
 62
     0
100
AcDbLine
 10
101.91978628639
 20
250.0447463562004
 30
0.0
 11
101.91978628639
 21
250.0447463562004
 31
0.0
  0
LINE
  5
17AC21874A3DD1
330
17AC21874A3DC9
100
AcDbEntity
  8
0
 62
     0
100
AcDbLine
 10
124.9825678886562
 20
267.7414410974839
 30
0.0
 11
124.9825678886562
 21
267.7414410974839
 31
0.0
  0
LINE
  5
17AC21874A3DD2
330
17AC21874A3DC9
100
AcDbEntity
  8
0
 62
     0
100
AcDbLine
 10
94.24551744641341
 20
250.0815535805426
 30
0.0
 11
94.24551744641341
 21
250.0815535805426
 31
0.0
  0
LINE
  5
17AC21874A3DD3
330
17AC21874A3DC9
100
AcDbEntity
  8
0
 62
     0
100
AcDbLine
 10
98.11311498033319
 20
253.0492655469601
 30
0.0
 11
98.11311498033319
 21
253.0492655469601
 31
0.0
  0
LINE
  5
17AC21874A3DD4
330
17AC21874A3DC9
100
AcDbEntity
  8
0
 62
     0
100
AcDbLine
 10
117.3082990486796
 20
267.7782483218261
 30
0.0
 11
117.3082990486796
 21
267.7782483218261
 31
0.0
  0
LINE
  5
17AC21874A3DD5
330
17AC21874A3DC9
100
AcDbEntity
  8
0
 62
     0
100
AcDbLine
 10
121.1758965825993
 20
270.7459602882437
 30
0.0
 11
121.1758965825993
 21
270.7459602882437
 31
0.0
  0
LINE
  5
17AC21874A3DD6
330
17AC21874A3DC9
100
AcDbEntity
  8
0
 62
     0
100
AcDbLine
 10
94.0565373720846
 20
255.8620248875821
 30
0.0
 11
94.0565373720846
 21
255.8620248875821
 31
0.0
  0
LINE
  5
17AC21874A3DD7
330
17AC21874A3DC9
100
AcDbEntity
  8
0
 62
     0
100
AcDbLine
 10
97.92413490600438
 20
258.8297368539996
 30
0.0
 11
97.92413490600438
 21
258.8297368539996
 31
0.0
  0
LINE
  5
17AC21874A3DD8
330
17AC21874A3DC9
100
AcDbEntity
  8
0
 62
     0
100
AcDbLine
 10
101.5418261377324
 20
261.6056889702794
 30
0.0
 11
101.5418261377324
 21
261.6056889702794
 31
0.0
  0
LINE
  5
17AC21874A3DD9
330
17AC21874A3DC9
100
AcDbEntity
  8
0
 62
     0
100
AcDbLine
 10
109.4555257071374
 20
267.6780842246413
 30
0.0
 11
109.4555257071374
 21
267.6780842246413
 31
0.0
  0
LINE
  5
17AC21874A3DDA
330
17AC21874A3DC9
100
AcDbEntity
  8
0
 62
     0
100
AcDbLine
 10
113.0732169388654
 20
270.4540363409211
 30
0.0
 11
113.0732169388654
 21
270.4540363409211
 31
0.0
  0
LINE
  5
17AC21874A3DDB
330
17AC21874A3DC9
100
AcDbEntity
  8
0
 62
     0
100
AcDbLine
 10
117.1193189743507
 20
273.5587196288656
 30
0.0
 11
117.1193189743507
 21
273.5587196288656
 31
0.0
  0
LINE
  5
17AC21874A3DDC
330
17AC21874A3DC9
100
AcDbEntity
  8
0
 62
     0
100
AcDbLine
 10
93.86755729775577
 20
261.6424961946215
 30
0.0
 11
93.86755729775577
 21
261.6424961946215
 31
0.0
  0
LINE
  5
17AC21874A3DDD
330
17AC21874A3DC9
100
AcDbEntity
  8
0
 62
     0
100
AcDbLine
 10
97.73515483167555
 20
264.610208161039
 30
0.0
 11
97.73515483167555
 21
264.610208161039
 31
0.0
  0
LINE
  5
17AC21874A3DDE
330
17AC21874A3DC9
100
AcDbEntity
  8
0
 62
     0
100
AcDbLine
 10
101.3528460634036
 20
267.3861602773188
 30
0.0
 11
101.3528460634036
 21
267.3861602773188
 31
0.0
  0
LINE
  5
17AC21874A3DDF
330
17AC21874A3DC9
100
AcDbEntity
  8
0
 62
     0
100
AcDbLine
 10
105.3989480988889
 20
270.4908435652633
 30
0.0
 11
105.3989480988889
 21
270.4908435652633
 31
0.0
  0
LINE
  5
17AC21874A3DE0
330
17AC21874A3DC9
100
AcDbEntity
  8
0
 62
     0
100
AcDbLine
 10
109.2665456328086
 20
273.4585555316808
 30
0.0
 11
109.2665456328086
 21
273.4585555316808
 31
0.0
  0
LINE
  5
17AC21874A3DE1
330
17AC21874A3DC9
100
AcDbEntity
  8
0
 62
     0
100
AcDbLine
 10
112.8842368645367
 20
276.2345076479606
 30
0.0
 11
112.8842368645367
 21
276.2345076479606
 31
0.0
  0
LINE
  5
17AC21874A3DE2
330
17AC21874A3DC9
100
AcDbEntity
  8
0
 62
     0
100
AcDbLine
 10
97.54617475734669
 20
270.3906794680785
 30
0.0
 11
97.54617475734669
 21
270.3906794680785
 31
0.0
  0
LINE
  5
17AC21874A3DE3
330
17AC21874A3DC9
100
AcDbEntity
  8
0
 62
     0
100
AcDbLine
 10
101.1638659890747
 20
273.1666315843583
 30
0.0
 11
101.1638659890747
 21
273.1666315843583
 31
0.0
  0
LINE
  5
17AC21874A3DE4
330
17AC21874A3DC9
100
AcDbEntity
  8
0
 62
     0
100
AcDbLine
 10
110.4004260787815
 20
238.7757276894439
 30
0.0
 11
110.4004260787815
 21
238.7757276894439
 31
0.0
  0
LINE
  5
17AC21874A3DE5
330
17AC21874A3DC9
100
AcDbEntity
  8
0
 62
     0
100
AcDbLine
 10
114.0181173105096
 20
241.5516798057237
 30
0.0
 11
114.0181173105096
 21
241.5516798057237
 31
0.0
  0
LINE
  5
17AC21874A3DE6
330
17AC21874A3DC9
100
AcDbEntity
  8
0
 62
     0
100
AcDbLine
 10
118.0642193459949
 20
244.6563630936682
 30
0.0
 11
118.0642193459949
 21
244.6563630936682
 31
0.0
  0
LINE
  5
17AC21874A3DE7
330
17AC21874A3DC9
100
AcDbEntity
  8
0
 62
     0
100
AcDbLine
 10
118.2531994203237
 20
238.8758917866287
 30
0.0
 11
118.2531994203237
 21
238.8758917866287
 31
0.0
  0
LINE
  5
17AC21874A3DE8
330
17AC21874A3DC9
100
AcDbEntity
  8
0
 62
     0
100
AcDbLine
 10
122.1207969542435
 20
241.8436037530462
 30
0.0
 11
122.1207969542435
 21
241.8436037530462
 31
0.0
  0
LINE
  5
17AC21874A3DE9
330
17AC21874A3DC9
100
AcDbEntity
  8
0
 62
     0
100
AcDbLine
 10
125.7384881859715
 20
244.619555869326
 30
0.0
 11
125.7384881859715
 21
244.619555869326
 31
0.0
  0
LINE
  5
17AC21874A3DEA
330
17AC21874A3DC9
100
AcDbEntity
  8
0
 62
     0
100
AcDbLine
 10
91.9113680268915
 20
252.8913615456751
 30
0.0
 11
91.9113680268915
 21
252.8913615456751
 31
0.0
  0
LINE
  5
17AC21874A3DEB
330
17AC21874A3DC9
100
AcDbEntity
  8
0
 62
     0
100
AcDbLine
 10
94.35032238587108
 20
253.2124559785363
 30
0.0
 11
94.35032238587108
 21
253.2124559785363
 31
0.0
  0
LINE
  5
17AC21874A3DEC
330
17AC21874A3DC9
100
AcDbEntity
  8
0
 62
     0
100
AcDbLine
 10
98.42516076611744
 20
253.7489186285608
 30
0.0
 11
98.42516076611744
 21
253.7489186285608
 31
0.0
  0
LINE
  5
17AC21874A3DED
330
17AC21874A3DC9
100
AcDbEntity
  8
0
 62
     0
100
AcDbLine
 10
99.98668642278119
 20
253.9544973813073
 30
0.0
 11
99.98668642278119
 21
253.9544973813073
 31
0.0
  0
LINE
  5
17AC21874A3DEE
330
17AC21874A3DC9
100
AcDbEntity
  8
0
 62
     0
100
AcDbLine
 10
91.58433410578458
 20
260.6157583385932
 30
0.0
 11
91.58433410578458
 21
260.6157583385932
 31
0.0
  0
LINE
  5
17AC21874A3DEF
330
17AC21874A3DC9
100
AcDbEntity
  8
0
 62
     0
100
AcDbLine
 10
95.65917248603094
 20
261.1522209886177
 30
0.0
 11
95.65917248603094
 21
261.1522209886177
 31
0.0
  0
LINE
  5
17AC21874A3DF0
330
17AC21874A3DC9
100
AcDbEntity
  8
0
 62
     0
100
AcDbLine
 10
97.22069814269469
 20
261.3577997413643
 30
0.0
 11
97.22069814269469
 21
261.3577997413643
 31
0.0
  0
LINE
  5
17AC21874A3DF1
330
17AC21874A3DC9
100
AcDbEntity
  8
0
 62
     0
100
AcDbLine
 10
99.65965250167426
 20
261.6788941742256
 30
0.0
 11
99.65965250167426
 21
261.6788941742256
 31
0.0
  0
LINE
  5
17AC21874A3DF2
330
17AC21874A3DC9
100
AcDbEntity
  8
0
 62
     0
100
AcDbLine
 10
96.8936642215878
 20
269.0821965342824
 30
0.0
 11
96.8936642215878
 21
269.0821965342824
 31
0.0
  0
LINE
  5
17AC21874A3DF3
330
17AC21874A3DC9
100
AcDbEntity
  8
0
 62
     0
100
AcDbLine
 10
100.9685026018341
 20
269.6186591843069
 30
0.0
 11
100.9685026018341
 21
269.6186591843069
 31
0.0
  0
LINE
  5
17AC21874A3DF4
330
17AC21874A3DC9
100
AcDbEntity
  8
0
 62
     0
100
AcDbLine
 10
102.5300282584979
 20
269.8242379370535
 30
0.0
 11
102.5300282584979
 21
269.8242379370535
 31
0.0
  0
LINE
  5
17AC21874A3DF5
330
17AC21874A3DC9
100
AcDbEntity
  8
0
 62
     0
100
AcDbLine
 10
104.9689826174775
 20
270.1453323699148
 30
0.0
 11
104.9689826174775
 21
270.1453323699148
 31
0.0
  0
LINE
  5
17AC21874A3DF6
330
17AC21874A3DC9
100
AcDbEntity
  8
0
 62
     0
100
AcDbLine
 10
109.0438209977238
 20
270.6817950199392
 30
0.0
 11
109.0438209977238
 21
270.6817950199392
 31
0.0
  0
LINE
  5
17AC21874A3DF7
330
17AC21874A3DC9
100
AcDbEntity
  8
0
 62
     0
100
AcDbLine
 10
110.6053466543876
 20
270.8873737726858
 30
0.0
 11
110.6053466543876
 21
270.8873737726858
 31
0.0
  0
LINE
  5
17AC21874A3DF8
330
17AC21874A3DC9
100
AcDbEntity
  8
0
 62
     0
100
AcDbLine
 10
113.0443010133671
 20
271.2084682055472
 30
0.0
 11
113.0443010133671
 21
271.2084682055472
 31
0.0
  0
LINE
  5
17AC21874A3DF9
330
17AC21874A3DC9
100
AcDbEntity
  8
0
 62
     0
100
AcDbLine
 10
117.1191393936135
 20
271.7449308555716
 30
0.0
 11
117.1191393936135
 21
271.7449308555716
 31
0.0
  0
LINE
  5
17AC21874A3DFA
330
17AC21874A3DC9
100
AcDbEntity
  8
0
 62
     0
100
AcDbLine
 10
118.6806650502773
 20
271.9505096083182
 30
0.0
 11
118.6806650502773
 21
271.9505096083182
 31
0.0
  0
LINE
  5
17AC21874A3DFB
330
17AC21874A3DC9
100
AcDbEntity
  8
0
 62
     0
100
AcDbLine
 10
121.1196194092568
 20
272.2716040411795
 30
0.0
 11
121.1196194092568
 21
272.2716040411795
 31
0.0
  0
LINE
  5
17AC21874A3DFC
330
17AC21874A3DC9
100
AcDbEntity
  8
0
 62
     0
100
AcDbLine
 10
94.67735630697802
 20
245.4880591856182
 30
0.0
 11
94.67735630697802
 21
245.4880591856182
 31
0.0
  0
LINE
  5
17AC21874A3DFD
330
17AC21874A3DC9
100
AcDbEntity
  8
0
 62
     0
100
AcDbLine
 10
97.1163106659576
 20
245.8091536184795
 30
0.0
 11
97.1163106659576
 21
245.8091536184795
 31
0.0
  0
LINE
  5
17AC21874A3DFE
330
17AC21874A3DC9
100
AcDbEntity
  8
0
 62
     0
100
AcDbLine
 10
101.1911490462039
 20
246.3456162685039
 30
0.0
 11
101.1911490462039
 21
246.3456162685039
 31
0.0
  0
LINE
  5
17AC21874A3DFF
330
17AC21874A3DC9
100
AcDbEntity
  8
0
 62
     0
100
AcDbLine
 10
102.7526747028677
 20
246.5511950212505
 30
0.0
 11
102.7526747028677
 21
246.5511950212505
 31
0.0
  0
LINE
  5
17AC21874A3E00
330
17AC21874A3DC9
100
AcDbEntity
  8
0
 62
     0
100
AcDbLine
 10
105.1916290618473
 20
246.8722894541118
 30
0.0
 11
105.1916290618473
 21
246.8722894541118
 31
0.0
  0
LINE
  5
17AC21874A3E01
330
17AC21874A3DC9
100
AcDbEntity
  8
0
 62
     0
100
AcDbLine
 10
103.9571373262904
 20
238.942313908447
 30
0.0
 11
103.9571373262904
 21
238.942313908447
 31
0.0
  0
LINE
  5
17AC21874A3E02
330
17AC21874A3DC9
100
AcDbEntity
  8
0
 62
     0
100
AcDbLine
 10
105.5186629829542
 20
239.1478926611935
 30
0.0
 11
105.5186629829542
 21
239.1478926611935
 31
0.0
  0
LINE
  5
17AC21874A3E03
330
17AC21874A3DC9
100
AcDbEntity
  8
0
 62
     0
100
AcDbLine
 10
107.9576173419337
 20
239.4689870940549
 30
0.0
 11
107.9576173419337
 21
239.4689870940549
 31
0.0
  0
LINE
  5
17AC21874A3E04
330
17AC21874A3DC9
100
AcDbEntity
  8
0
 62
     0
100
AcDbLine
 10
112.0324557221801
 20
240.0054497440793
 30
0.0
 11
112.0324557221801
 21
240.0054497440793
 31
0.0
  0
LINE
  5
17AC21874A3E05
330
17AC21874A3DC9
100
AcDbEntity
  8
0
 62
     0
100
AcDbLine
 10
113.5939813788438
 20
240.2110284968259
 30
0.0
 11
113.5939813788438
 21
240.2110284968259
 31
0.0
  0
LINE
  5
17AC21874A3E06
330
17AC21874A3DC9
100
AcDbEntity
  8
0
 62
     0
100
AcDbLine
 10
116.0329357378234
 20
240.5321229296872
 30
0.0
 11
116.0329357378234
 21
240.5321229296872
 31
0.0
  0
LINE
  5
17AC21874A3E07
330
17AC21874A3DC9
100
AcDbEntity
  8
0
 62
     0
100
AcDbLine
 10
120.1077741180698
 20
241.0685855797116
 30
0.0
 11
120.1077741180698
 21
241.0685855797116
 31
0.0
  0
LINE
  5
17AC21874A3E08
330
17AC21874A3DC9
100
AcDbEntity
  8
0
 62
     0
100
AcDbLine
 10
121.6692997747335
 20
241.2741643324582
 30
0.0
 11
121.6692997747335
 21
241.2741643324582
 31
0.0
  0
LINE
  5
17AC21874A3E09
330
17AC21874A3DC9
100
AcDbEntity
  8
0
 62
     0
100
AcDbLine
 10
124.1082541337131
 20
241.5952587653195
 30
0.0
 11
124.1082541337131
 21
241.5952587653195
 31
0.0
  0
LINE
  5
17AC21874A3E0A
330
17AC21874A3DC9
100
AcDbEntity
  8
0
 62
     0
100
AcDbLine
 10
97.19973585573924
 20
269.9766348934648
 30
0.0
 11
97.19973585573924
 21
269.9766348934648
 31
0.0
  0
LINE
  5
17AC21874A3E0B
330
17AC21874A3DC9
100
AcDbEntity
  8
0
 62
     0
100
AcDbLine
 10
101.7540496631288
 20
267.0752170083919
 30
0.0
 11
101.7540496631288
 21
267.0752170083919
 31
0.0
  0
LINE
  5
17AC21874A3E0C
330
17AC21874A3DC9
100
AcDbEntity
  8
0
 62
     0
100
AcDbLine
 10
105.2770742722744
 20
270.7995614665959
 30
0.0
 11
105.2770742722744
 21
270.7995614665959
 31
0.0
  0
LINE
  5
17AC21874A3E0D
330
17AC21874A3DC9
100
AcDbEntity
  8
0
 62
     0
100
AcDbLine
 10
106.5421614409938
 20
269.9936120540757
 30
0.0
 11
106.5421614409938
 21
269.9936120540757
 31
0.0
  0
LINE
  5
17AC21874A3E0E
330
17AC21874A3DC9
100
AcDbEntity
  8
0
 62
     0
100
AcDbLine
 10
111.0964752483833
 20
267.0921941690028
 30
0.0
 11
111.0964752483833
 21
267.0921941690028
 31
0.0
  0
LINE
  5
17AC21874A3E0F
330
17AC21874A3DC9
100
AcDbEntity
  8
0
 62
     0
100
AcDbLine
 10
108.673590164548
 20
274.6045008660519
 30
0.0
 11
108.673590164548
 21
274.6045008660519
 31
0.0
  0
LINE
  5
17AC21874A3E10
330
17AC21874A3DC9
100
AcDbEntity
  8
0
 62
     0
100
AcDbLine
 10
114.6194998575288
 20
270.8165386272068
 30
0.0
 11
114.6194998575288
 21
270.8165386272068
 31
0.0
  0
LINE
  5
17AC21874A3E11
330
17AC21874A3DC9
100
AcDbEntity
  8
0
 62
     0
100
AcDbLine
 10
115.8845870262481
 20
270.0105892146865
 30
0.0
 11
115.8845870262481
 21
270.0105892146865
 31
0.0
  0
LINE
  5
17AC21874A3E12
330
17AC21874A3DC9
100
AcDbEntity
  8
0
 62
     0
100
AcDbLine
 10
120.4389008336377
 20
267.1091713296137
 30
0.0
 11
120.4389008336377
 21
267.1091713296137
 31
0.0
  0
LINE
  5
17AC21874A3E13
330
17AC21874A3DC9
100
AcDbEntity
  8
0
 62
     0
100
AcDbLine
 10
118.0160157498025
 20
274.6214780266628
 30
0.0
 11
118.0160157498025
 21
274.6214780266628
 31
0.0
  0
LINE
  5
17AC21874A3E14
330
17AC21874A3DC9
100
AcDbEntity
  8
0
 62
     0
100
AcDbLine
 10
123.9619254427834
 20
270.8335157878177
 30
0.0
 11
123.9619254427834
 21
270.8335157878177
 31
0.0
  0
LINE
  5
17AC21874A3E15
330
17AC21874A3DC9
100
AcDbEntity
  8
0
 62
     0
100
AcDbLine
 10
125.2270126115027
 20
270.0275663752975
 30
0.0
 11
125.2270126115027
 21
270.0275663752975
 31
0.0
  0
LINE
  5
17AC21874A3E16
330
17AC21874A3DC9
100
AcDbEntity
  8
0
 62
     0
100
AcDbLine
 10
98.35753377085531
 20
263.2702776089359
 30
0.0
 11
98.35753377085531
 21
263.2702776089359
 31
0.0
  0
LINE
  5
17AC21874A3E17
330
17AC21874A3DC9
100
AcDbEntity
  8
0
 62
     0
100
AcDbLine
 10
99.62262093957463
 20
262.4643281964157
 30
0.0
 11
99.62262093957463
 21
262.4643281964157
 31
0.0
  0
LINE
  5
17AC21874A3E18
330
17AC21874A3DC9
100
AcDbEntity
  8
0
 62
     0
100
AcDbLine
 10
94.83450916170964
 20
259.5459331507319
 30
0.0
 11
94.83450916170964
 21
259.5459331507319
 31
0.0
  0
LINE
  5
17AC21874A3E19
330
17AC21874A3DC9
100
AcDbEntity
  8
0
 62
     0
100
AcDbLine
 10
100.7804188546905
 20
255.7579709118868
 30
0.0
 11
100.7804188546905
 21
255.7579709118868
 31
0.0
  0
LINE
  5
17AC21874A3E1A
330
17AC21874A3DC9
100
AcDbEntity
  8
0
 62
     0
100
AcDbLine
 10
118.3651304998892
 20
244.5552740778556
 30
0.0
 11
118.3651304998892
 21
244.5552740778556
 31
0.0
  0
LINE
  5
17AC21874A3E1B
330
17AC21874A3DC9
100
AcDbEntity
  8
0
 62
     0
100
AcDbLine
 10
91.43799326943604
 20
255.7409937512759
 30
0.0
 11
91.43799326943604
 21
255.7409937512759
 31
0.0
  0
LINE
  5
17AC21874A3E1C
330
17AC21874A3DC9
100
AcDbEntity
  8
0
 62
     0
100
AcDbLine
 10
92.70308043815537
 20
254.9350443387557
 30
0.0
 11
92.70308043815537
 21
254.9350443387557
 31
0.0
  0
LINE
  5
17AC21874A3E1D
330
17AC21874A3DC9
100
AcDbEntity
  8
0
 62
     0
100
AcDbLine
 10
97.25739424554495
 20
252.0336264536828
 30
0.0
 11
97.25739424554495
 21
252.0336264536828
 31
0.0
  0
LINE
  5
17AC21874A3E1E
330
17AC21874A3DC9
100
AcDbEntity
  8
0
 62
     0
100
AcDbLine
 10
103.2033039385258
 20
248.2456642148378
 30
0.0
 11
103.2033039385258
 21
248.2456642148378
 31
0.0
  0
LINE
  5
17AC21874A3E1F
330
17AC21874A3DC9
100
AcDbEntity
  8
0
 62
     0
100
AcDbLine
 10
104.4683911072451
 20
247.4397148023175
 30
0.0
 11
104.4683911072451
 21
247.4397148023175
 31
0.0
  0
LINE
  5
17AC21874A3E20
330
17AC21874A3DC9
100
AcDbEntity
  8
0
 62
     0
100
AcDbLine
 10
109.0227049146347
 20
244.5382969172447
 30
0.0
 11
109.0227049146347
 21
244.5382969172447
 31
0.0
  0
LINE
  5
17AC21874A3E21
330
17AC21874A3DC9
100
AcDbEntity
  8
0
 62
     0
100
AcDbLine
 10
114.9686146076155
 20
240.7503346783995
 30
0.0
 11
114.9686146076155
 21
240.7503346783995
 31
0.0
  0
LINE
  5
17AC21874A3E22
330
17AC21874A3DC9
100
AcDbEntity
  8
0
 62
     0
100
AcDbLine
 10
116.2337017763348
 20
239.9443852658793
 30
0.0
 11
116.2337017763348
 21
239.9443852658793
 31
0.0
  0
LINE
  5
17AC21874A3E23
330
17AC21874A3DC9
100
AcDbEntity
  8
0
 62
     0
100
AcDbLine
 10
93.86087835327137
 20
248.2286870542269
 30
0.0
 11
93.86087835327137
 21
248.2286870542269
 31
0.0
  0
LINE
  5
17AC21874A3E24
330
17AC21874A3DC9
100
AcDbEntity
  8
0
 62
     0
100
AcDbLine
 10
95.12596552199068
 20
247.4227376417066
 30
0.0
 11
95.12596552199068
 21
247.4227376417066
 31
0.0
  0
LINE
  5
17AC21874A3E25
330
17AC21874A3DC9
100
AcDbEntity
  8
0
 62
     0
100
AcDbLine
 10
99.68027932938028
 20
244.5213197566338
 30
0.0
 11
99.68027932938028
 21
244.5213197566338
 31
0.0
  0
LINE
  5
17AC21874A3E26
330
17AC21874A3DC9
100
AcDbEntity
  8
0
 62
     0
100
AcDbLine
 10
105.6261890223611
 20
240.7333575177887
 30
0.0
 11
105.6261890223611
 21
240.7333575177887
 31
0.0
  0
LINE
  5
17AC21874A3E27
330
17AC21874A3DC9
100
AcDbEntity
  8
0
 62
     0
100
AcDbLine
 10
106.8912761910804
 20
239.9274081052685
 30
0.0
 11
106.8912761910804
 21
239.9274081052685
 31
0.0
  0
LINE
  5
17AC21874A3E28
330
17AC21874A3DC9
100
AcDbEntity
  8
0
 62
     0
100
AcDbLine
 10
111.44558999847
 20
237.0259902201956
 30
0.0
 11
111.44558999847
 21
237.0259902201956
 31
0.0
  0
LINE
  5
17AC21874A3E29
330
17AC21874A3DC9
100
AcDbEntity
  8
0
 62
     0
100
AcDbLine
 10
97.15195820477115
 20
267.1913955369581
 30
0.0
 11
97.15195820477115
 21
267.1913955369581
 31
0.0
  0
LINE
  5
17AC21874A3E2A
330
17AC21874A3DC9
100
AcDbEntity
  8
0
 62
     0
100
AcDbLine
 10
97.70491620737875
 20
266.6847028812463
 30
0.0
 11
97.70491620737875
 21
266.6847028812463
 31
0.0
  0
LINE
  5
17AC21874A3E2B
330
17AC21874A3DC9
100
AcDbEntity
  8
0
 62
     0
100
AcDbLine
 10
100.3148779796866
 20
264.2931135462869
 30
0.0
 11
100.3148779796866
 21
264.2931135462869
 31
0.0
  0
LINE
  5
17AC21874A3E2C
330
17AC21874A3DC9
100
AcDbEntity
  8
0
 62
     0
100
AcDbLine
 10
121.7475301607569
 20
244.6537062108997
 30
0.0
 11
121.7475301607569
 21
244.6537062108997
 31
0.0
  0
LINE
  5
17AC21874A3E2D
330
17AC21874A3DC9
100
AcDbEntity
  8
0
 62
     0
100
AcDbLine
 10
122.3004881633645
 20
244.147013555188
 30
0.0
 11
122.3004881633645
 21
244.147013555188
 31
0.0
  0
LINE
  5
17AC21874A3E2E
330
17AC21874A3DC9
100
AcDbEntity
  8
0
 62
     0
100
AcDbLine
 10
103.184364804407
 20
272.5605625726042
 30
0.0
 11
103.184364804407
 21
272.5605625726042
 31
0.0
  0
LINE
  5
17AC21874A3E2F
330
17AC21874A3DC9
100
AcDbEntity
  8
0
 62
     0
100
AcDbLine
 10
106.170338018488
 20
269.8244222317608
 30
0.0
 11
106.170338018488
 21
269.8244222317608
 31
0.0
  0
LINE
  5
17AC21874A3E30
330
17AC21874A3DC9
100
AcDbEntity
  8
0
 62
     0
100
AcDbLine
 10
106.7232960210956
 20
269.3177295760491
 30
0.0
 11
106.7232960210956
 21
269.3177295760491
 31
0.0
  0
LINE
  5
17AC21874A3E31
330
17AC21874A3DC9
100
AcDbEntity
  8
0
 62
     0
100
AcDbLine
 10
109.3332577934035
 20
266.9261402410896
 30
0.0
 11
109.3332577934035
 21
266.9261402410896
 31
0.0
  0
LINE
  5
17AC21874A3E32
330
17AC21874A3DC9
100
AcDbEntity
  8
0
 62
     0
100
AcDbLine
 10
112.2027446181239
 20
275.193589267407
 30
0.0
 11
112.2027446181239
 21
275.193589267407
 31
0.0
  0
LINE
  5
17AC21874A3E33
330
17AC21874A3DC9
100
AcDbEntity
  8
0
 62
     0
100
AcDbLine
 10
115.1887178322049
 20
272.4574489265636
 30
0.0
 11
115.1887178322049
 21
272.4574489265636
 31
0.0
  0
LINE
  5
17AC21874A3E34
330
17AC21874A3DC9
100
AcDbEntity
  8
0
 62
     0
100
AcDbLine
 10
115.7416758348125
 20
271.9507562708519
 30
0.0
 11
115.7416758348125
 21
271.9507562708519
 31
0.0
  0
LINE
  5
17AC21874A3E35
330
17AC21874A3DC9
100
AcDbEntity
  8
0
 62
     0
100
AcDbLine
 10
118.3516376071203
 20
269.5591669358924
 30
0.0
 11
118.3516376071203
 21
269.5591669358924
 31
0.0
  0
LINE
  5
17AC21874A3E36
330
17AC21874A3DC9
100
AcDbEntity
  8
0
 62
     0
100
AcDbLine
 10
121.3376108212013
 20
266.823026595049
 30
0.0
 11
121.3376108212013
 21
266.823026595049
 31
0.0
  0
LINE
  5
17AC21874A3E37
330
17AC21874A3DC9
100
AcDbEntity
  8
0
 62
     0
100
AcDbLine
 10
94.28247138005071
 20
258.9239465106407
 30
0.0
 11
94.28247138005071
 21
258.9239465106407
 31
0.0
  0
LINE
  5
17AC21874A3E38
330
17AC21874A3DC9
100
AcDbEntity
  8
0
 62
     0
100
AcDbLine
 10
94.83542938265831
 20
258.417253854929
 30
0.0
 11
94.83542938265831
 21
258.417253854929
 31
0.0
  0
LINE
  5
17AC21874A3E39
330
17AC21874A3DC9
100
AcDbEntity
  8
0
 62
     0
100
AcDbLine
 10
97.44539115496614
 20
256.0256645199695
 30
0.0
 11
97.44539115496614
 21
256.0256645199695
 31
0.0
  0
LINE
  5
17AC21874A3E3A
330
17AC21874A3DC9
100
AcDbEntity
  8
0
 62
     0
100
AcDbLine
 10
100.4313643690471
 20
253.2895241791261
 30
0.0
 11
100.4313643690471
 21
253.2895241791261
 31
0.0
  0
LINE
  5
17AC21874A3E3B
330
17AC21874A3DC9
100
AcDbEntity
  8
0
 62
     0
100
AcDbLine
 10
100.9843223716547
 20
252.7828315234143
 30
0.0
 11
100.9843223716547
 21
252.7828315234143
 31
0.0
  0
LINE
  5
17AC21874A3E3C
330
17AC21874A3DC9
100
AcDbEntity
  8
0
 62
     0
100
AcDbLine
 10
106.5802573580435
 20
247.6551018476115
 30
0.0
 11
106.5802573580435
 21
247.6551018476115
 31
0.0
  0
LINE
  5
17AC21874A3E3D
330
17AC21874A3DC9
100
AcDbEntity
  8
0
 62
     0
100
AcDbLine
 10
107.1332153606511
 20
247.1484091918998
 30
0.0
 11
107.1332153606511
 21
247.1484091918998
 31
0.0
  0
LINE
  5
17AC21874A3E3E
330
17AC21874A3DC9
100
AcDbEntity
  8
0
 62
     0
100
AcDbLine
 10
109.743177132959
 20
244.7568198569404
 30
0.0
 11
109.743177132959
 21
244.7568198569404
 31
0.0
  0
LINE
  5
17AC21874A3E3F
330
17AC21874A3DC9
100
AcDbEntity
  8
0
 62
     0
100
AcDbLine
 10
112.72915034704
 20
242.0206795160969
 30
0.0
 11
112.72915034704
 21
242.0206795160969
 31
0.0
  0
LINE
  5
17AC21874A3E40
330
17AC21874A3DC9
100
AcDbEntity
  8
0
 62
     0
100
AcDbLine
 10
113.2821083496476
 20
241.5139868603852
 30
0.0
 11
113.2821083496476
 21
241.5139868603852
 31
0.0
  0
LINE
  5
17AC21874A3E41
330
17AC21874A3DC9
100
AcDbEntity
  8
0
 62
     0
100
AcDbLine
 10
115.8920701219554
 20
239.1223975254258
 30
0.0
 11
115.8920701219554
 21
239.1223975254258
 31
0.0
  0
LINE
  5
17AC21874A3E42
330
17AC21874A3DC9
100
AcDbEntity
  8
0
 62
     0
100
AcDbLine
 10
94.57590433024572
 20
247.7582154936522
 30
0.0
 11
94.57590433024572
 21
247.7582154936522
 31
0.0
  0
LINE
  5
17AC21874A3E43
330
17AC21874A3DC9
100
AcDbEntity
  8
0
 62
     0
100
AcDbLine
 10
97.56187754432673
 20
245.0220751528088
 30
0.0
 11
97.56187754432673
 21
245.0220751528088
 31
0.0
  0
LINE
  5
17AC21874A3E44
330
17AC21874A3DC9
100
AcDbEntity
  8
0
 62
     0
100
AcDbLine
 10
98.11483554693431
 20
244.515382497097
 30
0.0
 11
98.11483554693431
 21
244.515382497097
 31
0.0
  0
LINE
  5
17AC21874A3E45
330
17AC21874A3DC9
100
AcDbEntity
  8
0
 62
     0
100
AcDbLine
 10
100.7247973192421
 20
242.1237931621376
 30
0.0
 11
100.7247973192421
 21
242.1237931621376
 31
0.0
  0
LINE
  5
17AC21874A3E46
330
17AC21874A3DC9
100
AcDbEntity
  8
0
 62
     0
100
AcDbLine
 10
103.7107705333231
 20
239.3876528212941
 30
0.0
 11
103.7107705333231
 21
239.3876528212941
 31
0.0
  0
LINE
  5
17AC21874A3E47
330
17AC21874A3DC9
100
AcDbEntity
  8
0
 62
     0
100
AcDbLine
 10
104.2637285359307
 20
238.8809601655824
 30
0.0
 11
104.2637285359307
 21
238.8809601655824
 31
0.0
  0
ENDBLK
  5
17AC21874A3E49
330
17AC21874A3DC9
100
AcDbEntity
  8
0
100
AcDbBlockEnd
  0
BLOCK
  5
17AC21874A3F3A
330
17AC21874A3E4A
100
AcDbEntity
  8
0
100
AcDbBlockBegin
  2
A$C3CDD1C19
 70
     0
 10
0.0
 20
0.0
 30
0.0
  3
A$C3CDD1C19
  1

  0
LINE
  5
17AC21874A3E4B
330
17AC21874A3E4A
100
AcDbEntity
  8
0
100
AcDbLine
 10
-305.1973334413508
 20
31.53320215833969
 30
0.0
 11
-344.8458075548344
 21
31.32173526053407
 31
0.0
  0
LINE
  5
17AC21874A3E4C
330
17AC21874A3E4A
100
AcDbEntity
  8
ASSE
100
AcDbLine
 10
-242.4844795105871
 20
-88.08871931548925
 30
0.0
 11
-427.2102611188258
 21
-89.07396247691735
 31
0.0
  0
ARC
  5
17AC21874A3E4D
330
17AC21874A3E4A
100
AcDbEntity
  8
0
100
AcDbCircle
 10
-325.4363268130287
 20
-89.31298426531133
 30
0.0
 40
90.0
100
AcDbArc
 50
43.06548357823177
 51
314.6691401962816
  0
LINE
  5
17AC21874A3E4E
330
17AC21874A3E4A
100
AcDbEntity
  8
0
100
AcDbLine
 10
-132.1893273393
 20
-179.9508556876001
 30
0.0
 11
-532.1836381214664
 21
-182.0842431112576
 31
0.0
  0
LINE
  5
17AC21874A3E4F
330
17AC21874A3E4A
100
AcDbEntity
  8
0
100
AcDbLine
 10
-521.5833469462629
 20
17.97513866194936
 30
0.0
 11
-133.2560210511281
 21
20.0462997034831
 31
0.0
  0
CIRCLE
  5
17AC21874A3E50
330
17AC21874A3E4A
100
AcDbEntity
  8
0
100
AcDbCircle
 10
-325.4363268130287
 20
-89.31298426531133
 30
0.0
 40
25.0
  0
LINE
  5
17AC21874A3E51
330
17AC21874A3E4A
100
AcDbEntity
  8
ASSE
100
AcDbLine
 10
-264.8278931919719
 20
219.7881848659147
 30
0.0
 11
-395.8402636560661
 21
219.0894245686861
 31
0.0
  0
CIRCLE
  5
17AC21874A3E52
330
17AC21874A3E4A
100
AcDbEntity
  8
0
100
AcDbCircle
 10
-325.7068952671891
 20
219.4110488517647
 30
0.0
 40
44.0
  0
CIRCLE
  5
17AC21874A3E53
330
17AC21874A3E4A
100
AcDbEntity
  8
0
100
AcDbCircle
 10
-325.7068952671891
 20
219.4110488517647
 30
0.0
 40
34.0
  0
LINE
  5
17AC21874A3E54
330
17AC21874A3E4A
100
AcDbEntity
  8
0
100
AcDbLine
 10
-129.5488301213568
 20
265.5359394256113
 30
0.0
 11
-539.5429986730776
 21
263.3492173163625
 31
0.0
  0
LINE
  5
17AC21874A3E55
330
17AC21874A3E4A
100
AcDbEntity
  8
ASSE
100
AcDbLine
 10
-109.8380811217962
 20
249.9421229123602
 30
0.0
 11
-626.9921652124041
 21
247.1838586337146
 31
0.0
1001
ACAD
1000
ASC_BOUNDS
1002
{
1070
    19
1005
17AC21874A3EAE
1002
}
  0
LINE
  5
17AC21874A3E56
330
17AC21874A3E4A
100
AcDbEntity
  8
0
100
AcDbLine
 10
-344.8458075548344
 20
31.32173526053407
 30
0.0
 11
-345.5726723748723
 21
167.6034951971444
 31
0.0
  0
LINE
  5
17AC21874A3E57
330
17AC21874A3E4A
100
AcDbEntity
  8
ASSE
100
AcDbLine
 10
-326.291279656411
 20
269.4892763761957
 30
0.0
 11
-324.9387590982449
 21
15.90170832220997
 31
0.0
  0
LINE
  5
17AC21874A3E58
330
17AC21874A3E4A
100
AcDbEntity
  8
0
100
AcDbLine
 10
-344.7814769873876
 20
19.26023123991149
 30
0.0
 11
-344.8780104902109
 21
37.35954667650026
 31
0.0
  0
CIRCLE
  5
17AC21874A3E59
330
17AC21874A3E4A
100
AcDbEntity
  8
0
100
AcDbCircle
 10
-638.712316068603
 20
93.91106542870351
 30
0.0
 40
140.0
1001
ACAD
1000
ASC_BOUNDS
1002
{
1070
    19
1005
17AC21874A3EAE
1002
}
  0
ARC
  5
17AC21874A3E5A
330
17AC21874A3E4A
100
AcDbEntity
  8
0
100
AcDbCircle
 10
-397.6879876354094
 20
48.83880795565779
 30
0.0
 40
25.11337410049601
100
AcDbArc
 50
259.3439829561773
 51
349.3439829561735
  0
LINE
  5
17AC21874A3E5B
330
17AC21874A3E4A
100
AcDbEntity
  8
ASSE
100
AcDbLine
 10
-398.2268250740337
 20
80.25247663086815
 30
0.0
 11
-397.8548768799908
 21
10.51495035079119
 31
0.0
  0
CIRCLE
  5
17AC21874A3E5C
330
17AC21874A3E4A
100
AcDbEntity
  8
VITE
100
AcDbCircle
 10
-397.8645038511029
 20
48.61332096970432
 30
0.0
 40
17.0
  0
LWPOLYLINE
  5
17AC21874A3E5D
330
17AC21874A3E4A
100
AcDbEntity
  8
VITE
100
AcDbPolyline
 90
        6
 70
     1
 43
0.0
 10
-380.9170933945031
 20
58.51880491289671
 10
-397.9691993543859
 20
68.24295092507895
 10
-414.9166098109865
 20
58.33746698188566
 10
-414.8119143077035
 20
38.70783702651193
 10
-397.7598083478195
 20
28.98369101433014
 10
-380.812397891219
 20
38.88917495752298
  0
LINE
  5
17AC21874A3E5E
330
17AC21874A3E4A
100
AcDbEntity
  8
0
100
AcDbLine
 10
-402.331758411528
 20
24.15851315007808
 30
0.0
 11
-508.2438732602634
 21
44.08662128841183
 31
0.0
  0
LINE
  5
17AC21874A3E5F
330
17AC21874A3E4A
100
AcDbEntity
  8
ASSE
100
AcDbLine
 10
-610.6454648109627
 20
243.485355078639
 30
0.0
 11
-666.0483777863694
 21
-50.96505844146554
 31
0.0
  0
LINE
  5
17AC21874A3E60
330
17AC21874A3E4A
100
AcDbEntity
  8
0
100
AcDbLine
 10
-356.9817455566965
 20
44.19551614675242
 30
0.0
 11
-356.8484088427179
 21
19.19587172286742
 31
0.0
  0
LINE
  5
17AC21874A3E61
330
17AC21874A3E4A
100
AcDbEntity
  8
0
100
AcDbLine
 10
-372.8617655695878
 20
48.90812753210525
 30
0.0
 11
-372.7017615128136
 21
18.90855422344271
 31
0.0
  0
LINE
  5
17AC21874A3E62
330
17AC21874A3E4A
100
AcDbEntity
  8
0
100
AcDbLine
 39
0.1234
 10
-402.0551048054227
 20
-313.3155261622931
 30
0.0
 11
-532.0074604391289
 21
-313.3155261622931
 31
0.0
  0
LINE
  5
17AC21874A3E63
330
17AC21874A3E4A
100
AcDbEntity
  8
0
100
AcDbLine
 39
0.1234
 10
-401.983649762368
 20
-313.2940202631261
 30
0.0
 11
-401.983649762368
 21
-183.263181275135
 31
0.0
  0
LINE
  5
17AC21874A3E64
330
17AC21874A3E4A
100
AcDbEntity
  8
ASSE
100
AcDbLine
 10
-742.7886885138311
 20
9.71022891807911
 30
0.0
 11
-789.6612350836587
 21
-32.0644984822236
 31
0.0
  0
LINE
  5
17AC21874A3E65
330
17AC21874A3E4A
100
AcDbEntity
  8
ASSE
100
AcDbLine
 10
-744.0684645590695
 20
-32.89183457459853
 30
0.0
 11
-785.256610027603
 21
13.32254877969376
 31
0.0
  0
CIRCLE
  5
17AC21874A3E66
330
17AC21874A3E4A
100
AcDbEntity
  8
0
100
AcDbCircle
 10
-764.6639860453194
 20
-9.787199656938128
 30
0.0
 40
14.5
  0
LINE
  5
17AC21874A3E67
330
17AC21874A3E4A
100
AcDbEntity
  8
0
100
AcDbLine
 10
-774.393189429458
 20
4.45749868016469
 30
0.0
 11
-776.3354220042599
 21
2.787848230106419
 31
0.0
  0
ARC
  5
17AC21874A3E68
330
17AC21874A3E4A
100
AcDbEntity
  8
0
100
AcDbCircle
 10
-764.6595075999587
 20
-9.788042307880687
 30
0.0
 40
17.08566650733891
100
AcDbArc
 50
131.7087292011559
 51
311.7087292011629
  0
CIRCLE
  5
17AC21874A3E69
330
17AC21874A3E4A
100
AcDbEntity
  8
0
100
AcDbCircle
 10
-764.6639860453194
 20
-9.787199656938128
 30
0.0
 40
11.0
  0
CIRCLE
  5
17AC21874A3E6A
330
17AC21874A3E4A
100
AcDbEntity
  8
0
100
AcDbCircle
 10
-764.6639860453194
 20
-9.787199656938128
 30
0.0
 40
13.0
  0
LWPOLYLINE
  5
17AC21874A3E6B
330
17AC21874A3E4A
100
AcDbEntity
  8
VITE
100
AcDbPolyline
 90
        6
 70
     1
 43
0.0
 10
-757.5773861858799
 20
-7.300427554250518
 10
-763.2713594713623
 20
-2.410437619950926
 10
-770.3532016214569
 20
-4.896568166500173
 10
-771.7410704860685
 20
-12.27268864734765
 10
-766.0470972005858
 20
-17.16267858164679
 10
-758.9652550504911
 20
-14.67654803509754
  0
CIRCLE
  5
17AC21874A3E6C
330
17AC21874A3E4A
100
AcDbEntity
  8
VITE
100
AcDbCircle
 10
-764.6592283359737
 20
-9.786558100799311
 30
0.0
 40
6.5
  0
CIRCLE
  5
17AC21874A3E6D
330
17AC21874A3E4A
100
AcDbEntity
  8
VITE
100
AcDbCircle
 10
-764.6592283359737
 20
-9.786558100799311
 30
0.0
 40
6.5
  0
CIRCLE
  5
17AC21874A3E6E
330
17AC21874A3E4A
100
AcDbEntity
  8
VITE
100
AcDbCircle
 10
-764.6592283359737
 20
-9.786558100799311
 30
0.0
 40
5.75
  0
LINE
  5
17AC21874A3E6F
330
17AC21874A3E4A
100
AcDbEntity
  8
ASSE
100
AcDbLine
 10
-757.2885655846792
 20
-11.17340005526944
 30
0.0
 11
-772.0298910872681
 21
-8.399716146328273
 31
0.0
  0
LINE
  5
17AC21874A3E70
330
17AC21874A3E4A
100
AcDbEntity
  8
ASSE
100
AcDbLine
 10
-766.0460702904449
 20
-17.15722085209359
 30
0.0
 11
-763.2723863815031
 21
-2.415895349504125
 31
0.0
  0
CIRCLE
  5
17AC21874A3E71
330
17AC21874A3E4A
100
AcDbEntity
  8
VITE
100
AcDbCircle
 10
-764.6592283359737
 20
-9.786558100799311
 30
0.0
 40
4.978571428571428
  0
LINE
  5
17AC21874A3E72
330
17AC21874A3E4A
100
AcDbEntity
  8
0
100
AcDbLine
 10
-753.3112693853406
 20
-22.3528164452116
 30
0.0
 11
-737.2101329246192
 21
-5.591397227245806
 31
0.0
  0
LINE
  5
17AC21874A3E73
330
17AC21874A3E4A
100
AcDbEntity
  8
0
100
AcDbLine
 10
-754.9258257704596
 20
-24.03358329592606
 30
0.0
 11
-754.2737530496583
 21
-23.35477007919394
 31
0.0
  0
LINE
  5
17AC21874A3E74
330
17AC21874A3E4A
100
AcDbEntity
  8
0
100
AcDbLine
 10
-774.393189429458
 20
4.45749868016469
 30
0.0
 11
-755.7105127238249
 21
17.22298304672063
 31
0.0
  0
LINE
  5
17AC21874A3E75
330
17AC21874A3E4A
100
AcDbEntity
  8
0
100
AcDbLine
 10
-532.4608370259278
 20
-182.4698381590849
 30
0.0
 11
-532.4608370259278
 21
-313.5740854924786
 31
0.0
  0
CIRCLE
  5
17AC21874A3E76
330
17AC21874A3E4A
100
AcDbEntity
  8
0
100
AcDbCircle
 10
-486.2070795236861
 20
1.967134237426989
 30
0.0
 40
14.5
  0
LINE
  5
17AC21874A3E77
330
17AC21874A3E4A
100
AcDbEntity
  8
ASSE
100
AcDbLine
 10
-479.3332094530085
 20
-162.8020927607319
 30
0.0
 11
-541.23735749416
 21
-163.132261283991
 31
0.0
  0
CIRCLE
  5
17AC21874A3E78
330
17AC21874A3E4A
100
AcDbEntity
  8
0
100
AcDbCircle
 10
-510.2852869310707
 20
-162.9671770408019
 30
0.0
 40
13.0
  0
CIRCLE
  5
17AC21874A3E79
330
17AC21874A3E4A
100
AcDbEntity
  8
0
100
AcDbCircle
 10
-510.2852869310707
 20
-162.9671770408019
 30
0.0
 40
14.5
  0
LINE
  5
17AC21874A3E7A
330
17AC21874A3E4A
100
AcDbEntity
  8
ASSE
100
AcDbLine
 10
-455.2550020456244
 20
2.132218517497904
 30
0.0
 11
-517.1591500867759
 21
1.802049994237904
 31
0.0
  0
LINE
  5
17AC21874A3E7B
330
17AC21874A3E4A
100
AcDbEntity
  8
0
100
AcDbLine
 10
-532.1836381214664
 20
-182.0842431112576
 30
0.0
 11
-532.1836381214664
 21
3.18143307471405
 31
0.0
  0
LINE
  5
17AC21874A3E7C
330
17AC21874A3E4A
100
AcDbEntity
  8
ASSE
100
AcDbLine
 10
-510.2407370053588
 20
-170.46553583335
 30
0.0
 11
-510.3207390337458
 21
-155.4657491790192
 31
0.0
  0
LINE
  5
17AC21874A3E7D
330
17AC21874A3E4A
100
AcDbEntity
  8
ASSE
100
AcDbLine
 10
-510.441559861377
 20
-133.6671622574624
 30
0.0
 11
-510.1066892354131
 21
-196.4529196628962
 31
0.0
  0
LWPOLYLINE
  5
17AC21874A3E7E
330
17AC21874A3E4A
100
AcDbEntity
  8
VITE
100
AcDbPolyline
 90
        6
 70
     1
 43
0.0
 10
-503.8008457861463
 20
-159.1782515867287
 10
-510.3207686531605
 20
-155.4601957585416
 10
-516.8006608865664
 20
-159.2475866779975
 10
-516.7606302529581
 20
-166.753033425641
 10
-510.2407073859439
 20
-170.4710892538276
 10
-503.760815152538
 20
-166.6836983343717
  0
CIRCLE
  5
17AC21874A3E7F
330
17AC21874A3E4A
100
AcDbEntity
  8
VITE
100
AcDbCircle
 10
-510.280738019552
 20
-162.9656425061846
 30
0.0
 40
4.978571428571428
  0
CIRCLE
  5
17AC21874A3E80
330
17AC21874A3E4A
100
AcDbEntity
  8
VITE
100
AcDbCircle
 10
-510.280738019552
 20
-162.9656425061846
 30
0.0
 40
5.75
  0
CIRCLE
  5
17AC21874A3E81
330
17AC21874A3E4A
100
AcDbEntity
  8
VITE
100
AcDbCircle
 10
-510.280738019552
 20
-162.9656425061846
 30
0.0
 40
6.5
  0
CIRCLE
  5
17AC21874A3E82
330
17AC21874A3E4A
100
AcDbEntity
  8
VITE
100
AcDbCircle
 10
-510.280738019552
 20
-162.9656425061846
 30
0.0
 40
6.5
  0
CIRCLE
  5
17AC21874A3E83
330
17AC21874A3E4A
100
AcDbEntity
  8
0
100
AcDbCircle
 10
-510.2852869310707
 20
-162.9671770408019
 30
0.0
 40
11.0
  0
LINE
  5
17AC21874A3E84
330
17AC21874A3E4A
100
AcDbEntity
  8
ASSE
100
AcDbLine
 10
-502.7808446923868
 20
-162.9256414919907
 30
0.0
 11
-517.7806313467178
 21
-163.005643520378
 31
0.0
  0
LINE
  5
17AC21874A3E85
330
17AC21874A3E4A
100
AcDbEntity
  8
ASSE
100
AcDbLine
 10
-325.7857728584279
 20
10.4650669390528
 30
0.0
 11
-324.7243938547738
 21
-188.5356201079919
 31
0.0
  0
CIRCLE
  5
17AC21874A3E86
330
17AC21874A3E4A
100
AcDbEntity
  8
0
100
AcDbCircle
 10
-325.4363268130287
 20
-89.31298426531133
 30
0.0
 40
15.0
  0
LINE
  5
17AC21874A3E87
330
17AC21874A3E4A
100
AcDbEntity
  8
0
100
AcDbLine
 10
-450.803111272761
 20
-108.932563409732
 30
0.0
 11
-450.8897460194742
 21
-92.68919128846551
 31
0.0
  0
LINE
  5
17AC21874A3E88
330
17AC21874A3E4A
100
AcDbEntity
  8
0
100
AcDbLine
 10
-489.7585025066498
 20
-109.2915679951777
 30
0.0
 11
-489.8457256320898
 21
-92.9378792287523
 31
0.0
  0
LINE
  5
17AC21874A3E89
330
17AC21874A3E4A
100
AcDbEntity
  8
0
100
AcDbLine
 10
-433.5518035195689
 20
-77.55550933618519
 30
0.0
 11
-433.3841415053598
 21
-108.9908928367192
 31
0.0
  0
LINE
  5
17AC21874A3E8A
330
17AC21874A3E4A
100
AcDbEntity
  8
0
100
AcDbLine
 10
-462.1724457489917
 20
-109.1444365361328
 30
0.0
 11
-461.8006010624237
 21
-178.8625559326735
 31
0.0
  0
LINE
  5
17AC21874A3E8B
330
17AC21874A3E4A
100
AcDbEntity
  8
0
100
AcDbLine
 10
-441.8008855233154
 20
-178.7558865614908
 30
0.0
 11
-442.172730209884
 21
-109.0377671649491
 31
0.0
  0
LINE
  5
17AC21874A3E8C
330
17AC21874A3E4A
100
AcDbEntity
  8
0
100
AcDbLine
 10
-461.8006010624237
 20
-178.8625559326735
 30
0.0
 11
-441.8008855233154
 21
-178.7558865614908
 31
0.0
  0
LINE
  5
17AC21874A3E8D
330
17AC21874A3E4A
100
AcDbEntity
  8
0
100
AcDbLine
 10
-433.3896701747569
 20
-108.9909223241231
 30
0.0
 11
-489.7585025066498
 21
-109.2915679951777
 31
0.0
  0
LINE
  5
17AC21874A3E8E
330
17AC21874A3E4A
100
AcDbEntity
  8
0
100
AcDbLine
 10
-372.7017615128136
 20
18.90855422344271
 30
0.0
 11
-422.701050360584
 21
18.6418807954858
 31
0.0
  0
LINE
  5
17AC21874A3E8F
330
17AC21874A3E4A
100
AcDbEntity
  8
0
100
AcDbLine
 10
-442.340392224092
 20
-77.60238366441604
 30
0.0
 11
-442.7504174047742
 21
-0.7257049461425141
 31
0.0
  0
LINE
  5
17AC21874A3E90
330
17AC21874A3E4A
100
AcDbEntity
  8
0
100
AcDbLine
 10
-462.7501329438823
 20
-0.8323743173252751
 30
0.0
 11
-462.3401077632006
 21
-77.70905303559789
 31
0.0
  0
LINE
  5
17AC21874A3E91
330
17AC21874A3E4A
100
AcDbEntity
  8
ASSE
100
AcDbLine
 10
-486.3633524539928
 20
31.26714902076651
 30
0.0
 11
-486.0284818280286
 21
-31.51860838466723
 31
0.0
  0
LINE
  5
17AC21874A3E92
330
17AC21874A3E4A
100
AcDbEntity
  8
0
100
AcDbLine
 10
-467.5739521561734
 20
-77.73696797714706
 30
0.0
 11
-441.0963234157827
 21
-77.5957483681666
 31
0.0
  0
LINE
  5
17AC21874A3E93
330
17AC21874A3E4A
100
AcDbEntity
  8
0
100
AcDbLine
 10
-450.8897460194742
 20
-92.68919128846551
 30
0.0
 11
-489.8458407223099
 21
-92.8969653499305
 31
0.0
  0
LINE
  5
17AC21874A3E94
330
17AC21874A3E4A
100
AcDbEntity
  8
0
100
AcDbLine
 10
-467.6073812997465
 20
-77.75281765979776
 30
0.0
 11
-467.527244205695
 21
-92.77792812405255
 31
0.0
  0
CIRCLE
  5
17AC21874A3E95
330
17AC21874A3E4A
100
AcDbEntity
  8
0
100
AcDbCircle
 10
-459.8216629654646
 20
-85.19752726872161
 30
0.0
 40
5.306069902824674
  0
LINE
  5
17AC21874A3E96
330
17AC21874A3E4A
100
AcDbEntity
  8
0
100
AcDbLine
 10
-442.6514094261695
 20
-77.60404248847748
 30
0.0
 11
-433.5573321889658
 21
-77.55553882358867
 31
0.0
  0
LINE
  5
17AC21874A3E97
330
17AC21874A3E4A
100
AcDbEntity
  8
0
100
AcDbLine
 10
-442.7504174047742
 20
-0.7257049461425141
 30
0.0
 11
-462.7501329438823
 21
-0.8323743173252751
 31
0.0
  0
LINE
  5
17AC21874A3E98
330
17AC21874A3E4A
100
AcDbEntity
  8
ASSE
100
AcDbLine
 10
-486.1625295979743
 20
-5.53122455512107
 30
0.0
 11
-486.2425316263613
 21
9.468562099210657
 31
0.0
  0
CIRCLE
  5
17AC21874A3E99
330
17AC21874A3E4A
100
AcDbEntity
  8
0
100
AcDbCircle
 10
-486.2070795236861
 20
1.967134237426989
 30
0.0
 40
13.0
  0
CIRCLE
  5
17AC21874A3E9A
330
17AC21874A3E4A
100
AcDbEntity
  8
0
100
AcDbCircle
 10
-486.2070795236861
 20
1.967134237426989
 30
0.0
 40
11.0
  0
CIRCLE
  5
17AC21874A3E9B
330
17AC21874A3E4A
100
AcDbEntity
  8
VITE
100
AcDbCircle
 10
-486.2025306121677
 20
1.968668772044793
 30
0.0
 40
6.5
  0
CIRCLE
  5
17AC21874A3E9C
330
17AC21874A3E4A
100
AcDbEntity
  8
VITE
100
AcDbCircle
 10
-486.2025306121677
 20
1.968668772044793
 30
0.0
 40
6.5
  0
CIRCLE
  5
17AC21874A3E9D
330
17AC21874A3E4A
100
AcDbEntity
  8
VITE
100
AcDbCircle
 10
-486.2025306121677
 20
1.968668772044793
 30
0.0
 40
5.75
  0
LWPOLYLINE
  5
17AC21874A3E9E
330
17AC21874A3E4A
100
AcDbEntity
  8
VITE
100
AcDbPolyline
 90
        6
 70
     1
 43
0.0
 10
-479.7226383787617
 20
5.75605969150115
 10
-486.2425612457761
 20
9.474115519688211
 10
-492.7224534791823
 20
5.686724600231855
 10
-492.6824228455741
 20
-1.818722147411563
 10
-486.1624999785592
 20
-5.536777975598624
 10
-479.6826077451535
 20
-1.749387056142268
  0
CIRCLE
  5
17AC21874A3E9F
330
17AC21874A3E4A
100
AcDbEntity
  8
VITE
100
AcDbCircle
 10
-486.2025306121677
 20
1.968668772044793
 30
0.0
 40
4.978571428571428
  0
LINE
  5
17AC21874A3EA0
330
17AC21874A3E4A
100
AcDbEntity
  8
ASSE
100
AcDbLine
 10
-478.7026372850021
 20
2.008669786238215
 30
0.0
 11
-493.7024239393336
 21
1.928667757851371
 31
0.0
  0
LINE
  5
17AC21874A3EA1
330
17AC21874A3E4A
100
AcDbEntity
  8
0
100
AcDbLine
 10
-422.701050360584
 20
18.6418807954858
 30
0.0
 11
-422.7284617543575
 21
23.78131371718814
 31
0.0
  0
LINE
  5
17AC21874A3EA2
330
17AC21874A3E4A
100
AcDbEntity
  8
0
100
AcDbLine
 10
-422.7284617543575
 20
23.78131371718814
 30
0.0
 11
-422.7509578022784
 21
27.99915576676153
 31
0.0
  0
LINE
  5
17AC21874A3EA3
330
17AC21874A3E4A
100
AcDbEntity
  8
0
100
AcDbLine
 10
-356.8484088427179
 20
19.19587172286742
 30
0.0
 11
-344.7814769873876
 21
19.26023123991149
 31
0.0
  0
LINE
  5
17AC21874A3EA4
330
17AC21874A3E4A
100
AcDbEntity
  8
ASSE
100
AcDbLine
 10
-548.0883079725063
 20
76.8595219310821
 30
0.0
 11
-802.9479891546493
 21
124.8131606054951
 31
0.0
  0
LINE
  5
17AC21874A3EA5
330
17AC21874A3E4A
100
AcDbEntity
  8
ASSE
100
AcDbLine
 10
-534.535958001242
 20
74.30955211751075
 30
0.0
 11
-361.4153209653898
 21
41.73568858211479
 31
0.0
  0
LINE
  5
17AC21874A3EA6
330
17AC21874A3E4A
100
AcDbEntity
  8
0
100
AcDbLine
 10
-539.3829946163037
 20
233.3496440076999
 30
0.0
 11
-367.0459682919231
 21
234.2688111925329
 31
0.0
  0
CIRCLE
  5
17AC21874A3EA7
330
17AC21874A3E4A
100
AcDbEntity
  8
0
100
AcDbCircle
 10
-638.712316068603
 20
93.91106542870351
 30
0.0
 40
10.0
  0
CIRCLE
  5
17AC21874A3EA8
330
17AC21874A3E4A
100
AcDbEntity
  8
0
100
AcDbCircle
 10
-638.712316068603
 20
93.91106542870351
 30
0.0
 40
18.0
  0
CIRCLE
  5
17AC21874A3EA9
330
17AC21874A3E4A
100
AcDbEntity
  8
0
100
AcDbCircle
 10
-638.712316068603
 20
93.91106542870351
 30
0.0
 40
32.5
  0
LINE
  5
17AC21874A3EAA
330
17AC21874A3E4A
100
AcDbEntity
  8
0
100
AcDbLine
 10
-539.4187730749649
 20
248.5209199868752
 30
0.0
 11
-539.3254373751804
 21
231.0211688901556
 31
0.0
  0
LINE
  5
17AC21874A3EAB
330
17AC21874A3E4A
100
AcDbEntity
  8
0
100
AcDbLine
 10
-559.3251529142882
 20
230.9144995189729
 30
0.0
 11
-559.418488614073
 21
248.4142506156925
 31
0.0
  0
LINE
  5
17AC21874A3EAC
330
17AC21874A3E4A
100
AcDbEntity
  8
0
100
AcDbLine
 10
-589.0251289646348
 20
248.2563422843034
 30
0.0
 11
-588.8967821461426
 21
224.1922662358049
 31
0.0
1001
ACAD
1000
ASC_BOUNDS
1002
{
1070
    19
1005
17AC21874A3EAE
1002
}
  0
LINE
  5
17AC21874A3EAD
330
17AC21874A3E4A
100
AcDbEntity
  8
0
100
AcDbLine
 10
-566.0674687315115
 20
292.2544805100549
 30
0.0
 11
-565.6451850497367
 21
213.0794238030405
 31
0.0
1001
ACAD
1000
ASC_BOUNDS
1002
{
1070
    19
1005
17AC21874A3EAE
1002
}
  0
INSERT
  5
17AC21874A3EAE
330
17AC21874A3E4A
100
AcDbEntity
  8
0
100
AcDbBlockReference
  2
*X13
 10
-2603.058132888725
 20
2968.319166257116
 30
0.0
 50
270.3055866873954
1001
ACAD
1000
HATCH
1002
{
1070
    19
1000
AR-HBONE
1040
1.0
1040
14.14250043499941
1000
ASC_BOUNDS
1070
     2
1070
     1
1070
     4
1005
17AC21874A3EAD
1005
17AC21874A3E55
1005
17AC21874A3EAC
1005
17AC21874A3E59
1070
     1
1070
     7
1005
17AC21874A3EAD
1005
17AC21874A3EB2
1005
17AC21874A3EB5
1005
17AC21874A3EB6
1005
17AC21874A3EB3
1005
17AC21874A3EAC
1005
17AC21874A3E55
1000
ASC_SEEDPOINT
1011
-2082.355644302824
1021
-4460.351260219058
1031
0.0
1002
}
  0
LINE
  5
17AC21874A3EAF
330
17AC21874A3E4A
100
AcDbEntity
  8
0
100
AcDbLine
 10
-539.3254373751804
 20
231.0211688901556
 30
0.0
 11
-559.3251529142882
 21
230.9144995189729
 31
0.0
  0
LINE
  5
17AC21874A3EB0
330
17AC21874A3E4A
100
AcDbEntity
  8
0
100
AcDbLine
 10
-563.8674718497884
 20
212.1461111509859
 30
0.0
 11
-559.2048498115368
 21
230.9741205714406
 31
0.0
  0
LINE
  5
17AC21874A3EB1
330
17AC21874A3E4A
100
AcDbEntity
  8
0
100
AcDbLine
 10
-539.5121087747504
 20
266.0206710835957
 30
0.0
 11
-559.5118243138585
 21
265.914001712413
 31
0.0
  0
LINE
  5
17AC21874A3EB2
330
17AC21874A3E4A
100
AcDbEntity
  8
0
100
AcDbLine
 10
-566.2601287112623
 20
292.378386247203
 30
0.0
 11
-559.3908920903918
 21
265.8556672992729
 31
0.0
1001
ACAD
1000
ASC_BOUNDS
1002
{
1070
    19
1005
17AC21874A3EAE
1002
}
  0
LINE
  5
17AC21874A3EB3
330
17AC21874A3E4A
100
AcDbEntity
  8
0
100
AcDbLine
 10
-589.0251289646348
 20
248.2563422843034
 30
0.0
 11
-589.2331342384413
 21
287.2557875855648
 31
0.0
1001
ACAD
1000
ASC_BOUNDS
1002
{
1070
    19
1005
17AC21874A3EAE
1002
}
  0
LINE
  5
17AC21874A3EB4
330
17AC21874A3E4A
100
AcDbEntity
  8
0
100
AcDbLine
 10
-559.5118243138585
 20
265.914001712413
 30
0.0
 11
-559.418488614073
 21
248.4142506156925
 31
0.0
  0
LINE
  5
17AC21874A3EB5
330
17AC21874A3E4A
100
AcDbEntity
  8
0
100
AcDbLine
 10
-584.25987269646
 20
292.2823838131383
 30
0.0
 11
-566.2601287112623
 21
292.378386247203
 31
0.0
1001
ACAD
1000
ASC_BOUNDS
1002
{
1070
    19
1005
17AC21874A3EAE
1002
}
  0
ARC
  5
17AC21874A3EB6
330
17AC21874A3E4A
100
AcDbEntity
  8
0
100
AcDbCircle
 10
-584.2332053536643
 20
287.2824549283607
 30
0.0
 40
5.0
100
AcDbArc
 50
90.30558668739542
 51
180.3055866873954
1001
ACAD
1000
ASC_BOUNDS
1002
{
1070
    19
1005
17AC21874A3EAE
1002
}
  0
LINE
  5
17AC21874A3EB7
330
17AC21874A3E4A
100
AcDbEntity
  8
0
100
AcDbLine
 10
-539.4187730749649
 20
248.5209199868752
 30
0.0
 11
-539.5121087747504
 21
266.0206710835957
 31
0.0
  0
LINE
  5
17AC21874A3EB8
330
17AC21874A3E4A
100
AcDbEntity
  8
0
100
AcDbLine
 10
-345.5726723748719
 20
167.6034951971407
 30
0.0
 11
-345.6462789407435
 21
181.4041800884035
 31
0.0
  0
LINE
  5
17AC21874A3EB9
330
17AC21874A3E4A
100
AcDbEntity
  8
0
100
AcDbLine
 10
-356.9817456284766
 20
44.19552960508577
 30
0.0
 11
-357.6750965411656
 21
174.1936806092901
 31
0.0
  0
LINE
  5
17AC21874A3EBA
330
17AC21874A3E4A
100
AcDbEntity
  8
0
100
AcDbLine
 10
-393.1741898671255
 20
72.82833392168618
 30
0.0
 11
-499.0863047158606
 21
92.7564420600204
 31
0.0
  0
ARC
  5
17AC21874A3EBB
330
17AC21874A3E4A
100
AcDbEntity
  8
0
100
AcDbCircle
 10
-397.8179606432462
 20
48.14803911610602
 30
0.0
 40
25.11337410049601
100
AcDbArc
 50
349.3439829561735
 51
79.34398295617732
  0
LINE
  5
17AC21874A3EBC
330
17AC21874A3E4A
100
AcDbEntity
  8
0
100
AcDbLine
 10
-370.9671092139363
 20
204.4303440138421
 30
0.0
 11
-371.1271132707104
 21
234.4299173225047
 31
0.0
  0
LINE
  5
17AC21874A3EBD
330
17AC21874A3E4A
100
AcDbEntity
  8
0
100
AcDbLine
 10
-357.6764075131373
 20
174.4394781257272
 30
0.0
 11
-345.6094756578079
 21
174.5038376427703
 31
0.0
  0
LINE
  5
17AC21874A3EBE
330
17AC21874A3E4A
100
AcDbEntity
  8
0
100
AcDbLine
 10
-367.1024215119532
 20
204.4509564973639
 30
0.0
 11
-370.9671092139363
 21
204.4303440138421
 31
0.0
  0
LINE
  5
17AC21874A3EBF
330
17AC21874A3E4A
100
AcDbEntity
  8
0
100
AcDbLine
 10
-293.1330983906939
 20
19.52160786577883
 30
0.0
 11
-293.3447172496297
 21
59.19857356356647
 31
0.0
  0
LINE
  5
17AC21874A3EC0
330
17AC21874A3E4A
100
AcDbEntity
  8
0
100
AcDbLine
 10
-305.9241982613887
 20
167.8149620949505
 30
0.0
 11
-305.1973334413508
 21
31.53320215833969
 31
0.0
  0
LINE
  5
17AC21874A3EC1
330
17AC21874A3E4A
100
AcDbEntity
  8
COSTRUZIONE
 62
     1
100
AcDbLine
 39
0.1234
 10
-62.02393300792664
 20
-80.58625268185982
 30
0.0
 11
-80.77510418833321
 21
-110.842683566947
 31
0.0
  0
LINE
  5
17AC21874A3EC2
330
17AC21874A3E4A
100
AcDbEntity
  8
0
100
AcDbLine
 39
0.1234
 10
-42.99626888477201
 20
-65.30376188736022
 30
0.0
 11
-50.22859448836266
 21
-69.18361547303447
 31
0.0
  0
ARC
  5
17AC21874A3EC3
330
17AC21874A3E4A
100
AcDbEntity
  8
COSTRUZIONE
100
AcDbCircle
 10
-95.878948502507
 20
-150.2190115671819
 30
0.0
 40
25.09637090367701
100
AcDbArc
 50
94.61584905883944
 51
20.45797883069474
  0
LINE
  5
17AC21874A3EC4
330
17AC21874A3E4A
100
AcDbEntity
  8
0
100
AcDbLine
 10
-95.58601740465338
 20
-175.389732774297
 30
0.0
 11
-131.9535425678942
 21
-175.389732774297
 31
0.0
  0
LINE
  5
17AC21874A3EC5
330
17AC21874A3E4A
100
AcDbEntity
  8
0
100
AcDbLine
 10
-97.89857012950699
 20
-125.2040368316624
 30
0.0
 11
-131.9535425678942
 21
-125.2040368316624
 31
0.0
  0
LINE
  5
17AC21874A3EC6
330
17AC21874A3E4A
100
AcDbEntity
  8
0
100
AcDbLine
 10
-133.2560210511281
 20
20.0462997034831
 30
0.0
 11
-132.1893273393
 21
-179.9508556876001
 31
0.0
  0
LINE
  5
17AC21874A3EC7
330
17AC21874A3E4A
100
AcDbEntity
  8
0
100
AcDbLine
 10
-153.0013790071625
 20
-41.9180247602851
 30
0.0
 11
-152.3452057126453
 21
-164.9456482399775
 31
0.0
  0
CIRCLE
  5
17AC21874A3EC8
330
17AC21874A3E4A
100
AcDbEntity
  8
0
100
AcDbCircle
 10
-207.4348403029048
 20
-97.78612681912386
 30
0.0
 40
10.77928353839161
  0
LINE
  5
17AC21874A3EC9
330
17AC21874A3E4A
100
AcDbEntity
  8
0
100
AcDbLine
 10
-221.1266607331927
 20
-95.26793217300769
 30
0.0
 11
-233.1901457991557
 21
-51.09836249799968
 31
0.0
  0
LINE
  5
17AC21874A3ECA
330
17AC21874A3E4A
100
AcDbEntity
  8
0
100
AcDbLine
 10
-262.3008356584944
 20
-165.5321014763451
 30
0.0
 11
-262.9568010354837
 21
-42.54346099027157
 31
0.0
  0
LINE
  5
17AC21874A3ECB
330
17AC21874A3E4A
100
AcDbEntity
  8
ASSE
100
AcDbLine
 10
-207.9809075643814
 20
14.30686347762434
 30
0.0
 11
-207.2055826179478
 21
-131.0608105519811
 31
0.0
  0
LINE
  5
17AC21874A3ECC
330
17AC21874A3E4A
100
AcDbEntity
  8
0
100
AcDbLine
 10
-195.2647795681773
 20
-96.07458733008549
 30
0.0
 11
-183.1771353424031
 21
-50.83161588523103
 31
0.0
  0
LINE
  5
17AC21874A3ECD
330
17AC21874A3E4A
100
AcDbEntity
  8
0
100
AcDbLine
 10
-164.2810334134001
 20
-177.0094791861518
 30
0.0
 11
-250.2370047123199
 21
-177.4679291771006
 31
0.0
  0
ARC
  5
17AC21874A3ECE
330
17AC21874A3E4A
100
AcDbEntity
  8
0
100
AcDbCircle
 10
-250.3010063350298
 20
-165.4680998536357
 30
0.0
 40
12.0
100
AcDbArc
 50
180.3055866873954
 51
270.3055866873954
  0
ARC
  5
17AC21874A3ECF
330
17AC21874A3E4A
100
AcDbEntity
  8
0
100
AcDbCircle
 10
-207.9543708986391
 20
-87.93344809694486
 30
0.0
 40
15.07660028479595
100
AcDbArc
 50
209.1095686839556
 51
227.3828301462501
  0
ARC
  5
17AC21874A3ED0
330
17AC21874A3E4A
100
AcDbEntity
  8
0
100
AcDbCircle
 10
-164.3450350361108
 20
-165.0096498626874
 30
0.0
 40
12.0
100
AcDbArc
 50
270.3055866873954
 51
0.3055866873986775
  0
ARC
  5
17AC21874A3ED1
330
17AC21874A3E4A
100
AcDbEntity
  8
0
100
AcDbCircle
 10
-207.9543708986391
 20
-87.93344809694486
 30
0.0
 40
15.07660028479595
100
AcDbArc
 50
317.0874932552984
 51
327.3173767165694
  0
CIRCLE
  5
17AC21874A3ED2
330
17AC21874A3E4A
100
AcDbEntity
  8
0
100
AcDbCircle
 10
-207.7536542007883
 20
-38.01088677698113
 30
0.0
 40
10.0
  0
LINE
  5
17AC21874A3ED3
330
17AC21874A3E4A
100
AcDbEntity
  8
ASSE
100
AcDbLine
 10
-171.5238744391956
 20
-37.57266057071024
 30
0.0
 11
-244.9652679101516
 21
-37.96436350493582
 31
0.0
  0
CIRCLE
  5
17AC21874A3ED4
330
17AC21874A3E4A
100
AcDbEntity
  8
0
100
AcDbCircle
 10
-207.7536542007883
 20
-38.01088677698113
 30
0.0
 40
21.92606435362723
  0
LINE
  5
17AC21874A3ED5
330
17AC21874A3E4A
100
AcDbEntity
  8
0
100
AcDbLine
 10
-247.450181257009
 20
15.54967955623283
 30
0.0
 11
-168.9114903626912
 21
15.96856915267949
 31
0.0
  0
LINE
  5
17AC21874A3ED6
330
17AC21874A3E4A
100
AcDbEntity
  8
0
100
AcDbLine
 10
-183.4721400448795
 20
-5.869427727567881
 30
0.0
 11
-233.4714288926502
 21
-6.136101155524329
 31
0.0
  0
LINE
  5
17AC21874A3ED7
330
17AC21874A3E4A
100
AcDbEntity
  8
0
100
AcDbLine
 10
-262.6568231461267
 20
-42.6104838789995
 30
0.0
 11
-247.3875091181212
 21
15.63805979114136
 31
0.0
  0
LINE
  5
17AC21874A3ED8
330
17AC21874A3E4A
100
AcDbEntity
  8
0
100
AcDbLine
 10
-233.4714288926502
 20
-6.136101155524329
 30
0.0
 11
-233.2322580880007
 21
-50.97885222087302
 31
0.0
  0
LINE
  5
17AC21874A3ED9
330
17AC21874A3E4A
100
AcDbEntity
  8
0
100
AcDbLine
 10
-305.1973334413508
 20
31.53320215833969
 30
0.0
 11
-305.1329277141588
 21
19.45760624306945
 31
0.0
  0
LINE
  5
17AC21874A3EDA
330
17AC21874A3E4A
100
AcDbEntity
  8
0
100
AcDbLine
 10
-305.1329277141588
 20
19.45760624306945
 30
0.0
 11
-293.1330983906939
 21
19.52160786577883
 31
0.0
  0
LINE
  5
17AC21874A3EDB
330
17AC21874A3E4A
100
AcDbEntity
  8
0
100
AcDbLine
 10
-183.2329692402297
 20
-50.71217879291612
 30
0.0
 11
-183.4721400448795
 21
-5.869427727567881
 31
0.0
  0
LINE
  5
17AC21874A3EDC
330
17AC21874A3E4A
100
AcDbEntity
  8
0
100
AcDbLine
 10
-153.0008050971116
 20
-42.025628635992
 30
0.0
 11
-168.8905751420641
 21
16.0567266752098
 31
0.0
  0
LINE
  5
17AC21874A3EDD
330
17AC21874A3E4A
100
AcDbEntity
  8
ASSE
100
AcDbLine
 10
-152.5681001062744
 20
33.04746082580846
 30
0.0
 11
-152.2332294803107
 21
-29.73829657962483
 31
0.0
  0
LINE
  5
17AC21874A3EDE
330
17AC21874A3E4A
100
AcDbEntity
  8
0
100
AcDbLine
 10
-211.5555391630094
 20
-59.59006381666927
 30
0.0
 11
-211.4065851614703
 21
-87.51783376747221
 31
0.0
  0
LINE
  5
17AC21874A3EDF
330
17AC21874A3E4A
100
AcDbEntity
  8
0
100
AcDbLine
 10
-203.4769999190928
 20
-59.54697656877602
 30
0.0
 11
-203.3254326290864
 21
-87.96471871478184
 31
0.0
  0
LINE
  5
17AC21874A3EE0
330
17AC21874A3E4A
100
AcDbEntity
  8
ASSE
100
AcDbLine
 10
-121.4597496979061
 20
3.912530322539851
 30
0.0
 11
-183.3638977390576
 21
3.582361799280306
 31
0.0
  0
LINE
  5
17AC21874A3EE1
330
17AC21874A3E4A
100
AcDbEntity
  8
ASSE
100
AcDbLine
 10
-152.3672772502561
 20
-3.750912750078668
 30
0.0
 11
-152.4472792786425
 21
11.24887390425306
 31
0.0
  0
CIRCLE
  5
17AC21874A3EE2
330
17AC21874A3E4A
100
AcDbEntity
  8
VITE
100
AcDbCircle
 10
-152.4072782644493
 20
3.74898057708674
 30
0.0
 40
4.978571428571428
  0
ARC
  5
17AC21874A3EE3
330
17AC21874A3E4A
100
AcDbEntity
  8
0
100
AcDbCircle
 10
-152.4118271759678
 20
3.747446042469391
 30
0.0
 40
14.5
100
AcDbArc
 50
224.4532235826828
 51
166.048260837995
  0
ARC
  5
17AC21874A3EE4
330
17AC21874A3E4A
100
AcDbEntity
  8
0
100
AcDbCircle
 10
-152.4118271759678
 20
3.747446042469391
 30
0.0
 40
13.0
100
AcDbArc
 50
208.067214421717
 51
181.6856592318009
  0
CIRCLE
  5
17AC21874A3EE5
330
17AC21874A3E4A
100
AcDbEntity
  8
0
100
AcDbCircle
 10
-152.4118271759678
 20
3.747446042469391
 30
0.0
 40
11.0
  0
LWPOLYLINE
  5
17AC21874A3EE6
330
17AC21874A3E4A
100
AcDbEntity
  8
VITE
100
AcDbPolyline
 90
        6
 70
     1
 43
0.0
 10
-145.9273860310438
 20
7.536371496542642
 10
-152.4473088980578
 20
11.25442732473016
 10
-158.927201131464
 20
7.467036405273802
 10
-158.8871704978558
 20
-0.0384103423691613
 10
-152.3672476308409
 20
-3.756466170556223
 10
-145.8873553974356
 20
0.0309247488992242
  0
CIRCLE
  5
17AC21874A3EE7
330
17AC21874A3E4A
100
AcDbEntity
  8
VITE
100
AcDbCircle
 10
-152.4072782644493
 20
3.74898057708674
 30
0.0
 40
6.5
  0
CIRCLE
  5
17AC21874A3EE8
330
17AC21874A3E4A
100
AcDbEntity
  8
VITE
100
AcDbCircle
 10
-152.4072782644493
 20
3.74898057708674
 30
0.0
 40
6.5
  0
CIRCLE
  5
17AC21874A3EE9
330
17AC21874A3E4A
100
AcDbEntity
  8
VITE
100
AcDbCircle
 10
-152.4072782644493
 20
3.74898057708674
 30
0.0
 40
5.75
  0
LINE
  5
17AC21874A3EEA
330
17AC21874A3E4A
100
AcDbEntity
  8
ASSE
100
AcDbLine
 10
-144.9073849372835
 20
3.788981591280617
 30
0.0
 11
-159.9071715916154
 21
3.708979562892864
 31
0.0
  0
ARC
  5
17AC21874A3EEB
330
17AC21874A3E4A
100
AcDbEntity
  8
COSTRUZIONE
100
AcDbCircle
 10
-60.82278935560953
 20
-93.87143655595048
 30
0.0
 40
4.014477155476527
100
AcDbArc
 50
148.2117796047919
 51
328.2117796047919
  0
LINE
  5
17AC21874A3EEC
330
17AC21874A3E4A
100
AcDbEntity
  8
COSTRUZIONE
100
AcDbLine
 10
-57.66543401689955
 20
-96.35077802032448
 30
0.0
 11
-50.73566971139212
 21
-85.18839471470323
 31
0.0
  0
ARC
  5
17AC21874A3EED
330
17AC21874A3E4A
100
AcDbEntity
  8
0
100
AcDbCircle
 10
-70.99654911895687
 20
-95.09072477567315
 30
0.0
 40
13.0
100
AcDbArc
 50
91.12502195559796
 51
204.4480527542834
  0
ARC
  5
17AC21874A3EEE
330
17AC21874A3E4A
100
AcDbEntity
  8
0
100
AcDbCircle
 10
-70.99654911895687
 20
-95.09072477567315
 30
0.0
 40
11.0
100
AcDbArc
 50
97.7615315563597
 51
198.3204874186282
  0
LINE
  5
17AC21874A3EEF
330
17AC21874A3E4A
100
AcDbEntity
  8
ASSE
100
AcDbLine
 10
-88.93572232097676
 20
-83.97307151301333
 30
0.0
 11
-54.84768306808337
 21
-105.0988500842877
 31
0.0
  0
LINE
  5
17AC21874A3EF0
330
17AC21874A3E4A
100
AcDbEntity
  8
COSTRUZIONE
100
AcDbLine
 10
-58.65158467422361
 20
-137.7893361217352
 30
0.0
 11
-21.77691100148559
 21
-78.28926518455841
 31
0.0
  0
LINE
  5
17AC21874A3EF1
330
17AC21874A3E4A
100
AcDbEntity
  8
COSTRUZIONE
100
AcDbLine
 10
-76.62458832916309
 20
-93.8863222388311
 30
0.0
 11
-54.79799913852502
 21
-107.4131692008036
 31
0.0
  0
LINE
  5
17AC21874A3EF2
330
17AC21874A3E4A
100
AcDbEntity
  8
COSTRUZIONE
100
AcDbLine
 10
-101.5460534212952
 20
-131.0895265997795
 30
0.0
 11
-69.77843292528359
 21
-79.83007167433993
 31
0.0
  0
LINE
  5
17AC21874A3EF3
330
17AC21874A3E4A
100
AcDbEntity
  8
COSTRUZIONE
100
AcDbLine
 10
-98.19320651984027
 20
-130.4179816885097
 30
0.0
 11
-75.85589230964979
 21
-94.36271519814386
 31
0.0
  0
LINE
  5
17AC21874A3EF4
330
17AC21874A3E4A
100
AcDbEntity
  8
COSTRUZIONE
100
AcDbLine
 10
-0.9871926843584333
 20
-20.58536891638528
 30
0.0
 11
-77.08253503320747
 21
-143.3709509103662
 31
0.0
  0
LINE
  5
17AC21874A3EF5
330
17AC21874A3E4A
100
AcDbEntity
  8
COSTRUZIONE
100
AcDbLine
 10
-67.15159480810598
 20
-132.5215255970582
 30
0.0
 11
1.329942012693209
 21
-22.02139385658688
 31
0.0
  0
LINE
  5
17AC21874A3EF6
330
17AC21874A3E4A
100
AcDbEntity
  8
ASSE
100
AcDbLine
 39
0.1234
 10
-96.06653369767947
 20
-118.1033350874947
 30
0.0
 11
-96.06653369767947
 21
-181.3125520926332
 31
0.0
  0
CIRCLE
  5
17AC21874A3EF7
330
17AC21874A3E4A
100
AcDbEntity
  8
COSTRUZIONE
100
AcDbCircle
 10
-95.72002407336503
 20
-150.2644768094736
 30
0.0
 40
20.0
  0
LINE
  5
17AC21874A3EF8
330
17AC21874A3E4A
100
AcDbEntity
  8
COSTRUZIONE
100
AcDbLine
 10
-93.44714002636488
 20
-174.9975455086585
 30
0.0
 11
-118.9590678969775
 21
-159.1867405772735
 31
0.0
  0
LINE
  5
17AC21874A3EF9
330
17AC21874A3E4A
100
AcDbEntity
  8
COSTRUZIONE
100
AcDbLine
 10
-89.99523734677007
 20
-169.4276398295756
 30
0.0
 11
-93.44714002636488
 21
-174.9975455086585
 31
0.0
  0
LINE
  5
17AC21874A3EFA
330
17AC21874A3E4A
100
AcDbEntity
  8
COSTRUZIONE
100
AcDbLine
 10
-67.18779675108589
 20
-132.6261118924771
 30
0.0
 11
-76.07665101164048
 21
-146.9689495741628
 31
0.0
  0
LINE
  5
17AC21874A3EFB
330
17AC21874A3E4A
100
AcDbEntity
  8
ASSE
100
AcDbLine
 39
0.1234
 10
-120.6889086412491
 20
-150.2278247531064
 30
0.0
 11
-65.594353786591
 21
-150.2278247531064
 31
0.0
  0
CIRCLE
  5
17AC21874A3EFC
330
17AC21874A3E4A
100
AcDbEntity
  8
0
100
AcDbCircle
 10
-96.06653369767947
 20
-150.2278247531063
 30
0.0
 40
6.0
  0
LINE
  5
17AC21874A3EFD
330
17AC21874A3E4A
100
AcDbEntity
  8
COSTRUZIONE
100
AcDbLine
 10
-118.9590678969775
 20
-159.1867405772735
 30
0.0
 11
-115.4519941286236
 21
-153.5278121796711
 31
0.0
  0
CIRCLE
  5
17AC21874A3EFE
330
17AC21874A3E4A
100
AcDbEntity
  8
COSTRUZIONE
100
AcDbCircle
 10
-110.8975918395485
 20
-140.8628163504157
 30
0.0
 40
1.5
  0
LINE
  5
17AC21874A3EFF
330
17AC21874A3E4A
100
AcDbEntity
  8
COSTRUZIONE
100
AcDbLine
 10
-67.15159480810598
 20
-132.5215255970582
 30
0.0
 11
-58.65158467422361
 21
-137.7893361217352
 31
0.0
  0
LINE
  5
17AC21874A3F00
330
17AC21874A3E4A
100
AcDbEntity
  8
COSTRUZIONE
100
AcDbLine
 10
-67.15159480810598
 20
-132.5215255970582
 30
0.0
 11
-66.96937661419951
 21
-132.2275027791287
 31
0.0
  0
LINE
  5
17AC21874A3F01
330
17AC21874A3E4A
100
AcDbEntity
  8
COSTRUZIONE
100
AcDbLine
 10
-69.46952745670706
 20
-131.0850061330261
 30
0.0
 11
-67.15159480810598
 21
-132.5215255970582
 31
0.0
  0
ARC
  5
17AC21874A3F02
330
17AC21874A3E4A
100
AcDbEntity
  8
COSTRUZIONE
100
AcDbCircle
 10
-22.77608129837313
 20
-32.44685077456961
 30
0.0
 40
3.97942060725154
100
AcDbArc
 50
324.5619765594824
 51
149.4298783302872
  0
LINE
  5
17AC21874A3F03
330
17AC21874A3E4A
100
AcDbEntity
  8
COSTRUZIONE
100
AcDbLine
 10
-38.07188077793035
 20
-49.56783976331121
 30
0.0
 11
-26.1165814504991
 21
-30.27706137241671
 31
0.0
  0
LINE
  5
17AC21874A3F04
330
17AC21874A3E4A
100
AcDbEntity
  8
COSTRUZIONE
100
AcDbLine
 10
-19.3490007655464
 20
-34.47121316721132
 30
0.0
 11
-31.27187267082468
 21
-53.78208818305302
 31
0.0
  0
LINE
  5
17AC21874A3F05
330
17AC21874A3E4A
100
AcDbEntity
  8
COSTRUZIONE
100
AcDbLine
 10
-21.77691100148559
 20
-78.28926518455841
 30
0.0
 11
-30.29858540512646
 21
-73.00802840903634
 31
0.0
  0
LINE
  5
17AC21874A3F06
330
17AC21874A3E4A
100
AcDbEntity
  8
VITE
100
AcDbLine
 10
-26.89113341260031
 20
-88.00170750044093
 30
0.0
 11
-22.72612844699779
 21
-90.58293465753264
 31
0.0
  0
LINE
  5
17AC21874A3F07
330
17AC21874A3E4A
100
AcDbEntity
  8
VITE
100
AcDbLine
 10
-28.57156496997232
 20
-90.71321073314948
 30
0.0
 11
-24.40656000436979
 21
-93.29443789024116
 31
0.0
  0
LINE
  5
17AC21874A3F08
330
17AC21874A3E4A
100
AcDbEntity
  8
VITE
100
AcDbLine
 10
-28.41135000199688
 20
-88.93603427482117
 30
0.0
 11
-22.5166700248833
 21
-79.42452293500673
 31
0.0
  0
ARC
  5
17AC21874A3F09
330
17AC21874A3E4A
100
AcDbEntity
  8
VITE
100
AcDbCircle
 10
-16.62399947421772
 20
-89.65880155056721
 30
0.0
 40
10.39999999998251
100
AcDbArc
 50
125.591914656718
 51
170.8316445528757
  0
LINE
  5
17AC21874A3F0A
330
17AC21874A3E4A
100
AcDbEntity
  8
ASSE
100
AcDbLine
 10
-34.75520590832298
 20
-78.42213729084665
 30
0.0
 11
-14.02279219014099
 21
-91.27087811190154
 31
0.0
  0
LINE
  5
17AC21874A3F0B
330
17AC21874A3E4A
100
AcDbEntity
  8
COSTRUZIONE
100
AcDbLine
 10
-24.87580847388745
 20
-21.05256091775959
 30
0.0
 11
-38.65725797416758
 21
-29.61617849297977
 31
0.0
  0
LINE
  5
17AC21874A3F0C
330
17AC21874A3E4A
100
AcDbEntity
  8
COSTRUZIONE
100
AcDbLine
 10
-77.9808948431205
 20
-93.04576256697464
 30
0.0
 11
-38.46975448738067
 21
-29.2915535171644
 31
0.0
  0
LINE
  5
17AC21874A3F0D
330
17AC21874A3E4A
100
AcDbEntity
  8
COSTRUZIONE
100
AcDbLine
 10
-75.85589230964979
 20
-94.36271519814386
 30
0.0
 11
-77.9808948431205
 21
-93.04576256697464
 31
0.0
  0
LINE
  5
17AC21874A3F0E
330
17AC21874A3E4A
100
AcDbEntity
  8
COSTRUZIONE
100
AcDbLine
 10
-51.13866283304742
 20
-70.65207948025499
 30
0.0
 11
-44.46889576338139
 21
-59.8899065780181
 31
0.0
  0
LWPOLYLINE
  5
17AC21874A3F0F
330
17AC21874A3E4A
100
AcDbEntity
  8
VITE
100
AcDbPolyline
 90
        6
 70
     1
 43
0.0
 10
-38.10459701785044
 20
-64.33789565345932
 10
-31.49065613651783
 20
-60.78978075233613
 10
-31.25644333577043
 20
-53.28788247941225
 10
-37.63617141635541
 20
-49.33409910761156
 10
-44.25011229768801
 20
-52.88221400873476
 10
-44.48432509843541
 20
-60.38411228165864
  0
LINE
  5
17AC21874A3F10
330
17AC21874A3E4A
100
AcDbEntity
  8
ASSE
100
AcDbLine
 10
-42.34802316307832
 20
-64.06100599433557
 30
0.0
 11
-33.39274527112753
 21
-49.61098876673531
 31
0.0
  0
CIRCLE
  5
17AC21874A3F11
330
17AC21874A3E4A
100
AcDbEntity
  8
VITE
100
AcDbCircle
 10
-37.87038421710304
 20
-56.83599738053533
 30
0.0
 40
6.5
  0
LINE
  5
17AC21874A3F12
330
17AC21874A3E4A
100
AcDbEntity
  8
ASSE
100
AcDbLine
 10
-55.41480521819517
 20
-85.14524571127935
 30
0.0
 11
-46.45952732624436
 21
-70.6952284836791
 31
0.0
  0
LINE
  5
17AC21874A3F13
330
17AC21874A3E4A
100
AcDbEntity
  8
ASSE
100
AcDbLine
 10
-58.16217488601978
 20
-73.44259815150394
 30
0.0
 11
-43.71215765841975
 21
-82.39787604345451
 31
0.0
  0
LWPOLYLINE
  5
17AC21874A3F14
330
17AC21874A3E4A
100
AcDbEntity
  8
VITE
100
AcDbPolyline
 90
        6
 70
     1
 43
0.0
 10
-51.17137907296728
 20
-85.42213537040311
 10
-44.55743819163489
 20
-81.8740204692799
 10
-44.32322539088727
 20
-74.37212219635603
 10
-50.70295347147248
 20
-70.41833882455534
 10
-57.31689435280486
 20
-73.96645372567855
 10
-57.55110715355226
 20
-81.46835199860243
  0
CIRCLE
  5
17AC21874A3F15
330
17AC21874A3E4A
100
AcDbEntity
  8
VITE
100
AcDbCircle
 10
-50.93716627221988
 20
-77.92023709747912
 30
0.0
 40
6.5
  0
LINE
  5
17AC21874A3F16
330
17AC21874A3E4A
100
AcDbEntity
  8
COSTRUZIONE
100
AcDbLine
 10
-57.53567781849824
 20
-80.97414629496189
 30
0.0
 11
-64.40222931958647
 21
-92.0538457394773
 31
0.0
  0
ARC
  5
17AC21874A3F17
330
17AC21874A3E4A
100
AcDbEntity
  8
VITE
100
AcDbCircle
 10
-26.71983470408441
 20
-89.9843368001906
 30
0.0
 40
1.990015625005356
100
AcDbArc
 50
94.93807888100265
 51
201.4854803285026
  0
LINE
  5
17AC21874A3F18
330
17AC21874A3E4A
100
AcDbEntity
  8
COSTRUZIONE
100
AcDbLine
 10
-44.33865472594152
 20
-74.8663278999968
 30
0.0
 11
-37.66888765627527
 21
-64.10415499775945
 31
0.0
  0
LINE
  5
17AC21874A3F19
330
17AC21874A3E4A
100
AcDbEntity
  8
COSTRUZIONE
100
AcDbLine
 10
-39.69871968944381
 20
-67.37944228669812
 30
0.0
 11
-43.12543870877379
 21
-65.25576169916803
 31
0.0
  0
LINE
  5
17AC21874A3F1A
330
17AC21874A3E4A
100
AcDbEntity
  8
ASSE
100
AcDbLine
 10
-45.09539283090293
 20
-52.35835843456015
 30
0.0
 11
-30.64537560330291
 21
-61.31363632651073
 31
0.0
  0
ARC
  5
17AC21874A3F1B
330
17AC21874A3E4A
100
AcDbEntity
  8
VITE
100
AcDbCircle
 10
-20.82515472697082
 20
-80.47282546037626
 30
0.0
 40
1.990015625005242
100
AcDbArc
 50
94.93807888101562
 51
201.4854803285026
  0
LINE
  5
17AC21874A3F1C
330
17AC21874A3E4A
100
AcDbEntity
  8
FILETTO
100
AcDbLine
 10
-18.68607693971444
 20
-93.07115681317759
 30
0.0
 11
-14.47182851997331
 21
-86.2711487060717
 31
0.0
  0
LINE
  5
17AC21874A3F1D
330
17AC21874A3E4A
100
AcDbEntity
  8
VITE
100
AcDbLine
 10
-14.12193079152803
 20
-87.7615669216882
 30
0.0
 11
-17.19565872409839
 21
-92.72125908473254
 31
0.0
  0
LINE
  5
17AC21874A3F1E
330
17AC21874A3E4A
100
AcDbEntity
  8
VITE
100
AcDbLine
 10
-17.82490925465026
 20
-84.193104832475
 30
0.0
 11
-14.47182851997331
 21
-86.2711487060717
 31
0.0
  0
LINE
  5
17AC21874A3F1F
330
17AC21874A3E4A
100
AcDbEntity
  8
VITE
100
AcDbLine
 10
-20.99645343548673
 20
-78.49019616062651
 30
0.0
 11
-16.83144846988443
 21
-81.0714233177182
 31
0.0
  0
LINE
  5
17AC21874A3F20
330
17AC21874A3E4A
100
AcDbEntity
  8
VITE
100
AcDbLine
 10
-22.67688499285873
 20
-81.20169939333505
 30
0.0
 11
-18.51188002725621
 21
-83.78292655042674
 31
0.0
  0
ARC
  5
17AC21874A3F21
330
17AC21874A3E4A
100
AcDbEntity
  8
VITE
100
AcDbCircle
 10
-18.6831787357778
 20
-81.80029725067857
 30
0.0
 40
1.990015625004127
100
AcDbArc
 50
274.9380788811595
 51
21.48548032849109
  0
LINE
  5
17AC21874A3F22
330
17AC21874A3E4A
100
AcDbEntity
  8
FILETTO
100
AcDbLine
 10
-18.11581669612906
 20
-92.15099884114692
 30
0.0
 11
-21.46889743080601
 21
-90.07295496755023
 31
0.0
  0
LINE
  5
17AC21874A3F23
330
17AC21874A3E4A
100
AcDbEntity
  8
VITE
100
AcDbLine
 10
-18.68607693971444
 20
-93.07115681317759
 30
0.0
 11
-22.03915767439184
 21
-90.9931129395809
 31
0.0
  0
LINE
  5
17AC21874A3F24
330
17AC21874A3E4A
100
AcDbEntity
  8
VITE
100
AcDbLine
 10
-17.19565872409839
 20
-92.72125908473254
 30
0.0
 11
-18.68607693971444
 21
-93.07115681317759
 31
0.0
  0
ARC
  5
17AC21874A3F25
330
17AC21874A3E4A
100
AcDbEntity
  8
VITE
100
AcDbCircle
 10
-24.57785871290639
 20
-91.31180859048345
 30
0.0
 40
1.990015625014936
100
AcDbArc
 50
274.938078881578
 51
21.48548032807558
  0
ARC
  5
17AC21874A3F26
330
17AC21874A3E4A
100
AcDbEntity
  8
VITE
100
AcDbCircle
 10
-28.77901396564949
 20
-82.12583250029377
 30
0.0
 40
10.39999999999405
100
AcDbArc
 50
305.5919146567506
 51
350.8316445528489
  0
LINE
  5
17AC21874A3F27
330
17AC21874A3E4A
100
AcDbEntity
  8
VITE
100
AcDbLine
 10
-22.88634341497322
 20
-92.36011111586117
 30
0.0
 11
-16.99166343785964
 21
-82.84859977604673
 31
0.0
  0
LINE
  5
17AC21874A3F28
330
17AC21874A3E4A
100
AcDbEntity
  8
FILETTO
100
AcDbLine
 10
-18.3951694982361
 20
-85.11326280450566
 30
0.0
 11
-15.04208876355915
 21
-87.19130667810237
 31
0.0
  0
LINE
  5
17AC21874A3F29
330
17AC21874A3E4A
100
AcDbEntity
  8
VITE
100
AcDbLine
 10
-14.47182851997331
 20
-86.2711487060717
 30
0.0
 11
-14.12193079152803
 21
-87.7615669216882
 31
0.0
  0
LINE
  5
17AC21874A3F2A
330
17AC21874A3E4A
100
AcDbEntity
  8
ASSE
100
AcDbLine
 10
5.027183685604541
 20
8.060826524407957
 30
0.0
 11
-4.922227796876086
 21
-8.125872062774305
 31
0.0
  0
CIRCLE
  5
17AC21874A3F2B
330
17AC21874A3E4A
100
AcDbEntity
  8
VITE
100
AcDbCircle
 10
0.0
 20
0.0
 30
0.0
 40
6.5
  0
LINE
  5
17AC21874A3F2C
330
17AC21874A3E4A
100
AcDbEntity
  8
ASSE
100
AcDbLine
 10
8.093349293591018
 20
-4.974705741240541
 30
0.0
 11
-8.093349293591018
 21
4.974705741240086
 31
0.0
  0
ARC
  5
17AC21874A3F2D
330
17AC21874A3E4A
100
AcDbEntity
  8
COSTRUZIONE
100
AcDbCircle
 10
-0.0398220755278089
 20
-0.0169086170094488
 30
0.0
 40
10.03538752971838
100
AcDbArc
 50
328.225895213386
 51
148.239699427273
  0
LINE
  5
17AC21874A3F2E
330
17AC21874A3E4A
100
AcDbEntity
  8
COSTRUZIONE
100
AcDbLine
 10
-8.380824593074066
 20
5.563341360490994
 30
0.0
 11
-24.87580847388745
 21
-21.05256091775959
 31
0.0
  0
INSERT
  5
17AC21874A3F2F
330
17AC21874A3E4A
100
AcDbEntity
  8
SEZIONE
100
AcDbBlockReference
  2
*X14
 10
-159.7243589729496
 20
229.7357781843272
 30
0.0
 50
238.2117796047964
1001
ACAD
1000
HATCH
1002
{
1070
    19
1000
AR-SAND
1040
3.0
1040
0.0
1002
}
  0
ARC
  5
17AC21874A3F30
330
17AC21874A3E4A
100
AcDbEntity
  8
COSTRUZIONE
100
AcDbCircle
 10
-0.0164744716630594
 20
-0.0268712009869887
 30
0.0
 40
20.00029388615192
100
AcDbArc
 50
268.2514904710282
 51
208.0303609500807
  0
LINE
  5
17AC21874A3F31
330
17AC21874A3E4A
100
AcDbEntity
  8
COSTRUZIONE
100
AcDbLine
 10
8.508876259284988
 20
-5.2733052135668
 30
0.0
 11
-0.9717537519863981
 21
-20.57101776300124
 31
0.0
  0
LINE
  5
17AC21874A3F32
330
17AC21874A3E4A
100
AcDbEntity
  8
COSTRUZIONE
100
AcDbLine
 10
1.329942012693209
 20
-22.02139385658688
 30
0.0
 11
-0.9814573536855277
 21
-20.58892333982772
 31
0.0
  0
LWPOLYLINE
  5
17AC21874A3F33
330
17AC21874A3E4A
100
AcDbEntity
  8
VITE
100
AcDbPolyline
 90
        6
 70
     1
 43
0.0
 10
0.082593758359053
 20
2.998862829653717
 10
-2.555794513766159
 20
1.570959707760039
 10
-2.638388272124757
 20
-1.427903121893905
 10
-0.0825937583595078
 20
-2.998862829653944
 10
2.555794513765249
 20
-1.570959707760266
 10
2.638388272124757
 20
1.42790312189345
  0
LINE
  5
17AC21874A3F34
330
17AC21874A3E4A
100
AcDbEntity
  8
0
100
AcDbLine
 10
-305.9241982613887
 20
167.8149620949505
 30
0.0
 11
-305.9886039885812
 21
179.8905580102166
 31
0.0
  0
LINE
  5
17AC21874A3F35
330
17AC21874A3E4A
100
AcDbEntity
  8
0
100
AcDbLine
 10
-293.3447172496297
 20
59.19857356356647
 30
0.0
 11
-305.3445465730945
 21
59.13457194085663
 31
0.0
  0
LINE
  5
17AC21874A3F36
330
17AC21874A3E4A
100
AcDbEntity
  8
0
100
AcDbLine
 10
-284.7322728663485
 20
234.7078349433261
 30
0.0
 11
-129.3888260645829
 21
235.5363661169488
 31
0.0
  0
LINE
  5
17AC21874A3F37
330
17AC21874A3E4A
100
AcDbEntity
  8
0
100
AcDbLine
 10
-281.1283933447228
 20
234.9099294928276
 30
0.0
 11
-280.9683892879487
 21
204.910356184165
 31
0.0
  0
LINE
  5
17AC21874A3F38
330
17AC21874A3E4A
100
AcDbEntity
  8
0
100
AcDbLine
 10
-280.9683892879487
 20
204.910356184165
 30
0.0
 11
-284.5732441436198
 21
204.8911295306709
 31
0.0
  0
LINE
  5
17AC21874A3F39
330
17AC21874A3E4A
100
AcDbEntity
  8
0
100
AcDbLine
 10
-129.5866425929969
 20
235.2359747763974
 30
0.0
 11
-129.746646649771
 21
265.2355480850604
 31
0.0
  0
ENDBLK
  5
17AC21874A3F3B
330
17AC21874A3E4A
100
AcDbEntity
  8
0
100
AcDbBlockEnd
  0
BLOCK
  5
17AC21874A42B3
330
17AC21874A42B1
100
AcDbEntity
  8
0
100
AcDbBlockBegin
  2
GENAXEH
 70
     0
 10
0.0
 20
0.0
 30
0.0
  3
GENAXEH
  1

  0
LINE
  5
17AC21874A42B2
330
17AC21874A42B1
100
AcDbEntity
  8
0
100
AcDbLine
 10
-1.0
 20
0.0
 30
0.0
 11
1.0
 21
0.0
 31
0.0
  0
ENDBLK
  5
17AC21874A42B4
330
17AC21874A42B1
100
AcDbEntity
  8
0
100
AcDbBlockEnd
  0
ENDSEC
  0
SECTION
  2
ENTITIES
  0
INSERT
  5
151
330
17AC21874A2FC9
100
AcDbEntity
  8
LINEAFIN
100
AcDbBlockReference
  2
AVE_RENDER
 10
0.0
 20
0.0
 30
0.0
1001
AVE_RENDER
1002
{
1070
     2
1000
Pref
1070
    30
1070
    20
1070
     0
1070
     0
1000

1070
    10
1070
     0
1070
    30
1040
1.0
1070
     1
1040
0.3
1040
0.7
1040
0.0
1040
10.0
1010
-1.0
1020
-1.0
1030
-1.0
1040
0.3
1070
    49
1002
}
  0
INSERT
  5
152
330
17AC21874A2FC9
100
AcDbEntity
  8
LINEAFIN
100
AcDbBlockReference
  2
AVE_RENDER
 10
0.0
 20
0.0
 30
0.0
1001
AVE_RENDER
1002
{
1070
     0
1000
Full Opt
1070
     0
1070
     1
1070
     1
1070
     1
1070
     0
1070
     0
1070
     0
1070
     1
1070
     1
1040
0.0001
1040
0.0001
1002
}
  0
INSERT
  5
153
330
17AC21874A2FC9
100
AcDbEntity
  8
LINEAFIN
100
AcDbBlockReference
  2
AVE_RENDER
 10
0.0
 20
0.0
 30
0.0
1001
AVE_RENDER
1002
{
1070
     0
1000
Quick Opt
1070
     0
1070
     1
1070
     1
1070
     1
1070
     0
1070
     0
1070
     1
1002
}
  0
INSERT
  5
D132099FA66
330
17AC21874A2FC9
100
AcDbEntity
  8
BOLLINI
100
AcDbBlockReference
  2
SCALA1
 10
228.4815022492328
 20
131.7646532168282
 30
0.0
  0
LINE
  5
17AC21874A3046
330
17AC21874A2FC9
100
AcDbEntity
  8
ASSE
100
AcDbLine
 10
12117.30449394974
 20
5710.32123772141
 30
0.0
 11
12117.30449394974
 21
4835.583739559208
 31
0.0
  0
LINE
  5
17AC21874A304F
330
17AC21874A2FC9
100
AcDbEntity
  8
0
100
AcDbLine
 10
10617.08366920295
 20
4733.169946741901
 30
0.0
 11
10986.27035977068
 21
4733.169946741901
 31
0.0
  0
LINE
  5
17AC21874A3050
330
17AC21874A2FC9
100
AcDbEntity
  8
0
100
AcDbLine
 10
13613.091305944
 20
4733.169946741901
 30
0.0
 11
13613.091305944
 21
4613.1699467419
 31
0.0
  0
LINE
  5
17AC21874A3051
330
17AC21874A2FC9
100
AcDbEntity
  8
0
100
AcDbLine
 10
13613.091305944
 20
4613.1699467419
 30
0.0
 11
13256.38948795272
 21
4613.1699467419
 31
0.0
  0
LINE
  5
17AC21874A3052
330
17AC21874A2FC9
100
AcDbEntity
  8
0
100
AcDbLine
 10
10617.08366920295
 20
4613.1699467419
 30
0.0
 11
10617.08366920295
 21
4733.169946741901
 31
0.0
  0
LINE
  5
17AC21874A3053
330
17AC21874A2FC9
100
AcDbEntity
  8
ASSE
100
AcDbLine
 10
13637.89160707526
 20
4671.00116592316
 30
0.0
 11
12333.94677239006
 21
4671.00116592316
 31
0.0
  0
LINE
  5
17AC21874A3426
330
17AC21874A2FC9
100
AcDbEntity
  8
0
100
AcDbLine
 10
12525.30113446338
 20
5233.864273041552
 30
0.0
 11
12525.401570175
 21
5233.849520824167
 31
0.0
  0
CIRCLE
  5
17AC21874A37A1
330
17AC21874A2FC9
100
AcDbEntity
  8
ASSE
100
AcDbCircle
 10
12117.30449394974
 20
5271.00116592316
 30
0.0
 40
400.0
  0
DIMENSION
  5
17AC21874A38BB
330
17AC21874A2FC9
100
AcDbEntity
  8
QUOTA
100
AcDbDimension
  2
*D4
 10
10617.08366920295
 20
4041.838943697727
 30
0.0
 11
12115.08748757348
 21
4066.838943697727
 31
0.0
 70
    32
  1
3000 mm
 71
     5
 42
2996.007636741048
  3
BASE
100
AcDbAlignedDimension
 13
13613.091305944
 23
4613.1699467419
 33
0.0
 14
10617.08366920295
 24
4613.1699467419
 34
0.0
100
AcDbRotatedDimension
1001
ACAD
1000
DSTYLE
1002
{
1070
    40
1040
10.0
1002
}
  0
TEXT
  5
17AC21874A3927
330
17AC21874A2FC9
100
AcDbEntity
  8
0
100
AcDbText
 10
-443.9053407570099
 20
2928.639784877186
 30
0.0
 40
60.0
  1

 41
0.8
  7
ROMANS
100
AcDbText
  0
CIRCLE
  5
17AC21874A395D
330
17AC21874A2FC9
100
AcDbEntity
  8
0
100
AcDbCircle
 10
12116.63607110915
 20
5272.093026022886
 30
0.0
 40
438.2287214658336
  0
LINE
  5
17AC21874A3963
330
17AC21874A2FC9
100
AcDbEntity
  8
ASSE
100
AcDbLine
 10
12550.66575551392
 20
5271.00116592316
 30
0.0
 11
11678.40870984664
 21
5271.00116592316
 31
0.0
  0
CIRCLE
  5
17AC21874A3971
330
17AC21874A2FC9
100
AcDbEntity
  8
ASSE
100
AcDbCircle
 10
12116.23668319387
 20
5272.048849820059
 30
0.0
 40
400.0
  0
CIRCLE
  5
17AC21874A3972
330
17AC21874A2FC9
100
AcDbEntity
  8
COSTRUZIONE
100
AcDbCircle
 10
12516.23668319387
 20
5272.048849820059
 30
0.0
 40
20.0
  0
LINE
  5
17AC21874A3973
330
17AC21874A2FC9
100
AcDbEntity
  8
ASSE
100
AcDbLine
 10
12537.73668319387
 20
5272.048849820059
 30
0.0
 11
12494.73668319387
 21
5272.048849820059
 31
0.0
  0
LINE
  5
17AC21874A3974
330
17AC21874A2FC9
100
AcDbEntity
  8
ASSE
100
AcDbLine
 10
12414.282191464
 20
5570.094358090189
 30
0.0
 11
12383.87659987297
 21
5539.688766499168
 31
0.0
  0
CIRCLE
  5
17AC21874A3975
330
17AC21874A2FC9
100
AcDbEntity
  8
COSTRUZIONE
100
AcDbCircle
 10
12399.07939566849
 20
5554.891562294677
 30
0.0
 40
20.0
  0
LINE
  5
17AC21874A3976
330
17AC21874A2FC9
100
AcDbEntity
  8
ASSE
100
AcDbLine
 10
12116.23668319387
 20
5693.548849820059
 30
0.0
 11
12116.23668319387
 21
5650.548849820059
 31
0.0
  0
CIRCLE
  5
17AC21874A3977
330
17AC21874A2FC9
100
AcDbEntity
  8
COSTRUZIONE
100
AcDbCircle
 10
12116.23668319387
 20
5672.048849820059
 30
0.0
 40
20.0
  0
LINE
  5
17AC21874A3978
330
17AC21874A2FC9
100
AcDbEntity
  8
ASSE
100
AcDbLine
 10
11818.19117492374
 20
5570.094358090189
 30
0.0
 11
11848.59676651476
 21
5539.688766499168
 31
0.0
  0
CIRCLE
  5
17AC21874A3979
330
17AC21874A2FC9
100
AcDbEntity
  8
COSTRUZIONE
100
AcDbCircle
 10
11833.39397071925
 20
5554.891562294677
 30
0.0
 40
20.0
  0
LINE
  5
17AC21874A397A
330
17AC21874A2FC9
100
AcDbEntity
  8
ASSE
100
AcDbLine
 10
11694.73668319387
 20
5272.048849820059
 30
0.0
 11
11737.73668319387
 21
5272.048849820059
 31
0.0
  0
CIRCLE
  5
17AC21874A397B
330
17AC21874A2FC9
100
AcDbEntity
  8
COSTRUZIONE
100
AcDbCircle
 10
11716.23668319387
 20
5272.048849820059
 30
0.0
 40
20.0
  0
LINE
  5
17AC21874A397C
330
17AC21874A2FC9
100
AcDbEntity
  8
ASSE
100
AcDbLine
 10
11818.19117492374
 20
4974.003341549929
 30
0.0
 11
11848.59676651476
 21
5004.408933140951
 31
0.0
  0
CIRCLE
  5
17AC21874A397D
330
17AC21874A2FC9
100
AcDbEntity
  8
COSTRUZIONE
100
AcDbCircle
 10
11833.39397071925
 20
4989.20613734544
 30
0.0
 40
20.0
  0
LINE
  5
17AC21874A397E
330
17AC21874A2FC9
100
AcDbEntity
  8
ASSE
100
AcDbLine
 10
12116.23668319387
 20
4850.548849820059
 30
0.0
 11
12116.23668319387
 21
4893.548849820059
 31
0.0
  0
CIRCLE
  5
17AC21874A397F
330
17AC21874A2FC9
100
AcDbEntity
  8
COSTRUZIONE
100
AcDbCircle
 10
12116.23668319387
 20
4872.04884982006
 30
0.0
 40
20.0
  0
LINE
  5
17AC21874A3980
330
17AC21874A2FC9
100
AcDbEntity
  8
ASSE
100
AcDbLine
 10
12414.282191464
 20
4974.003341549929
 30
0.0
 11
12383.87659987297
 21
5004.408933140951
 31
0.0
  0
CIRCLE
  5
17AC21874A3981
330
17AC21874A2FC9
100
AcDbEntity
  8
COSTRUZIONE
100
AcDbCircle
 10
12399.07939566849
 20
4989.20613734544
 30
0.0
 40
20.0
  0
CIRCLE
  5
17AC21874A3982
330
17AC21874A2FC9
100
AcDbEntity
  8
0
100
AcDbCircle
 10
12116.23668319387
 20
5272.048849820059
 30
0.0
 40
430.1155371296354
  0
LINE
  5
17AC21874A3985
330
17AC21874A2FC9
100
AcDbEntity
  8
ASSE
100
AcDbLine
 10
12402.58632612126
 20
4968.058105290601
 30
0.0
 11
12435.08606801055
 21
4816.283708125626
 31
0.0
  0
CIRCLE
  5
17AC21874A3989
330
17AC21874A2FC9
100
AcDbEntity
  8
0
100
AcDbCircle
 10
12434.68925430506
 20
4818.136835487151
 30
0.0
 40
40.0
  0
LINE
  5
17AC21874A3990
330
17AC21874A2FC9
100
AcDbEntity
  8
ASSE
100
AcDbLine
 10
12434.68925430506
 20
4818.136835487151
 30
0.0
 11
12313.99816313474
 21
4707.623432136453
 31
0.0
  0
LINE
  5
17AC21874A3991
330
17AC21874A2FC9
100
AcDbEntity
  8
ASSE
100
AcDbLine
 10
12434.68925430506
 20
4818.136835487151
 30
0.0
 11
12590.05149720286
 21
4766.735260432092
 31
0.0
  0
ARC
  5
17AC21874A3993
330
17AC21874A2FC9
100
AcDbEntity
  8
0
100
AcDbCircle
 10
12434.68925430506
 20
4818.136835487151
 30
0.0
 40
150.0
100
AcDbArc
 50
170.6887760885409
 51
213.8767124946415
  0
ARC
  5
17AC21874A3995
330
17AC21874A2FC9
100
AcDbEntity
  8
0
100
AcDbCircle
 10
12577.09749348982
 20
4771.021090642185
 30
0.0
 40
22.50076644554639
100
AcDbArc
 50
75.99457924974863
 51
247.3918410528657
  0
ARC
  5
17AC21874A3997
330
17AC21874A2FC9
100
AcDbEntity
  8
0
100
AcDbCircle
 10
12324.0613155196
 20
4716.83797488111
 30
0.0
 40
22.50076644554639
100
AcDbArc
 50
316.7808197899643
 51
128.1780815930822
  0
ARC
  5
17AC21874A3998
330
17AC21874A2FC9
100
AcDbEntity
  8
0
100
AcDbCircle
 10
12434.68925430506
 20
4818.136835487151
 30
0.0
 40
150.0
100
AcDbArc
 50
350.2959483481888
 51
33.71518585915126
  0
ARC
  5
17AC21874A399A
330
17AC21874A2FC9
100
AcDbEntity
  8
0
100
AcDbCircle
 10
12434.68925430506
 20
4818.136835487151
 30
0.0
 40
150.0
100
AcDbArc
 50
231.0821888884053
 51
273.2525857514743
  0
LINE
  5
17AC21874A399C
330
17AC21874A2FC9
100
AcDbEntity
  8
0
100
AcDbLine
 10
12558.30409086181
 20
4733.169946741901
 30
0.0
 11
13217.94351973612
 21
4733.169946741901
 31
0.0
  0
ARC
  5
17AC21874A399E
330
17AC21874A2FC9
100
AcDbEntity
  8
0
100
AcDbCircle
 10
12434.14039864195
 20
4817.634263949429
 30
0.0
 40
177.595124308872
100
AcDbArc
 50
166.4287262224857
 51
270.0
  0
LINE
  5
17AC21874A399F
330
17AC21874A2FC9
100
AcDbEntity
  8
0
100
AcDbLine
 10
12434.14039864195
 20
4640.039139640557
 30
0.0
 11
12434.14039864195
 21
4577.411474034584
 31
0.0
  0
LINE
  5
17AC21874A39A0
330
17AC21874A2FC9
100
AcDbEntity
  8
0
100
AcDbLine
 10
12434.14039864195
 20
4577.411474034584
 30
0.0
 11
12117.50368674546
 21
4577.411474034584
 31
0.0
  0
ARC
  5
17AC21874A39A3
330
17AC21874A2FC9
100
AcDbEntity
  8
0
100
AcDbCircle
 10
11654.91513347637
 20
4771.021090642185
 30
0.0
 40
22.50076644554639
100
AcDbArc
 50
292.6081589471343
 51
104.0054207502514
  0
ARC
  5
17AC21874A39A4
330
17AC21874A2FC9
100
AcDbEntity
  8
0
100
AcDbCircle
 10
11797.32337266113
 20
4818.136835487151
 30
0.0
 40
150.0
100
AcDbArc
 50
206.909528045575
 51
249.0749578734532
  0
LINE
  5
17AC21874A39A5
330
17AC21874A2FC9
100
AcDbEntity
  8
ASSE
100
AcDbLine
 10
11797.32337266113
 20
4818.136835487151
 30
0.0
 11
11641.96112976334
 21
4766.735260432092
 31
0.0
  0
ARC
  5
17AC21874A39A6
330
17AC21874A2FC9
100
AcDbEntity
  8
0
100
AcDbCircle
 10
11797.32337266113
 20
4818.136835487151
 30
0.0
 40
150.0
100
AcDbArc
 50
89.08718711653019
 51
129.938142509638
  0
LINE
  5
17AC21874A39A7
330
17AC21874A2FC9
100
AcDbEntity
  8
ASSE
100
AcDbLine
 10
11829.42630084493
 20
4968.058105290601
 30
0.0
 11
11796.92655895564
 21
4816.283708125626
 31
0.0
  0
CIRCLE
  5
17AC21874A39A8
330
17AC21874A2FC9
100
AcDbEntity
  8
0
100
AcDbCircle
 10
11797.32337266113
 20
4818.136835487151
 30
0.0
 40
40.0
  0
LINE
  5
17AC21874A39A9
330
17AC21874A2FC9
100
AcDbEntity
  8
ASSE
100
AcDbLine
 10
11797.32337266113
 20
4818.136835487151
 30
0.0
 11
11918.01446383145
 21
4707.623432136453
 31
0.0
  0
ARC
  5
17AC21874A39AA
330
17AC21874A2FC9
100
AcDbEntity
  8
0
100
AcDbCircle
 10
11907.95131144659
 20
4716.83797488111
 30
0.0
 40
22.50076644554639
100
AcDbArc
 50
51.82191840691776
 51
223.2191802100357
  0
ARC
  5
17AC21874A39AB
330
17AC21874A2FC9
100
AcDbEntity
  8
0
100
AcDbCircle
 10
11797.32337266113
 20
4818.136835487151
 30
0.0
 40
150.0
100
AcDbArc
 50
326.1232875053585
 51
8.913137974462934
  0
ARC
  5
17AC21874A39AC
330
17AC21874A2FC9
100
AcDbEntity
  8
0
100
AcDbCircle
 10
11797.87222832425
 20
4817.634263949429
 30
0.0
 40
177.595124308872
100
AcDbArc
 50
270.0
 51
13.57127377751427
  0
LINE
  5
17AC21874A39AD
330
17AC21874A2FC9
100
AcDbEntity
  8
0
100
AcDbLine
 10
11797.87222832425
 20
4640.039139640557
 30
0.0
 11
11797.87222832425
 21
4577.411474034584
 31
0.0
  0
LINE
  5
17AC21874A39AE
330
17AC21874A2FC9
100
AcDbEntity
  8
0
100
AcDbLine
 10
11797.87222832425
 20
4577.411474034584
 30
0.0
 11
12114.50894022073
 21
4577.411474034584
 31
0.0
  0
LINE
  5
17AC21874A39AF
330
17AC21874A2FC9
100
AcDbEntity
  8
ASSE
100
AcDbLine
 10
11898.06585457613
 20
4671.00116592316
 30
0.0
 11
10579.32515527851
 21
4671.00116592316
 31
0.0
  0
LINE
  5
17AC21874A39B1
330
17AC21874A2FC9
100
AcDbEntity
  8
0
100
AcDbLine
 10
11892.47387025706
 20
4733.169946741901
 30
0.0
 11
11954.09580944102
 21
4733.169946741901
 31
0.0
  0
LINE
  5
17AC21874A39B2
330
17AC21874A2FC9
100
AcDbEntity
  8
0
100
AcDbLine
 10
11132.30476474338
 20
4613.1699467419
 30
0.0
 11
11023.34052262377
 21
4613.1699467419
 31
0.0
  0
LINE
  5
17AC21874A39B3
330
17AC21874A2FC9
100
AcDbEntity
  8
0
100
AcDbLine
 10
12340.65607160603
 20
4732.03332157242
 30
0.0
 11
12279.37012336217
 21
4732.03332157242
 31
0.0
  0
INSERT
  5
17AC21874A3C3F
330
17AC21874A2FC9
100
AcDbEntity
  8
0
100
AcDbBlockReference
  2
A$C57196644
 10
12537.84382042205
 20
5151.23119961537
 30
0.0
 50
186.9035234625556
  0
INSERT
  5
17AC21874A3C40
330
17AC21874A2FC9
100
AcDbEntity
  8
0
100
AcDbBlockReference
  2
A$C57196644
 10
11680.1091553364
 20
5233.23061729339
 30
0.0
 50
345.090738297227
  0
INSERT
  5
17AC21874A3C41
330
17AC21874A2FC9
100
AcDbEntity
  8
0
100
AcDbBlockReference
  2
A$C57196644
 10
11904.53138807137
 20
5655.543388908147
 30
0.0
 50
311.004015303956
  0
INSERT
  5
17AC21874A3C42
330
17AC21874A2FC9
100
AcDbEntity
  8
0
100
AcDbBlockReference
  2
A$C57196644
 10
12421.76385432146
 20
5586.661597589333
 30
0.0
 50
231.7800783170511
  0
LINE
  5
17AC21874A3C44
330
17AC21874A2FC9
100
AcDbEntity
  8
0
100
AcDbLine
 10
13217.94351973612
 20
4532.658217715198
 30
0.0
 11
13217.94351973612
 21
6199.150617716638
 31
0.0
  0
LINE
  5
17AC21874A3C45
330
17AC21874A2FC9
100
AcDbEntity
  8
0
100
AcDbLine
 10
13248.01038992845
 20
6197.934666624054
 30
0.0
 11
13248.0443000283
 21
4532.658217715198
 31
0.0
  0
LINE
  5
17AC21874A3C46
330
17AC21874A2FC9
100
AcDbEntity
  8
0
  6
Continuous
100
AcDbLine
 10
13256.01038992844
 20
6406.812278914914
 30
0.0
 11
13256.45062542905
 21
4323.907648845774
 31
0.0
  0
LINE
  5
17AC21874A3C47
330
17AC21874A2FC9
100
AcDbEntity
  8
0
100
AcDbLine
 10
10993.33449747664
 20
4529.352344070925
 30
0.0
 11
10993.43025126404
 21
5918.943501646308
 31
0.0
  0
LINE
  5
17AC21874A3C48
330
17AC21874A2FC9
100
AcDbEntity
  8
0
100
AcDbLine
 10
11023.45447998076
 20
6198.464424109848
 30
0.0
 11
11023.33449747664
 21
4529.352344070925
 31
0.0
  0
LINE
  5
17AC21874A3C49
330
17AC21874A2FC9
100
AcDbEntity
  8
0
100
AcDbLine
 10
10986.27035977068
 20
6407.106498150143
 30
0.0
 11
10986.27035977068
 21
4323.907648845774
 31
0.0
  0
LINE
  5
17AC21874A3C4A
330
17AC21874A2FC9
100
AcDbEntity
  8
0
  6
Continuous
100
AcDbLine
 10
13247.74579071989
 20
4331.907648845775
 30
0.0
 11
12631.88926490525
 21
4331.907648845775
 31
0.0
  0
LINE
  5
17AC21874A3C4B
330
17AC21874A2FC9
100
AcDbEntity
  8
0
100
AcDbLine
 10
13248.0443000283
 20
4532.658217715198
 30
0.0
 11
12752.43692235605
 21
4532.658217715198
 31
0.0
  0
MTEXT
  5
17AC21874A3C4C
330
17AC21874A2FC9
100
AcDbEntity
  8
0
100
AcDbMText
 10
12801.11324612782
 20
4500.197726979531
 30
0.0
 40
50.0
 41
495.31
 71
     1
 72
     5
  1
 Quadro \Pelettrico
 73
     1
 44
1.0
1001
ACAD
1000
MTEXTBEGIN
1070
    73
1070
     1
1070
    44
1040
1.0
1070
    74
1070
     0
1000
MTEXTEND
  0
LINE
  5
17AC21874A3C4D
330
17AC21874A2FC9
100
AcDbEntity
  8
0
  6
Continuous
100
AcDbLine
 10
13256.45062542905
 20
4323.907648845774
 30
0.0
 11
10986.27035977068
 21
4323.907648845774
 31
0.0
  0
LINE
  5
17AC21874A3C4E
330
17AC21874A2FC9
100
AcDbEntity
  8
0
100
AcDbLine
 10
11191.51011421422
 20
4361.787220354734
 30
0.0
 11
12752.47179900079
 21
4361.787220354734
 31
0.0
  0
LINE
  5
17AC21874A3C4F
330
17AC21874A2FC9
100
AcDbEntity
  8
0
100
AcDbLine
 10
11192.17314548179
 20
4331.921782264427
 30
0.0
 11
12631.55065431035
 21
4331.921782264427
 31
0.0
  0
LINE
  5
17AC21874A3C50
330
17AC21874A2FC9
100
AcDbEntity
  8
0
  6
Continuous
100
AcDbLine
 10
11191.67158298641
 20
4331.907648845775
 30
0.0
 11
10993.22100628461
 21
4331.907648845775
 31
0.0
  0
LINE
  5
17AC21874A3C51
330
17AC21874A2FC9
100
AcDbEntity
  8
0
  6
Continuous
100
AcDbLine
 10
11020.33449747664
 20
4532.352344070925
 30
0.0
 11
10996.33449747664
 21
4532.352344070925
 31
0.0
  0
LINE
  5
17AC21874A3C52
330
17AC21874A2FC9
100
AcDbEntity
  8
0
  6
Continuous
100
AcDbLine
 10
10993.33449747664
 20
4530.494163275192
 30
0.0
 11
10993.33449747664
 21
4331.907648845775
 31
0.0
  0
ARC
  5
17AC21874A3C53
330
17AC21874A2FC9
100
AcDbEntity
  8
0
  6
Continuous
100
AcDbCircle
 10
10996.33449747664
 20
4529.352344070925
 30
0.0
 40
3.000000000000002
100
AcDbArc
 50
90.0
 51
180.0
  0
ARC
  5
17AC21874A3C54
330
17AC21874A2FC9
100
AcDbEntity
  8
0
  6
Continuous
100
AcDbCircle
 10
11191.35691294285
 20
4334.907648845774
 30
0.0
 40
3.000000000000002
100
AcDbArc
 50
270.0
 51
0.0
  0
ARC
  5
17AC21874A3C55
330
17AC21874A2FC9
100
AcDbEntity
  8
0
  6
Continuous
100
AcDbCircle
 10
11191.35691294285
 20
4358.907648845774
 30
0.0
 40
3.000000000000002
100
AcDbArc
 50
0.0
 51
90.0
  0
LINE
  5
17AC21874A3C56
330
17AC21874A2FC9
100
AcDbEntity
  8
0
  6
Continuous
100
AcDbLine
 10
11167.35691294285
 20
4361.907648845774
 30
0.0
 11
11191.35691294285
 21
4361.907648845774
 31
0.0
  0
LINE
  5
17AC21874A3C57
330
17AC21874A2FC9
100
AcDbEntity
  8
0
  6
Continuous
100
AcDbLine
 10
11194.35691294285
 20
4358.907648845774
 30
0.0
 11
11194.35691294285
 21
4334.907648845774
 31
0.0
  0
LINE
  5
17AC21874A3C58
330
17AC21874A2FC9
100
AcDbEntity
  8
0
  6
Continuous
100
AcDbLine
 10
11023.33449747664
 20
4529.352344070925
 30
0.0
 11
11023.33449747664
 21
4502.352344070926
 31
0.0
  0
ARC
  5
17AC21874A3C59
330
17AC21874A2FC9
100
AcDbEntity
  8
0
  6
Continuous
100
AcDbCircle
 10
11020.33449747664
 20
4529.352344070925
 30
0.0
 40
3.000000000000002
100
AcDbArc
 50
0.0
 51
90.0
  0
LINE
  5
17AC21874A3C5A
330
17AC21874A2FC9
100
AcDbEntity
  8
0
100
AcDbLine
 10
12752.43692235605
 20
4532.658217715198
 30
0.0
 11
12752.43692235605
 21
4332.072716422862
 31
0.0
  0
LINE
  5
17AC21874A3C5B
330
17AC21874A2FC9
100
AcDbEntity
  8
0
  6
Continuous
100
AcDbLine
 10
13248.0443000283
 20
4532.658217715198
 30
0.0
 11
13248.01038992845
 21
4331.852292658294
 31
0.0
  0
LINE
  5
17AC21874A3C5C
330
17AC21874A2FC9
100
AcDbEntity
  8
0
  6
Continuous
100
AcDbLine
 10
13049.86219154143
 20
6369.737088622724
 30
0.0
 11
13076.86219154142
 21
6369.737088622724
 31
0.0
  0
LINE
  5
17AC21874A3C5D
330
17AC21874A2FC9
100
AcDbEntity
  8
0
  6
Continuous
100
AcDbLine
 10
13247.08408275214
 20
6399.737088622725
 30
0.0
 11
13049.18007848459
 21
6399.737088622725
 31
0.0
  0
LINE
  5
17AC21874A3C5E
330
17AC21874A2FC9
100
AcDbEntity
  8
0
  6
Continuous
100
AcDbLine
 10
10986.27035977068
 20
6406.812278914914
 30
0.0
 11
13256.54522641575
 21
6406.812278914914
 31
0.0
  0
LINE
  5
17AC21874A3C5F
330
17AC21874A2FC9
100
AcDbEntity
  8
0
100
AcDbLine
 10
13046.68314843942
 20
6368.727206872391
 30
0.0
 11
11189.69238735388
 21
6368.727206872391
 31
0.0
  0
LINE
  5
17AC21874A3C60
330
17AC21874A2FC9
100
AcDbEntity
  8
0
100
AcDbLine
 10
11189.85243978716
 20
6398.812278914913
 30
0.0
 11
13046.68314843942
 21
6398.812278914913
 31
0.0
  0
LINE
  5
17AC21874A3C61
330
17AC21874A2FC9
100
AcDbEntity
  8
0
  6
Continuous
100
AcDbLine
 10
11023.33449747664
 20
6201.495579603426
 30
0.0
 11
11023.33449747664
 21
6228.495579603425
 31
0.0
  0
LINE
  5
17AC21874A3C62
330
17AC21874A2FC9
100
AcDbEntity
  8
0
  6
Continuous
100
AcDbLine
 10
10993.33449747664
 20
5918.101754620987
 30
0.0
 11
10993.33449747664
 21
6398.906355922296
 31
0.0
  0
LINE
  5
17AC21874A3C63
330
17AC21874A2FC9
100
AcDbEntity
  8
0
  6
Continuous
100
AcDbLine
 10
11020.33449747664
 20
6198.495579603426
 30
0.0
 11
10996.33449747664
 21
6198.495579603426
 31
0.0
  0
ARC
  5
17AC21874A3C64
330
17AC21874A2FC9
100
AcDbEntity
  8
0
  6
Continuous
100
AcDbCircle
 10
10996.33449747664
 20
6201.495579603426
 30
0.0
 40
3.000000000000002
100
AcDbArc
 50
180.0
 51
270.0
  0
ARC
  5
17AC21874A3C65
330
17AC21874A2FC9
100
AcDbEntity
  8
0
  6
Continuous
100
AcDbCircle
 10
11020.33449747664
 20
6201.495579603426
 30
0.0
 40
3.000000000000002
100
AcDbArc
 50
270.0
 51
0.0
  0
LINE
  5
17AC21874A3C66
330
17AC21874A2FC9
100
AcDbEntity
  8
0
  6
Continuous
100
AcDbLine
 10
10993.2694547101
 20
6398.812278914913
 30
0.0
 11
11190.1916409257
 21
6398.812278914913
 31
0.0
  0
ARC
  5
17AC21874A3C67
330
17AC21874A2FC9
100
AcDbEntity
  8
0
  6
Continuous
100
AcDbCircle
 10
11189.85243978716
 20
6371.812278914914
 30
0.0
 40
3.000000000000002
100
AcDbArc
 50
270.0
 51
0.0
  0
LINE
  5
17AC21874A3C68
330
17AC21874A2FC9
100
AcDbEntity
  8
0
  6
Continuous
100
AcDbLine
 10
11162.85243978715
 20
6368.812278914914
 30
0.0
 11
11189.85243978716
 21
6368.812278914914
 31
0.0
  0
LINE
  5
17AC21874A3C69
330
17AC21874A2FC9
100
AcDbEntity
  8
0
  6
Continuous
100
AcDbLine
 10
11192.85243978715
 20
6371.812278914914
 30
0.0
 11
11192.85243978715
 21
6395.812278914913
 31
0.0
  0
ARC
  5
17AC21874A3C6A
330
17AC21874A2FC9
100
AcDbEntity
  8
0
  6
Continuous
100
AcDbCircle
 10
11189.85243978716
 20
6395.812278914913
 30
0.0
 40
3.000000000000002
100
AcDbArc
 50
0.0
 51
90.0
  0
ARC
  5
17AC21874A3C6B
330
17AC21874A2FC9
100
AcDbEntity
  8
0
  6
Continuous
100
AcDbCircle
 10
13049.86219154143
 20
6372.737088622725
 30
0.0
 40
3.000000000000002
100
AcDbArc
 50
180.0
 51
270.0
  0
LINE
  5
17AC21874A3C6C
330
17AC21874A2FC9
100
AcDbEntity
  8
0
  6
Continuous
100
AcDbLine
 10
13046.86219154143
 20
6396.737088622725
 30
0.0
 11
13046.86219154143
 21
6372.737088622725
 31
0.0
  0
ARC
  5
17AC21874A3C6D
330
17AC21874A2FC9
100
AcDbEntity
  8
0
  6
Continuous
100
AcDbCircle
 10
13049.86219154143
 20
6396.737088622725
 30
0.0
 40
3.000000000000002
100
AcDbArc
 50
90.0
 51
180.0
  0
LINE
  5
17AC21874A3C6E
330
17AC21874A2FC9
100
AcDbEntity
  8
0
  6
Continuous
100
AcDbLine
 10
13217.08408275214
 20
6202.45886346712
 30
0.0
 11
13217.08408275214
 21
6226.45886346712
 31
0.0
  0
LINE
  5
17AC21874A3C6F
330
17AC21874A2FC9
100
AcDbEntity
  8
0
  6
Continuous
100
AcDbLine
 10
13247.08408275214
 20
6202.189039472165
 30
0.0
 11
13247.08408275214
 21
6399.755915706802
 31
0.0
  0
ARC
  5
17AC21874A3C70
330
17AC21874A2FC9
100
AcDbEntity
  8
0
  6
Continuous
100
AcDbCircle
 10
13244.08408275214
 20
6202.45886346712
 30
0.0
 40
3.000000000000002
100
AcDbArc
 50
270.0
 51
0.0
  0
ARC
  5
17AC21874A3C71
330
17AC21874A2FC9
100
AcDbEntity
  8
0
  6
Continuous
100
AcDbCircle
 10
13220.08408275214
 20
6202.45886346712
 30
0.0
 40
3.000000000000002
100
AcDbArc
 50
180.0
 51
270.0
  0
LINE
  5
17AC21874A3C72
330
17AC21874A2FC9
100
AcDbEntity
  8
0
  6
Continuous
100
AcDbLine
 10
13244.08408275214
 20
6199.45886346712
 30
0.0
 11
13220.08408275214
 21
6199.45886346712
 31
0.0
  0
DIMENSION
  5
17AC21874A3C7C
330
17AC21874A2FC9
100
AcDbEntity
  8
QUOTA
100
AcDbDimension
  2
*D8
 10
13256.45062542905
 20
4168.24314440358
 30
0.0
 11
12121.36049259987
 21
4193.24314440358
 31
0.0
 70
    32
  1
2300 mm
 71
     5
 42
2270.180265658375
  3
BASE
100
AcDbAlignedDimension
 13
10986.27035977068
 23
4323.907648845774
 33
0.0
 14
13256.45062542905
 24
4323.907648845774
 34
0.0
100
AcDbRotatedDimension
1001
ACAD
1000
DSTYLE
1002
{
1070
    40
1040
10.0
1002
}
  0
DIMENSION
  5
17AC21874A3C92
330
17AC21874A2FC9
100
AcDbEntity
  8
QUOTA
100
AcDbDimension
  2
*D9
 10
13692.82907429663
 20
6406.812278914914
 30
0.0
 11
13667.82907429663
 21
5365.359963880346
 31
0.0
 70
    32
  1
2100 mm
 71
     5
 42
2082.904630069139
  3
BASE
100
AcDbAlignedDimension
 13
13256.45062542905
 23
4323.907648845774
 33
0.0
 14
13256.54522641575
 24
6406.812278914914
 34
0.0
 50
90.0
100
AcDbRotatedDimension
1001
ACAD
1000
DSTYLE
1002
{
1070
    40
1040
10.0
1002
}
  0
DIMENSION
  5
17AC21874A3CB1
330
17AC21874A2FC9
100
AcDbEntity
  8
QUOTA
100
AcDbDimension
  2
*D10
 10
10485.28475723414
 20
4671.00116592316
 30
0.0
 11
10460.28475723414
 21
4497.454407384469
 31
0.0
 70
    32
  1
350 mm
 71
     5
 42
347.0935170773855
  3
BASE
100
AcDbAlignedDimension
 13
10986.27035977068
 23
4323.907648845774
 33
0.0
 14
10579.32515527851
 24
4671.00116592316
 34
0.0
 50
90.0
100
AcDbRotatedDimension
1001
ACAD
1000
DSTYLE
1002
{
1070
    40
1040
10.0
1002
}
  0
DIMENSION
  5
17AC21874A3CC7
330
17AC21874A2FC9
100
AcDbEntity
  8
QUOTA
100
AcDbDimension
  2
*D11
 10
10485.28475723414
 20
6407.106498150143
 30
0.0
 11
10460.28475723414
 21
5539.053832036654
 31
0.0
 70
    32
  1
1750 mm
 71
     5
 42
1736.105332226983
  3
BASE
100
AcDbAlignedDimension
 13
10579.32515527851
 23
4671.00116592316
 33
0.0
 14
10986.27035977068
 24
6407.106498150143
 34
0.0
 50
90.0
100
AcDbRotatedDimension
1001
ACAD
1000
DSTYLE
1002
{
1070
    40
1040
10.0
1002
}
  0
ARC
  5
17AC21874A3D3F
330
17AC21874A2FC9
100
AcDbEntity
  8
0
 62
     0
100
AcDbCircle
 10
11384.09317278836
 20
4707.111392617408
 30
0.0
 40
74.71394410719496
100
AcDbArc
 50
243.860060098814
 51
296.139939901186
  0
LINE
  5
17AC21874A3D40
330
17AC21874A2FC9
100
AcDbEntity
  8
0
 62
     0
100
AcDbLine
 10
11315.15189941218
 20
4540.039139640557
 30
0.0
 11
11273.3158947607
 21
4540.039139640557
 31
0.0
  0
LINE
  5
17AC21874A3D42
330
17AC21874A2FC9
100
AcDbEntity
  8
0
 62
     0
100
AcDbLine
 10
11241.35313775148
 20
4637.586962648394
 30
0.0
 11
11241.35313775148
 21
4532.310788558083
 31
0.0
  0
LINE
  5
17AC21874A3D43
330
17AC21874A2FC9
100
AcDbEntity
  8
0
 62
     0
100
AcDbLine
 10
11247.87222832424
 20
4640.039139640557
 30
0.0
 11
11247.87222832424
 21
4546.360600161452
 31
0.0
  0
LINE
  5
17AC21874A3D44
330
17AC21874A2FC9
100
AcDbEntity
  8
0
 62
     0
100
AcDbLine
 10
11132.30476474338
 20
4532.310788558083
 30
0.0
 11
11132.30476474338
 21
4637.586962648394
 31
0.0
  0
LINE
  5
17AC21874A3D45
330
17AC21874A2FC9
100
AcDbEntity
  8
0
 62
     0
100
AcDbLine
 10
11241.35313775148
 20
4532.310788558083
 30
0.0
 11
11132.30476474338
 21
4532.310788558083
 31
0.0
  0
LINE
  5
17AC21874A3D46
330
17AC21874A2FC9
100
AcDbEntity
  8
0
 62
     0
100
AcDbLine
 10
11273.3158947607
 20
4540.039139640557
 30
0.0
 11
11247.87222832424
 21
4579.819464657313
 31
0.0
  0
ARC
  5
17AC21874A3D47
330
17AC21874A2FC9
100
AcDbEntity
  8
0
 62
     0
100
AcDbCircle
 10
11237.7754974547
 20
4451.355915281766
 30
0.0
 40
95.53969920059646
100
AcDbArc
 50
68.16122411322263
 51
83.93359675762301
  0
LINE
  5
17AC21874A3D48
330
17AC21874A2FC9
100
AcDbEntity
  8
0
 62
     0
100
AcDbLine
 10
11247.87222832424
 20
4557.179847852761
 30
0.0
 11
11241.35313775148
 21
4557.179847852761
 31
0.0
  0
LINE
  5
17AC21874A3D49
330
17AC21874A2FC9
100
AcDbEntity
  8
0
 62
     0
100
AcDbLine
 10
11241.35313775148
 20
4637.586962648394
 30
0.0
 11
11132.30476474338
 21
4637.586962648394
 31
0.0
  0
LINE
  5
17AC21874A3D4A
330
17AC21874A2FC9
100
AcDbEntity
  8
0
 62
     0
100
AcDbLine
 10
11247.87222832424
 20
4640.039139640557
 30
0.0
 11
11252.9716995
 21
4640.039139640557
 31
0.0
  0
LINE
  5
17AC21874A3D4B
330
17AC21874A2FC9
100
AcDbEntity
  8
0
 62
     0
100
AcDbLine
 10
11247.87222832424
 20
4622.271375908773
 30
0.0
 11
11241.35313775148
 21
4622.271375908773
 31
0.0
  0
LINE
  5
17AC21874A3D4C
330
17AC21874A2FC9
100
AcDbEntity
  8
0
 62
     0
100
AcDbLine
 10
11664.22196084939
 20
4638.867706469341
 30
0.0
 11
11728.22797911512
 21
4638.867706469341
 31
0.0
  0
ARC
  5
17AC21874A3D4D
330
17AC21874A2FC9
100
AcDbEntity
  8
0
 62
     0
100
AcDbCircle
 10
11574.24133076737
 20
4469.900223762578
 30
0.0
 40
76.82643851075077
100
AcDbArc
 50
65.91665702984674
 51
114.083342970156
  0
LINE
  5
17AC21874A3D50
330
17AC21874A2FC9
100
AcDbEntity
  8
0
 62
     0
100
AcDbLine
 10
11413.71119924457
 20
4540.039139640556
 30
0.0
 11
11351.17681933507
 21
4640.039139640556
 31
0.0
  0
ARC
  5
17AC21874A3D51
330
17AC21874A2FC9
100
AcDbEntity
  8
0
 62
     0
100
AcDbCircle
 10
11446.75883717681
 20
4461.269668822705
 30
0.0
 40
85.42116778541879
100
AcDbArc
 50
67.23957260244763
 51
112.7604273975503
  0
LINE
  5
17AC21874A3D52
330
17AC21874A2FC9
100
AcDbEntity
  8
0
 62
     0
100
AcDbLine
 10
11542.89114522233
 20
4540.039139640553
 30
0.0
 11
11479.80647510905
 21
4540.039139640556
 31
0.0
  0
LINE
  5
17AC21874A3D53
330
17AC21874A2FC9
100
AcDbEntity
  8
0
 62
     0
100
AcDbLine
 10
11417.00952624166
 20
4640.039139640556
 30
0.0
 11
11480.23220519574
 21
4640.039139640554
 31
0.0
  0
ARC
  5
17AC21874A3D54
330
17AC21874A2FC9
100
AcDbEntity
  8
0
 62
     0
100
AcDbCircle
 10
11511.43805976525
 20
4699.735960733894
 30
0.0
 40
67.36108526488816
100
AcDbArc
 50
242.4021779099566
 51
297.5978220900434
  0
LINE
  5
17AC21874A3D55
330
17AC21874A2FC9
100
AcDbEntity
  8
0
 62
     0
100
AcDbLine
 10
11794.19491941964
 20
4538.867706469342
 30
0.0
 11
11794.19491941964
 21
4603.901841183242
 31
0.0
  0
LINE
  5
17AC21874A3D56
330
17AC21874A2FC9
100
AcDbEntity
  8
0
 62
     0
100
AcDbLine
 10
11794.19491941964
 20
4638.862931835475
 30
0.0
 11
11794.19491941964
 21
4603.901841183242
 31
0.0
  0
LINE
  5
17AC21874A3D57
330
17AC21874A2FC9
100
AcDbEntity
  8
0
 62
     0
100
AcDbLine
 10
11797.87222832425
 20
4640.039139640557
 30
0.0
 11
11797.87222832425
 21
4578.986163085717
 31
0.0
  0
LINE
  5
17AC21874A3D58
330
17AC21874A2FC9
100
AcDbEntity
  8
0
 62
     0
100
AcDbLine
 10
11794.19491941964
 20
4538.867706469342
 30
0.0
 11
11728.22797911512
 21
4638.867706469341
 31
0.0
  0
LINE
  5
17AC21874A3D5A
330
17AC21874A2FC9
100
AcDbEntity
  8
0
 62
     0
100
AcDbLine
 10
11794.19491941964
 20
4538.867706469342
 30
0.0
 11
11729.25268500693
 21
4538.867706469342
 31
0.0
  0
LINE
  5
17AC21874A3D5B
330
17AC21874A2FC9
100
AcDbEntity
  8
0
100
AcDbLine
 10
11794.19491941964
 20
4603.901841183242
 30
0.0
 11
11797.87222832425
 21
4603.863485791492
 31
0.0
  0
ARC
  5
17AC21874A3D5C
330
17AC21874A2FC9
100
AcDbEntity
  8
0
 62
     0
100
AcDbCircle
 10
11761.21632273331
 20
4706.197735640889
 30
0.0
 40
74.97708745285752
100
AcDbArc
 50
243.8974590285588
 51
296.0942469269616
  0
LWPOLYLINE
  5
17AC21874A404D
330
17AC21874A2FC9
100
AcDbEntity
  8
SQUADRATURA
100
AcDbPolyline
 90
        4
 70
     1
 43
0.0
 10
9762.99256238345
 20
3911.949265620238
 10
13762.99256238345
 20
3911.949265620238
 10
13762.99256238345
 20
6681.949265620239
 10
9762.99256238345
 20
6681.949265620239
  0
LWPOLYLINE
  5
17AC21874A404E
330
17AC21874A2FC9
100
AcDbEntity
  8
SQUADRATURA
100
AcDbPolyline
 90
        4
 70
     1
 43
0.0
 10
9712.992562383449
 20
3861.949265620238
 10
13812.99256238345
 20
3861.949265620238
 10
13812.99256238345
 20
6731.949265620238
 10
9712.992562383449
 20
6731.949265620238
  0
INSERT
  5
17AC21874A4055
330
17AC21874A2FC9
100
AcDbEntity
  8
0
100
AcDbBlockReference
  2
A$C6
 10
9805.247356557362
 20
3932.249509633751
 30
0.0
  0
LINE
  5
17AC21874A408D
330
17AC21874A2FC9
100
AcDbEntity
  8
SQUADRATURA
100
AcDbLine
 10
11086.06835641215
 20
6643.637311387457
 30
0.0
 11
9784.978954631272
 21
6643.637311387457
 31
0.0
  0
LINE
  5
17AC21874A408E
330
17AC21874A2FC9
100
AcDbEntity
  8
0
100
AcDbLine
 10
9787.681691231298
 20
6531.920021951112
 30
0.0
 11
10985.17106141484
 21
6531.920021951112
 31
0.0
  0
LINE
  5
17AC21874A408F
330
17AC21874A2FC9
100
AcDbEntity
  8
0
100
AcDbLine
 10
9787.681691231298
 20
6520.825826433313
 30
0.0
 11
10985.17106141484
 21
6520.825826433313
 31
0.0
  0
LINE
  5
17AC21874A4090
330
17AC21874A2FC9
100
AcDbEntity
  8
SQUADRATURA
100
AcDbLine
 10
10474.22982034148
 20
6504.458641004233
 30
0.0
 11
11086.06835641215
 21
6504.458641004233
 31
0.0
  0
LINE
  5
17AC21874A4091
330
17AC21874A2FC9
100
AcDbEntity
  8
SQUADRATURA
100
AcDbLine
 10
10362.6529533414
 20
5477.948055973744
 30
0.0
 11
10362.6529533414
 21
6504.458641004233
 31
0.0
  0
TEXT
  5
17AC21874A4092
330
17AC21874A2FC9
100
AcDbEntity
  8
TESTO
100
AcDbText
 10
9790.926495645168
 20
6329.906106712194
 30
0.0
 40
40.0
  1
AR 16T 4S
 41
0.8
  7
ROMANS
100
AcDbText
  0
LINE
  5
17AC21874A4093
330
17AC21874A2FC9
100
AcDbEntity
  8
0
100
AcDbLine
 10
9784.978954631272
 20
6110.896426244528
 30
0.0
 11
10145.67500376337
 21
6110.896426244528
 31
0.0
  0
LINE
  5
17AC21874A4094
330
17AC21874A2FC9
100
AcDbEntity
  8
0
100
AcDbLine
 10
9784.978954631272
 20
6204.721485585632
 30
0.0
 11
10170.67373612625
 21
6204.721485585632
 31
0.0
  0
LINE
  5
17AC21874A4095
330
17AC21874A2FC9
100
AcDbEntity
  8
0
100
AcDbLine
 10
9784.978954631272
 20
6098.217346443052
 30
0.0
 11
10145.67500376337
 21
6098.217346443052
 31
0.0
  0
TEXT
  5
17AC21874A4096
330
17AC21874A2FC9
100
AcDbEntity
  8
TESTO
100
AcDbText
 10
9794.102028615654
 20
6117.298340981158
 30
0.0
 40
40.0
  1
14.000 B/h
 41
0.8
  7
ROMANS
100
AcDbText
  0
LINE
  5
17AC21874A4097
330
17AC21874A2FC9
100
AcDbEntity
  8
0
100
AcDbLine
 10
9784.978954631272
 20
5867.870070699467
 30
0.0
 11
10063.53629733059
 21
5867.870070699467
 31
0.0
  0
LINE
  5
17AC21874A4098
330
17AC21874A2FC9
100
AcDbEntity
  8
0
100
AcDbLine
 10
9784.978954631272
 20
5858.360759465345
 30
0.0
 11
10063.53629733059
 21
5858.360759465345
 31
0.0
  0
TEXT
  5
17AC21874A4099
330
17AC21874A2FC9
100
AcDbEntity
  8
TESTO
100
AcDbText
 10
9790.926495645168
 20
5872.958068673444
 30
0.0
 40
40.0
  1
3000 mm
 41
0.8
  7
ROMANS
100
AcDbText
  0
LINE
  5
17AC21874A409A
330
17AC21874A2FC9
100
AcDbEntity
  8
0
100
AcDbLine
 10
9784.978954631272
 20
5987.99781693889
 30
0.0
 11
10279.66498882709
 21
5987.99781693889
 31
0.0
  0
LINE
  5
17AC21874A409B
330
17AC21874A2FC9
100
AcDbEntity
  8
0
100
AcDbLine
 10
9784.978954631272
 20
5757.104952593415
 30
0.0
 11
10286.34572892824
 21
5757.104952593415
 31
0.0
  0
LINE
  5
17AC21874A409C
330
17AC21874A2FC9
100
AcDbEntity
  8
0
100
AcDbLine
 10
9784.978954631272
 20
5636.970102281264
 30
0.0
 11
10269.92520218531
 21
5636.970102281264
 31
0.0
  0
LINE
  5
17AC21874A409D
330
17AC21874A2FC9
100
AcDbEntity
  8
0
100
AcDbLine
 10
9784.978954631272
 20
5973.733847321679
 30
0.0
 11
10279.23496746288
 21
5973.733847321679
 31
0.0
  0
LINE
  5
17AC21874A409E
330
17AC21874A2FC9
100
AcDbEntity
  8
0
100
AcDbLine
 10
9784.978954631272
 20
5744.425872791939
 30
0.0
 11
10288.69151519574
 21
5744.425872791939
 31
0.0
  0
LINE
  5
17AC21874A409F
330
17AC21874A2FC9
100
AcDbEntity
  8
0
100
AcDbLine
 10
9784.978954631272
 20
5622.706138196111
 30
0.0
 11
10272.27098845281
 21
5622.706138196111
 31
0.0
  0
TEXT
  5
17AC21874A40A0
330
17AC21874A2FC9
100
AcDbEntity
  8
TESTO
100
AcDbText
 10
9790.926495645168
 20
5993.541576558282
 30
0.0
 40
40.0
  1
LUNGHEZZA NASTRO
 41
0.8
  7
ROMANS
100
AcDbText
  0
TEXT
  5
17AC21874A40A1
330
17AC21874A2FC9
100
AcDbEntity
  8
TESTO
100
AcDbText
 10
9787.750971519535
 20
5765.067560211803
 30
0.0
 40
40.0
  1
DIMENSIONI NASTRO
 41
0.8
  7
ROMANS
100
AcDbText
  0
TEXT
  5
17AC21874A40A2
330
17AC21874A2FC9
100
AcDbEntity
  8
TESTO
100
AcDbText
 10
9794.102028615654
 20
5644.484052326965
 30
0.0
 40
40.0
  1
ALTEZZA 100 mm
 41
0.8
  7
ROMANS
100
AcDbText
  0
LINE
  5
17AC21874A40A3
330
17AC21874A2FC9
100
AcDbEntity
  8
SQUADRATURA
100
AcDbLine
 10
9785.274643532645
 20
6189.666669824767
 30
0.0
 11
10363.75675580227
 21
6189.666669824767
 31
0.0
  0
LINE
  5
17AC21874A40A4
330
17AC21874A2FC9
100
AcDbEntity
  8
SQUADRATURA
100
AcDbLine
 10
9785.274643532645
 20
6075.554929483253
 30
0.0
 11
10363.75675580227
 21
6075.554929483253
 31
0.0
  0
LINE
  5
17AC21874A40A5
330
17AC21874A2FC9
100
AcDbEntity
  8
SQUADRATURA
100
AcDbLine
 10
9785.274643532645
 20
5953.518756659239
 30
0.0
 11
10363.75675580227
 21
5953.518756659239
 31
0.0
  0
LINE
  5
17AC21874A40A6
330
17AC21874A2FC9
100
AcDbEntity
  8
SQUADRATURA
100
AcDbLine
 10
9785.274643532645
 20
5845.746547920378
 30
0.0
 11
10363.75675580227
 21
5845.746547920378
 31
0.0
  0
LINE
  5
17AC21874A40A7
330
17AC21874A2FC9
100
AcDbEntity
  8
SQUADRATURA
100
AcDbLine
 10
9785.274643532645
 20
5723.710380628419
 30
0.0
 11
10363.75675580227
 21
5723.710380628419
 31
0.0
  0
LINE
  5
17AC21874A40A8
330
17AC21874A2FC9
100
AcDbEntity
  8
SQUADRATURA
100
AcDbLine
 10
9785.274643532645
 20
5606.428860655437
 30
0.0
 11
10363.75675580227
 21
5606.428860655437
 31
0.0
  0
LINE
  5
17AC21874A40A9
330
17AC21874A2FC9
100
AcDbEntity
  8
0
100
AcDbLine
 10
9785.274643532645
 20
5509.814924141203
 30
0.0
 11
10316.84097327618
 21
5509.814924141203
 31
0.0
  0
LINE
  5
17AC21874A40AA
330
17AC21874A2FC9
100
AcDbEntity
  8
0
100
AcDbLine
 10
9785.274643532645
 20
5493.966070240315
 30
0.0
 11
10319.1867709789
 21
5493.966070240315
 31
0.0
  0
LINE
  5
17AC21874A40AB
330
17AC21874A2FC9
100
AcDbEntity
  8
SQUADRATURA
100
AcDbLine
 10
9785.274643532645
 20
5478.053145164657
 30
0.0
 11
10363.75675580227
 21
5478.053145164656
 31
0.0
  0
TEXT
  5
17AC21874A40AC
330
17AC21874A2FC9
100
AcDbEntity
  8
TESTO
100
AcDbText
 10
9790.926495645168
 20
5520.727293249881
 30
0.0
 40
40.0
  1
LARGHEZZA 120 mm
 41
0.8
  7
ROMANS
100
AcDbText
  0
LINE
  5
17AC21874A40AD
330
17AC21874A2FC9
100
AcDbEntity
  8
0
100
AcDbLine
 10
9784.978954631272
 20
6217.400570919164
 30
0.0
 11
10170.67373612625
 21
6217.400570919164
 31
0.0
  0
TEXT
  5
17AC21874A40AE
330
17AC21874A2FC9
100
AcDbEntity
  8
TESTO
100
AcDbText
 10
9794.102028615654
 20
6225.1888494428
 30
0.0
 40
40.0
  1
PRODUZIONE
 41
0.8
  7
ROMANS
100
AcDbText
  0
LINE
  5
17AC21874A40AF
330
17AC21874A2FC9
100
AcDbEntity
  8
0
100
AcDbLine
 10
9784.978954631272
 20
6323.652498725463
 30
0.0
 11
10285.44583189593
 21
6323.652498725463
 31
0.0
  0
LINE
  5
17AC21874A40B0
330
17AC21874A2FC9
100
AcDbEntity
  8
SQUADRATURA
100
AcDbLine
 10
9785.274643532645
 20
6291.099335896861
 30
0.0
 11
10363.75675580227
 21
6291.099335896861
 31
0.0
  0
LINE
  5
17AC21874A40B1
330
17AC21874A2FC9
100
AcDbEntity
  8
0
100
AcDbLine
 10
9784.978954631272
 20
6309.388529108254
 30
0.0
 11
10287.10817110228
 21
6309.388529108254
 31
0.0
  0
LINE
  5
17AC21874A40B2
330
17AC21874A2FC9
100
AcDbEntity
  8
SQUADRATURA
100
AcDbLine
 10
9784.978954631272
 20
6643.637311387457
 30
0.0
 11
9784.978954631272
 21
5477.419210260176
 31
0.0
  0
LINE
  5
17AC21874A40B3
330
17AC21874A2FC9
100
AcDbEntity
  8
0
100
AcDbLine
 10
10170.67373612625
 20
6204.721485585632
 30
0.0
 11
10190.82385527567
 21
6204.721485585632
 31
0.0
  0
LINE
  5
17AC21874A40B4
330
17AC21874A2FC9
100
AcDbEntity
  8
0
100
AcDbLine
 10
10170.67373612625
 20
6217.400570919164
 30
0.0
 11
10190.82385527567
 21
6217.400570919164
 31
0.0
  0
LINE
  5
17AC21874A40B5
330
17AC21874A2FC9
100
AcDbEntity
  8
0
100
AcDbLine
 10
10063.53629733059
 20
5858.360759465345
 30
0.0
 11
10113.79302101948
 21
5858.360759465345
 31
0.0
  0
LINE
  5
17AC21874A40B6
330
17AC21874A2FC9
100
AcDbEntity
  8
0
100
AcDbLine
 10
10063.53629733059
 20
5867.870070699467
 30
0.0
 11
10113.79302101948
 21
5867.870070699467
 31
0.0
  0
LINE
  5
17AC21874A40B7
330
17AC21874A2FC9
100
AcDbEntity
  8
0
100
AcDbLine
 10
10145.67500376337
 20
6098.217346443052
 30
0.0
 11
10170.69079793051
 21
6098.217346443052
 31
0.0
  0
LINE
  5
17AC21874A40B8
330
17AC21874A2FC9
100
AcDbEntity
  8
0
100
AcDbLine
 10
10145.67500376337
 20
6110.896426244528
 30
0.0
 11
10170.69079793051
 21
6110.896426244528
 31
0.0
  0
TEXT
  5
17AC21874A40B9
330
17AC21874A2FC9
100
AcDbEntity
  8
0
100
AcDbText
 10
9784.575447393905
 20
6542.513877789023
 30
0.0
 40
80.0
  1
ETICAP SYSTEM 
 41
0.8
  7
ROMANS
100
AcDbText
  0
LINE
  5
17AC21874A40BA
330
17AC21874A2FC9
100
AcDbEntity
  8
0
100
AcDbLine
 10
9784.978954631272
 20
6425.94759021507
 30
0.0
 11
10095.67752988459
 21
6425.94759021507
 31
0.0
  0
LINE
  5
17AC21874A40BB
330
17AC21874A2FC9
100
AcDbEntity
  8
0
100
AcDbLine
 10
9784.978954631272
 20
6413.268504881539
 30
0.0
 11
10095.67752988459
 21
6413.268504881539
 31
0.0
  0
TEXT
  5
17AC21874A40BC
330
17AC21874A2FC9
100
AcDbEntity
  8
TESTO
100
AcDbText
 10
9794.102028615654
 20
6431.450112789343
 30
0.0
 40
40.0
  1
MODELLO
 41
0.8
  7
ROMANS
100
AcDbText
  0
LINE
  5
17AC21874A40BD
330
17AC21874A2FC9
100
AcDbEntity
  8
SQUADRATURA
100
AcDbLine
 10
10474.22982034148
 20
6504.458641004233
 30
0.0
 11
9784.978954631272
 21
6504.458641004233
 31
0.0
  0
LINE
  5
17AC21874A40BE
330
17AC21874A2FC9
100
AcDbEntity
  8
SQUADRATURA
100
AcDbLine
 10
9785.274643532645
 20
6395.701770536311
 30
0.0
 11
10363.75675580227
 21
6395.701770536311
 31
0.0
  0
TEXT
  5
17AC21874A40C6
330
17AC21874A2FC9
100
AcDbEntity
  8
TESTO
100
AcDbText
 10
10807.2843979231
 20
6541.232031808437
 30
0.0
 40
48.0
  1
canelli
 41
0.8
  7
ROMANS
100
AcDbText
  0
LINE
  5
17AC21874A40C7
330
17AC21874A2FC9
100
AcDbEntity
  8
SQUADRATURA
100
AcDbLine
 10
11086.15398229881
 20
6504.458641004233
 30
0.0
 11
11086.15398229881
 21
6643.637311387457
 31
0.0
  0
LINE
  5
17AC21874A40C8
330
17AC21874A2FC9
100
AcDbEntity
  8
0
100
AcDbLine
 10
10985.17106141484
 20
6531.920021951112
 30
0.0
 11
11070.70699561974
 21
6531.920021951112
 31
0.0
  0
LINE
  5
17AC21874A40C9
330
17AC21874A2FC9
100
AcDbEntity
  8
0
100
AcDbLine
 10
10985.17106141484
 20
6520.825826433313
 30
0.0
 11
11070.70699561974
 21
6520.825826433313
 31
0.0
  0
CIRCLE
  5
17AC21874A41CC
330
17AC21874A2FC9
100
AcDbEntity
  8
COSTRUZIONE
100
AcDbCircle
 10
11964.2311210037
 20
5640.552978927676
 30
0.0
 40
20.0
  0
LINE
  5
17AC21874A41CD
330
17AC21874A2FC9
100
AcDbEntity
  8
ASSE
100
AcDbLine
 10
11956.00342720785
 20
5660.416388876667
 30
0.0
 11
11972.45881479955
 21
5620.689568978683
 31
0.0
  0
CIRCLE
  5
17AC21874A41CE
330
17AC21874A2FC9
100
AcDbEntity
  8
COSTRUZIONE
100
AcDbCircle
 10
11747.75268094522
 20
5424.074538869195
 30
0.0
 40
20.0
  0
LINE
  5
17AC21874A41CF
330
17AC21874A2FC9
100
AcDbEntity
  8
ASSE
100
AcDbLine
 10
11727.88927099623
 20
5432.302232665046
 30
0.0
 11
11767.61609089422
 21
5415.846845073347
 31
0.0
  0
CIRCLE
  5
17AC21874A41D0
330
17AC21874A2FC9
100
AcDbEntity
  8
COSTRUZIONE
100
AcDbCircle
 10
11747.75268094522
 20
5117.927792977124
 30
0.0
 40
20.0
  0
LINE
  5
17AC21874A41D1
330
17AC21874A2FC9
100
AcDbEntity
  8
ASSE
100
AcDbLine
 10
11727.88927099623
 20
5109.700099181274
 30
0.0
 11
11767.61609089422
 21
5126.155486772973
 31
0.0
  0
CIRCLE
  5
17AC21874A41D2
330
17AC21874A2FC9
100
AcDbEntity
  8
COSTRUZIONE
100
AcDbCircle
 10
11964.2311210037
 20
4901.449352918646
 30
0.0
 40
20.0
  0
LINE
  5
17AC21874A41D3
330
17AC21874A2FC9
100
AcDbEntity
  8
ASSE
100
AcDbLine
 10
11956.00342720785
 20
4881.585942969653
 30
0.0
 11
11972.45881479955
 21
4921.312762867637
 31
0.0
  0
CIRCLE
  5
17AC21874A41D4
330
17AC21874A2FC9
100
AcDbEntity
  8
COSTRUZIONE
100
AcDbCircle
 10
12270.37786689577
 20
4901.449352918646
 30
0.0
 40
20.0
  0
LINE
  5
17AC21874A41D5
330
17AC21874A2FC9
100
AcDbEntity
  8
ASSE
100
AcDbLine
 10
12278.60556069162
 20
4881.585942969653
 30
0.0
 11
12262.15017309993
 21
4921.312762867637
 31
0.0
  0
CIRCLE
  5
17AC21874A41D6
330
17AC21874A2FC9
100
AcDbEntity
  8
COSTRUZIONE
100
AcDbCircle
 10
12486.85630695425
 20
5117.927792977125
 30
0.0
 40
20.0
  0
LINE
  5
17AC21874A41D7
330
17AC21874A2FC9
100
AcDbEntity
  8
ASSE
100
AcDbLine
 10
12506.71971690325
 20
5109.700099181274
 30
0.0
 11
12466.99289700526
 21
5126.155486772973
 31
0.0
  0
CIRCLE
  5
17AC21874A41D8
330
17AC21874A2FC9
100
AcDbEntity
  8
COSTRUZIONE
100
AcDbCircle
 10
12486.85630695425
 20
5424.074538869197
 30
0.0
 40
20.0
  0
LINE
  5
17AC21874A41D9
330
17AC21874A2FC9
100
AcDbEntity
  8
ASSE
100
AcDbLine
 10
12506.71971690325
 20
5432.302232665046
 30
0.0
 11
12466.99289700526
 21
5415.846845073347
 31
0.0
  0
CIRCLE
  5
17AC21874A41DA
330
17AC21874A2FC9
100
AcDbEntity
  8
COSTRUZIONE
100
AcDbCircle
 10
12270.37786689577
 20
5640.552978927676
 30
0.0
 40
20.0
  0
LINE
  5
17AC21874A41DB
330
17AC21874A2FC9
100
AcDbEntity
  8
ASSE
100
AcDbLine
 10
12278.60556069162
 20
5660.416388876669
 30
0.0
 11
12262.15017309993
 21
5620.689568978682
 31
0.0
  0
LINE
  5
17AC21874A41E1
330
17AC21874A2FC9
100
AcDbEntity
  8
ASSE
100
AcDbLine
 10
11795.52011043686
 20
4817.553922555913
 30
0.0
 11
11762.35405878018
 21
4657.305485889962
 31
0.0
  0
LINE
  5
17AC21874A41E2
330
17AC21874A2FC9
100
AcDbEntity
  8
ASSE
100
AcDbLine
 10
11795.52011043686
 20
4817.553922555913
 30
0.0
 11
11951.5730707824
 21
4866.818771844524
 31
0.0
  0
LINE
  5
17AC21874A41E3
330
17AC21874A2FC9
100
AcDbEntity
  8
ASSE
100
AcDbLine
 10
11681.73594631135
 20
4920.316508800672
 30
0.0
 11
11796.92655895564
 21
4816.283708125626
 31
0.0
  0
ARC
  5
17AC21874A41E4
330
17AC21874A2FC9
100
AcDbEntity
  8
0
100
AcDbCircle
 10
11684.90963483049
 20
4917.450236128471
 30
0.0
 40
22.5
100
AcDbArc
 50
232.8418094236519
 51
44.23936481430658
  0
ARC
  5
17AC21874A41E5
330
17AC21874A2FC9
100
AcDbEntity
  8
0
100
AcDbCircle
 10
11797.32337266113
 20
4818.136835487151
 30
0.0
 40
150.0
100
AcDbArc
 50
147.1430317283194
 51
189.7040516518112
  0
ARC
  5
17AC21874A41E6
330
17AC21874A2FC9
100
AcDbEntity
  8
0
100
AcDbCircle
 10
11765.31101503251
 20
4671.592613632254
 30
0.0
 40
22.5
100
AcDbArc
 50
351.9786247874643
 51
163.3761801781231
  0
ARC
  5
17AC21874A41E7
330
17AC21874A2FC9
100
AcDbEntity
  8
0
100
AcDbCircle
 10
11797.32337266113
 20
4818.136835487151
 30
0.0
 40
150.0
100
AcDbArc
 50
266.2798470921349
 51
308.9178111115947
  0
ARC
  5
17AC21874A41E8
330
17AC21874A2FC9
100
AcDbEntity
  8
0
100
AcDbCircle
 10
11940.36864265694
 20
4863.281610731118
 30
0.0
 40
22.5
100
AcDbArc
 50
137.2623683204821
 51
283.2143602791366
  0
LINE
  5
17AC21874A41E9
330
17AC21874A2FC9
100
AcDbEntity
  8
ASSE
100
AcDbLine
 10
12286.99889977148
 20
4865.878431977081
 30
0.0
 11
12434.68925430506
 21
4818.136835487151
 31
0.0
  0
LINE
  5
17AC21874A41EA
330
17AC21874A2FC9
100
AcDbEntity
  8
ASSE
100
AcDbLine
 10
12432.88599208079
 20
4818.71974841839
 30
0.0
 11
12555.0821833219
 21
4927.56661002928
 31
0.0
  0
LINE
  5
17AC21874A41EB
330
17AC21874A2FC9
100
AcDbEntity
  8
ASSE
100
AcDbLine
 10
12432.88599208079
 20
4818.71974841839
 30
0.0
 11
12468.247861256
 21
4658.941495779078
 31
0.0
  0
ARC
  5
17AC21874A41EC
330
17AC21874A2FC9
100
AcDbEntity
  8
0
100
AcDbCircle
 10
12545.60284942572
 20
4919.122846485748
 30
0.0
 40
22.5
100
AcDbArc
 50
136.6188527731605
 51
308.0164081638212
  0
ARC
  5
17AC21874A41ED
330
17AC21874A2FC9
100
AcDbEntity
  8
0
100
AcDbCircle
 10
12434.68925430506
 20
4818.136835487151
 30
0.0
 40
150.0
100
AcDbArc
 50
50.92007507783271
 51
90.91281288346982
  0
ARC
  5
17AC21874A41EE
330
17AC21874A2FC9
100
AcDbEntity
  8
0
100
AcDbCircle
 10
12465.50467250173
 20
4671.336256464572
 30
0.0
 40
22.5
100
AcDbArc
 50
16.15625266548683
 51
187.5538080561443
  0
ARC
  5
17AC21874A41EF
330
17AC21874A2FC9
100
AcDbEntity
  8
0
100
AcDbCircle
 10
12434.68925430506
 20
4818.136835487151
 30
0.0
 40
150.0
100
AcDbArc
 50
290.4574749701554
 51
333.090471954425
  0
ARC
  5
17AC21874A41F0
330
17AC21874A2FC9
100
AcDbEntity
  8
0
100
AcDbCircle
 10
12291.96109626587
 20
4864.274378797797
 30
0.0
 40
22.5
100
AcDbArc
 50
256.3875537838737
 51
39.29509735765543
  0
LINE
  5
17AC21874A41F2
330
17AC21874A2FC9
100
AcDbEntity
  8
0
 62
     0
100
AcDbLine
 10
11658.27011271461
 20
4540.039139640554
 30
0.0
 11
11593.23938855707
 21
4640.039139640554
 31
0.0
  0
LINE
  5
17AC21874A41F7
330
17AC21874A2FC9
100
AcDbEntity
  8
0
 62
     0
100
AcDbLine
 10
11542.89114522233
 20
4540.039139640553
 30
0.0
 11
11480.23220519574
 21
4640.039139640555
 31
0.0
  0
LINE
  5
17AC21874A41F9
330
17AC21874A2FC9
100
AcDbEntity
  8
0
100
AcDbLine
 10
11664.22196084939
 20
4638.867706469341
 30
0.0
 11
11729.25268500693
 21
4538.867706469342
 31
0.0
  0
ARC
  5
17AC21874A4200
330
17AC21874A2FC9
100
AcDbEntity
  8
0
100
AcDbCircle
 10
11692.41364080259
 20
4457.786507563767
 30
0.0
 40
89.0577115911617
100
AcDbArc
 50
65.56544331301776
 51
112.5436112830674
  0
ARC
  5
17AC21874A4201
330
17AC21874A2FC9
100
AcDbEntity
  8
0
100
AcDbCircle
 10
11630.1234386037
 20
4723.847451395861
 30
0.0
 40
91.56563911815664
100
AcDbArc
 50
246.245698537097
 51
291.8633560589882
  0
LINE
  5
17AC21874A4202
330
17AC21874A2FC9
100
AcDbEntity
  8
0
100
AcDbLine
 10
11542.64391433476
 20
4640.039139640555
 30
0.0
 11
11593.23938855707
 21
4640.039139640555
 31
0.0
  0
LINE
  5
17AC21874A4203
330
17AC21874A2FC9
100
AcDbEntity
  8
0
100
AcDbLine
 10
11658.27011271461
 20
4540.039139640554
 30
0.0
 11
11605.59151631241
 21
4540.039139640556
 31
0.0
  0
LINE
  5
17AC21874A4204
330
17AC21874A2FC9
100
AcDbEntity
  8
0
 62
     0
100
AcDbLine
 10
11605.59151631241
 20
4540.039139640554
 30
0.0
 11
11542.64391433476
 21
4640.039139640555
 31
0.0
  0
LINE
  5
17AC21874A4207
330
17AC21874A2FC9
100
AcDbEntity
  8
0
 62
     0
100
AcDbLine
 10
11479.80647510905
 20
4540.039139640554
 30
0.0
 11
11417.00952624166
 21
4640.039139640556
 31
0.0
  0
LINE
  5
17AC21874A4208
330
17AC21874A2FC9
100
AcDbEntity
  8
0
 62
     0
100
AcDbLine
 10
11315.15189941218
 20
4540.039139640557
 30
0.0
 11
11252.9716995
 21
4640.039139640557
 31
0.0
  0
ARC
  5
17AC21874A4209
330
17AC21874A2FC9
100
AcDbEntity
  8
0
 62
     0
100
AcDbCircle
 10
11285.53387295597
 20
4707.111392617409
 30
0.0
 40
74.71394410719496
100
AcDbArc
 50
243.860060098814
 51
296.139939901186
  0
ARC
  5
17AC21874A420A
330
17AC21874A2FC9
100
AcDbEntity
  8
0
 62
     0
100
AcDbCircle
 10
11348.19953734441
 20
4461.269668822707
 30
0.0
 40
85.42116778541879
100
AcDbArc
 50
67.23957260244763
 51
112.7604273975503
  0
LINE
  5
17AC21874A420B
330
17AC21874A2FC9
100
AcDbEntity
  8
0
100
AcDbLine
 10
11318.45022640927
 20
4640.039139640559
 30
0.0
 11
11381.24717527666
 21
4540.039139640557
 31
0.0
  0
LINE
  5
17AC21874A420C
330
17AC21874A2FC9
100
AcDbEntity
  8
0
100
AcDbLine
 10
11318.45022640927
 20
4640.039139640559
 30
0.0
 11
11351.17681933507
 21
4640.039139640556
 31
0.0
  0
LINE
  5
17AC21874A420D
330
17AC21874A2FC9
100
AcDbEntity
  8
0
100
AcDbLine
 10
11381.24717527665
 20
4540.039139640558
 30
0.0
 11
11413.71119924457
 21
4540.039139640556
 31
0.0
  0
LINE
  5
17AC21874A4210
330
17AC21874A2FC9
100
AcDbEntity
  8
0
100
AcDbLine
 10
11023.34914870746
 20
4733.169946741901
 30
0.0
 11
11673.70853610439
 21
4733.169946741901
 31
0.0
  0
LINE
  5
17AC21874A4211
330
17AC21874A2FC9
100
AcDbEntity
  8
0
100
AcDbLine
 10
10986.27035977068
 20
4613.1699467419
 30
0.0
 11
10617.08366920295
 21
4613.1699467419
 31
0.0
  0
LINE
  5
17AC21874A4212
330
17AC21874A2FC9
100
AcDbEntity
  8
0
100
AcDbLine
 10
13256.3641251688
 20
4733.169946741901
 30
0.0
 11
13613.091305944
 21
4733.169946741901
 31
0.0
  0
LINE
  5
17AC21874A4213
330
17AC21874A2FC9
100
AcDbEntity
  8
0
100
AcDbLine
 10
13217.94351973612
 20
4613.1699467419
 30
0.0
 11
12434.14039864195
 21
4613.1699467419
 31
0.0
  0
ENDSEC
  0
SECTION
  2
OBJECTS
  0
DICTIONARY
  5
17AC21874A2FBD
330
0
100
AcDbDictionary
281
     1
  3
ACAD_COLOR
350
17AC21874A4217
  3
ACAD_GROUP
350
17AC21874A2FBE
  3
ACAD_LAYOUT
350
17AC21874A39C9
  3
ACAD_MATERIAL
350
17AC21874A4216
  3
ACAD_MLINESTYLE
350
17AC21874A2FBF
  3
ACAD_PLOTSETTINGS
350
17AC21874A39CA
  3
ACAD_PLOTSTYLENAME
350
17AC21874A39C7
  3
ACAD_TABLESTYLE
350
17AC21874A4218
  3
ACDBHEADERROUNDTRIPXREC
350
17AC21874A42C7
  3
AcDbVariableDictionary
350
17AC21874A42C2
  3
AcmDictionary
350
17AC21874A4279
  3
AMG
350
17AC21874A4221
  3
AMGSNAPSETTINGS
350
17AC21874A42B9
  0
DICTIONARY
  5
17AC21874A4217
102
{ACAD_REACTORS
330
17AC21874A2FBD
102
}
330
17AC21874A2FBD
100
AcDbDictionary
281
     1
  0
DICTIONARY
  5
17AC21874A2FBE
102
{ACAD_REACTORS
330
17AC21874A2FBD
102
}
330
17AC21874A2FBD
100
AcDbDictionary
281
     1
  0
DICTIONARY
  5
17AC21874A39C9
102
{ACAD_REACTORS
330
17AC21874A2FBD
102
}
330
17AC21874A2FBD
100
AcDbDictionary
281
     1
  3
Layout1
350
17AC21874A39CC
  3
Model
350
17AC21874A39CB
  0
DICTIONARY
  5
17AC21874A4216
102
{ACAD_REACTORS
330
17AC21874A2FBD
102
}
330
17AC21874A2FBD
100
AcDbDictionary
281
     1
  0
DICTIONARY
  5
17AC21874A2FBF
102
{ACAD_REACTORS
330
17AC21874A2FBD
102
}
330
17AC21874A2FBD
100
AcDbDictionary
281
     1
  3
STANDARD
350
17AC21874A2FCC
  0
DICTIONARY
  5
17AC21874A39CA
102
{ACAD_REACTORS
330
17AC21874A2FBD
102
}
330
17AC21874A2FBD
100
AcDbDictionary
281
     1
  0
ACDBDICTIONARYWDFLT
  5
17AC21874A39C7
102
{ACAD_REACTORS
330
17AC21874A2FBD
102
}
330
17AC21874A2FBD
100
AcDbDictionary
281
     1
  3
Normal
350
17AC21874A39C8
100
AcDbDictionaryWithDefault
340
17AC21874A39C8
  0
DICTIONARY
  5
17AC21874A4218
102
{ACAD_REACTORS
330
17AC21874A2FBD
102
}
330
17AC21874A2FBD
100
AcDbDictionary
281
     1
  3
Standard
350
17AC21874A4219
  0
DICTIONARY
  5
17AC21874A42C7
102
{ACAD_REACTORS
330
17AC21874A2FBD
102
}
330
17AC21874A2FBD
100
AcDbDictionary
281
     1
  0
DICTIONARY
  5
17AC21874A42C2
102
{ACAD_REACTORS
330
17AC21874A2FBD
102
}
330
17AC21874A2FBD
100
AcDbDictionary
281
     1
  3
CTABLESTYLE
350
17AC21874A42C3
  3
DIMASSOC
350
17AC21874A42C4
  3
PROJECTNAME
350
17AC21874A42C5
  0
DICTIONARY
  5
17AC21874A4279
102
{ACAD_REACTORS
330
17AC21874A2FBD
102
}
330
17AC21874A2FBD
100
AcDbDictionary
281
     1
  3
AcmStdDictionary
350
17AC21874A4286
  3
AMDTSECTSYM_ARROWCOLOR
350
17AC21874A42A4
  0
DICTIONARY
  5
17AC21874A4221
102
{ACAD_REACTORS
330
17AC21874A2FBD
102
}
330
17AC21874A2FBD
100
AcDbDictionary
281
     1
  0
DICTIONARY
  5
17AC21874A42B9
102
{ACAD_REACTORS
330
17AC21874A2FBD
102
}
330
17AC21874A2FBD
100
AcDbDictionary
281
     1
  0
LAYOUT
  5
17AC21874A39CC
102
{ACAD_XDICTIONARY
360
17AC21874A42CA
102
}
102
{ACAD_REACTORS
330
17AC21874A39C9
102
}
330
17AC21874A39C9
100
AcDbPlotSettings
  1

  2
Canon Bubble-Jet BJC-4200
  4

  6

 40
0.0
 41
0.0
 42
0.0
 43
0.0
 44
0.0
 45
0.0
 46
0.0
 47
0.0
 48
0.0
 49
0.0
140
0.0
141
0.0
142
1.0
143
1.0
 70
   688
 72
     0
 73
     0
 74
     5
  7

 75
    16
147
1.0
148
0.0
149
0.0
100
AcDbLayout
  1
Layout1
 70
     0
 71
     1
 10
0.0
 20
0.0
 11
12.0
 21
9.0
 12
0.0
 22
0.0
 32
0.0
 14
1.000000000000000E+20
 24
1.000000000000000E+20
 34
1.000000000000000E+20
 15
-1.000000000000000E+20
 25
-1.000000000000000E+20
 35
-1.000000000000000E+20
146
0.0
 13
0.0
 23
0.0
 33
0.0
 16
1.0
 26
0.0
 36
0.0
 17
0.0
 27
1.0
 37
0.0
 76
     0
330
17AC21874A2FC6
  0
LAYOUT
  5
17AC21874A39CB
102
{ACAD_XDICTIONARY
360
17AC21874A42C8
102
}
102
{ACAD_REACTORS
330
17AC21874A39C9
102
}
330
17AC21874A39C9
100
AcDbPlotSettings
  1

  2
Canon Bubble-Jet BJC-4200
  4

  6

 40
0.0
 41
0.0
 42
0.0
 43
0.0
 44
0.0
 45
0.0
 46
0.0
 47
0.0
 48
0.0
 49
0.0
140
0.0
141
0.0
142
1.0
143
1.0
 70
  1712
 72
     0
 73
     0
 74
     0
  7

 75
     0
147
1.0
148
0.0
149
0.0
100
AcDbLayout
  1
Model
 70
     1
 71
     0
 10
0.0
 20
0.0
 11
12.0
 21
9.0
 12
0.0
 22
0.0
 32
0.0
 14
0.0
 24
0.0
 34
0.0
 15
0.0
 25
0.0
 35
0.0
146
0.0
 13
0.0
 23
0.0
 33
0.0
 16
1.0
 26
0.0
 36
0.0
 17
0.0
 27
1.0
 37
0.0
 76
     0
330
17AC21874A2FC9
  0
MLINESTYLE
  5
17AC21874A2FCC
102
{ACAD_REACTORS
330
17AC21874A2FBF
102
}
330
17AC21874A2FBF
100
AcDbMlineStyle
  2
STANDARD
 70
     0
  3

 62
     0
 51
90.0
 52
90.0
 71
     2
 49
0.5
 62
   256
  6
BYLAYER
 49
-0.5
 62
   256
  6
BYLAYER
  0
ACDBPLACEHOLDER
  5
17AC21874A39C8
102
{ACAD_REACTORS
330
17AC21874A39C7
102
}
330
17AC21874A39C7
  0
TABLESTYLE
  5
17AC21874A4219
102
{ACAD_REACTORS
330
17AC21874A4218
102
}
330
17AC21874A4218
100
AcDbTableStyle
  3
Standard
 70
     0
 71
     0
 40
0.06
 41
0.06
280
     0
281
     0
  7
STANDARD
140
0.18
170
     2
 62
     0
 63
     7
283
     0
274
    -2
284
     1
 64
     0
275
    -2
285
     1
 65
     0
276
    -2
286
     1
 66
     0
277
    -2
287
     1
 67
     0
278
    -2
288
     1
 68
     0
279
    -2
289
     1
 69
     0
  7
STANDARD
140
0.25
170
     5
 62
     0
 63
     7
283
     0
274
    -2
284
     1
 64
     0
275
    -2
285
     1
 65
     0
276
    -2
286
     1
 66
     0
277
    -2
287
     1
 67
     0
278
    -2
288
     1
 68
     0
279
    -2
289
     1
 69
     0
  7
STANDARD
140
0.18
170
     5
 62
     0
 63
     7
283
     0
274
    -2
284
     1
 64
     0
275
    -2
285
     1
 65
     0
276
    -2
286
     1
 66
     0
277
    -2
287
     1
 67
     0
278
    -2
288
     1
 68
     0
279
    -2
289
     1
 69
     0
  0
DICTIONARYVAR
  5
17AC21874A42C3
102
{ACAD_REACTORS
330
17AC21874A42C2
102
}
330
17AC21874A42C2
100
DictionaryVariables
280
     0
  1
STANDARD
  0
DICTIONARYVAR
  5
17AC21874A42C4
102
{ACAD_REACTORS
330
17AC21874A42C2
102
}
330
17AC21874A42C2
100
DictionaryVariables
280
     0
  1
1
  0
DICTIONARYVAR
  5
17AC21874A42C5
102
{ACAD_REACTORS
330
17AC21874A42C2
102
}
330
17AC21874A42C2
100
DictionaryVariables
280
     0
  1

  0
DICTIONARY
  5
17AC21874A4286
102
{ACAD_REACTORS
330
17AC21874A4279
102
}
330
17AC21874A4279
100
AcDbDictionary
281
     1
  0
XRECORD
  5
17AC21874A42A4
102
{ACAD_REACTORS
330
17AC21874A4279
102
}
330
17AC21874A4279
100
AcDbXrecord
280
     1
 90
-1023410169
  0
DICTIONARY
  5
17AC21874A42CA
330
17AC21874A39CC
100
AcDbDictionary
280
     1
281
     1
  3
ACAD_XREC_ROUNDTRIP
360
17AC21874A42CB
  0
DICTIONARY
  5
17AC21874A42C8
330
17AC21874A39CB
100
AcDbDictionary
280
     1
281
     1
  3
ACAD_XREC_ROUNDTRIP
360
17AC21874A42C9
  0
XRECORD
  5
17AC21874A42CB
102
{ACAD_REACTORS
330
17AC21874A42CA
102
}
330
17AC21874A42CA
100
AcDbXrecord
280
     1
102
SHADEPLOT
 70
     0
102
SHADEPLOTRESLEVEL
 70
     2
102
SHADEPLOTCUSTOMDPI
 70
   300
  0
XRECORD
  5
17AC21874A42C9
102
{ACAD_REACTORS
330
17AC21874A42C8
102
}
330
17AC21874A42C8
100
AcDbXrecord
280
     1
102
SHADEPLOT
 70
     0
102
SHADEPLOTRESLEVEL
 70
     2
102
SHADEPLOTCUSTOMDPI
 70
   300
  0
ENDSEC
  0
EOF
