  0
SECTION
  2
HEADER
  9
$ACADVER
  1
AC1015
  9
$ACADMAINTVER
 70
    20
  9
$DWGCODEPAGE
  3
ANSI_1252
  9
$INSBASE
 10
229.0
 20
50.0
 30
0.0
  9
$EXTMIN
 10
-632.2
 20
-260.3999999999999
 30
0.0
  9
$EXTMAX
 10
3562.000000000001
 20
2609.6
 30
0.0
  9
$LIMMIN
 10
0.0
 20
0.0
  9
$LIMMAX
 10
4200.0
 20
2970.0
  9
$ORTHOMODE
 70
     0
  9
$REGENMODE
 70
     1
  9
$FILLMODE
 70
     1
  9
$QTEXTMODE
 70
     0
  9
$MIRRTEXT
 70
     1
  9
$LTSCALE
 40
10.0
  9
$ATTMODE
 70
     1
  9
$TEXTSIZE
 40
3.0
  9
$TRACEWID
 40
0.05
  9
$TEXTSTYLE
  7
ROMANS
  9
$CLAYER
  8
AM_4
  9
$CELTYPE
  6
BYLAYER
  9
$CECOLOR
 62
   256
  9
$CELTSCALE
 40
1.0
  9
$DISPSILH
 70
     0
  9
$DIMSCALE
 40
10.0
  9
$DIMASZ
 40
3.0
  9
$DIMEXO
 40
2.0
  9
$DIMDLI
 40
10.0
  9
$DIMRND
 40
0.0
  9
$DIMDLE
 40
0.0
  9
$DIMEXE
 40
2.0
  9
$DIMTP
 40
0.1
  9
$DIMTM
 40
0.15
  9
$DIMTXT
 40
3.0
  9
$DIMCEN
 40
0.5
  9
$DIMTSZ
 40
0.0
  9
$DIMTOL
 70
     0
  9
$DIMLIM
 70
     0
  9
$DIMTIH
 70
     0
  9
$DIMTOH
 70
     0
  9
$DIMSE1
 70
     0
  9
$DIMSE2
 70
     0
  9
$DIMTAD
 70
     1
  9
$DIMZIN
 70
     8
  9
$DIMBLK
  1

  9
$DIMASO
 70
     1
  9
$DIMSHO
 70
     1
  9
$DIMPOST
  1

  9
$DIMAPOST
  1

  9
$DIMALT
 70
     0
  9
$DIMALTD
 70
     2
  9
$DIMALTF
 40
25.4
  9
$DIMLFAC
 40
1.0
  9
$DIMTOFL
 70
     1
  9
$DIMTVP
 40
0.0
  9
$DIMTIX
 70
     0
  9
$DIMSOXD
 70
     0
  9
$DIMSAH
 70
     0
  9
$DIMBLK1
  1

  9
$DIMBLK2
  1

  9
$DIMSTYLE
  2
BASE
  9
$DIMCLRD
 70
   256
  9
$DIMCLRE
 70
   256
  9
$DIMCLRT
 70
   254
  9
$DIMTFAC
 40
0.6666666666666666
  9
$DIMGAP
 40
1.0
  9
$DIMJUST
 70
     0
  9
$DIMSD1
 70
     0
  9
$DIMSD2
 70
     0
  9
$DIMTOLJ
 70
     1
  9
$DIMTZIN
 70
     0
  9
$DIMALTZ
 70
     0
  9
$DIMALTTZ
 70
     0
  9
$DIMUPT
 70
     0
  9
$DIMDEC
 70
     4
  9
$DIMTDEC
 70
     4
  9
$DIMALTU
 70
     2
  9
$DIMALTTD
 70
     2
  9
$DIMTXSTY
  7
ROMANS
  9
$DIMAUNIT
 70
     0
  9
$DIMADEC
 70
     0
  9
$DIMALTRND
 40
0.0
  9
$DIMAZIN
 70
     0
  9
$DIMDSEP
 70
    46
  9
$DIMATFIT
 70
     3
  9
$DIMFRAC
 70
     0
  9
$DIMLDRBLK
  1

  9
$DIMLUNIT
 70
     2
  9
$DIMLWD
 70
    -2
  9
$DIMLWE
 70
    -2
  9
$DIMTMOVE
 70
     2
  9
$LUNITS
 70
     2
  9
$LUPREC
 70
     2
  9
$SKETCHINC
 40
0.1
  9
$FILLETRAD
 40
0.0
  9
$AUNITS
 70
     1
  9
$AUPREC
 70
     3
  9
$MENU
  1
C:\promecad\acad
  9
$ELEVATION
 40
0.0
  9
$PELEVATION
 40
0.0
  9
$THICKNESS
 40
0.0
  9
$LIMCHECK
 70
     0
  9
$CHAMFERA
 40
10.0
  9
$CHAMFERB
 40
10.0
  9
$CHAMFERC
 40
0.0
  9
$CHAMFERD
 40
0.0
  9
$SKPOLY
 70
     0
  9
$TDCREATE
 40
2450905.504577257
  9
$TDUCREATE
 40
2450905.421243924
  9
$TDUPDATE
 40
2453830.600870254
  9
$TDUUPDATE
 40
2453830.517536921
  9
$TDINDWG
 40
0.8443729745
  9
$TDUSRTIMER
 40
0.8443729745
  9
$USRTIMER
 70
     1
  9
$ANGBASE
 50
0.0
  9
$ANGDIR
 70
     0
  9
$PDMODE
 70
     0
  9
$PDSIZE
 40
0.0
  9
$PLINEWID
 40
0.0
  9
$SPLFRAME
 70
     0
  9
$SPLINETYPE
 70
     6
  9
$SPLINESEGS
 70
     8
  9
$HANDSEED
  5
17AC21874A39D8
  9
$SURFTAB1
 70
     6
  9
$SURFTAB2
 70
     6
  9
$SURFTYPE
 70
     6
  9
$SURFU
 70
     6
  9
$SURFV
 70
     6
  9
$UCSBASE
  2

  9
$UCSNAME
  2

  9
$UCSORG
 10
0.0
 20
0.0
 30
0.0
  9
$UCSXDIR
 10
1.0
 20
0.0
 30
0.0
  9
$UCSYDIR
 10
0.0
 20
1.0
 30
0.0
  9
$UCSORTHOREF
  2

  9
$UCSORTHOVIEW
 70
     0
  9
$UCSORGTOP
 10
0.0
 20
0.0
 30
0.0
  9
$UCSORGBOTTOM
 10
0.0
 20
0.0
 30
0.0
  9
$UCSORGLEFT
 10
0.0
 20
0.0
 30
0.0
  9
$UCSORGRIGHT
 10
0.0
 20
0.0
 30
0.0
  9
$UCSORGFRONT
 10
0.0
 20
0.0
 30
0.0
  9
$UCSORGBACK
 10
0.0
 20
0.0
 30
0.0
  9
$PUCSBASE
  2

  9
$PUCSNAME
  2

  9
$PUCSORG
 10
0.0
 20
0.0
 30
0.0
  9
$PUCSXDIR
 10
1.0
 20
0.0
 30
0.0
  9
$PUCSYDIR
 10
0.0
 20
1.0
 30
0.0
  9
$PUCSORTHOREF
  2

  9
$PUCSORTHOVIEW
 70
     0
  9
$PUCSORGTOP
 10
0.0
 20
0.0
 30
0.0
  9
$PUCSORGBOTTOM
 10
0.0
 20
0.0
 30
0.0
  9
$PUCSORGLEFT
 10
0.0
 20
0.0
 30
0.0
  9
$PUCSORGRIGHT
 10
0.0
 20
0.0
 30
0.0
  9
$PUCSORGFRONT
 10
0.0
 20
0.0
 30
0.0
  9
$PUCSORGBACK
 10
0.0
 20
0.0
 30
0.0
  9
$USERI1
 70
    10
  9
$USERI2
 70
     1
  9
$USERI3
 70
     0
  9
$USERI4
 70
     2
  9
$USERI5
 70
     5
  9
$USERR1
 40
0.0
  9
$USERR2
 40
0.0
  9
$USERR3
 40
0.0
  9
$USERR4
 40
0.0
  9
$USERR5
 40
0.0
  9
$WORLDVIEW
 70
     1
  9
$SHADEDGE
 70
     3
  9
$SHADEDIF
 70
    70
  9
$TILEMODE
 70
     1
  9
$MAXACTVP
 70
    16
  9
$PINSBASE
 10
0.0
 20
0.0
 30
0.0
  9
$PLIMCHECK
 70
     0
  9
$PEXTMIN
 10
1.000000000000000E+20
 20
1.000000000000000E+20
 30
1.000000000000000E+20
  9
$PEXTMAX
 10
-1.000000000000000E+20
 20
-1.000000000000000E+20
 30
-1.000000000000000E+20
  9
$PLIMMIN
 10
0.0
 20
0.0
  9
$PLIMMAX
 10
12.0
 20
9.0
  9
$UNITMODE
 70
     0
  9
$VISRETAIN
 70
     0
  9
$PLINEGEN
 70
     0
  9
$PSLTSCALE
 70
     0
  9
$TREEDEPTH
 70
  3020
  9
$CMLSTYLE
  2
STANDARD
  9
$CMLJUST
 70
     0
  9
$CMLSCALE
 40
1.0
  9
$PROXYGRAPHICS
 70
     1
  9
$MEASUREMENT
 70
     0
  9
$CELWEIGHT
370
    -1
  9
$ENDCAPS
280
     0
  9
$JOINSTYLE
280
     0
  9
$LWDISPLAY
290
     0
  9
$INSUNITS
 70
     0
  9
$HYPERLINKBASE
  1

  9
$STYLESHEET
  1
monochrome.ctb
  9
$XEDIT
290
     1
  9
$CEPSNTYPE
380
     0
  9
$PSTYLEMODE
290
     1
  9
$FINGERPRINTGUID
  2
{62E72084-4E0E-4302-AA3E-2886FD50E840}
  9
$VERSIONGUID
  2
{363154E9-408A-4851-A073-F3849D52E4A9}
  9
$EXTNAMES
290
     1
  9
$PSVPSCALE
 40
0.0
  9
$OLESTARTUP
290
     0
  0
ENDSEC
  0
SECTION
  2
CLASSES
  0
CLASS
  1
ACDBDICTIONARYWDFLT
  2
AcDbDictionaryWithDefault
  3
ObjectDBX Classes
 90
        0
280
     0
281
     0
  0
CLASS
  1
ACDBPLACEHOLDER
  2
AcDbPlaceHolder
  3
ObjectDBX Classes
 90
        0
280
     0
281
     0
  0
CLASS
  1
LAYOUT
  2
AcDbLayout
  3
ObjectDBX Classes
 90
        0
280
     0
281
     0
  0
CLASS
  1
TABLESTYLE
  2
AcDbTableStyle
  3
ObjectDBX Classes
 90
     2047
280
     0
281
     0
  0
CLASS
  1
ACME_DOCUMENT
  2
AcMeDbDoc
  3
AcMeServices
 90
        0
280
     0
281
     0
  0
CLASS
  1
AMGSETTINGSOBJ
  2
AmgSettingsObj
  3
"AcadM|Product Description: AutoCAD Mechanical 2000|Company: Autodesk"
 90
        0
280
     0
281
     0
  0
CLASS
  1
ACMESCOPE
  2
AcMeScope
  3
AcMeServices
 90
        0
280
     0
281
     0
  0
CLASS
  1
ACMECOMMANDHISTORY
  2
AcMeCommandHistory
  3
AcMeServices
 90
        0
280
     0
281
     0
  0
CLASS
  1
ACIMSYSVARMAN
  2
AcImSysVarManager
  3
AcMeServices
 90
        0
280
     0
281
     0
  0
CLASS
  1
ACIMINTSYSVAR
  2
AcImIntSysVar
  3
AcMeServices
 90
        0
280
     0
281
     0
  0
CLASS
  1
ACMEDRAWINGMAN
  2
AcMeDrawingMan
  3
AcMeServices
 90
        0
280
     0
281
     0
  0
CLASS
  1
ACMEVIEW
  2
AcMeView
  3
AcMeServices
 90
        0
280
     0
281
     0
  0
CLASS
  1
ACDBENTITYCACHE
  2
AcMeEntityCache
  3
AcMeServices
 90
        0
280
     0
281
     0
  0
CLASS
  1
GSMANAGER
  2
AcMeGSManager
  3
AcMeServices
 90
        0
280
     0
281
     0
  0
CLASS
  1
AMDTINTERNALREACTOR
  2
AmdtInternalReactor
  3
AcMeServices
 90
        0
280
     0
281
     0
  0
CLASS
  1
ACMESTATEMGR
  2
AcMeStateMgr
  3
AcMeServices
 90
        0
280
     0
281
     0
  0
CLASS
  1
ACGREFMASTER
  2
AcGrefMaster
  3
AcAttribServices
 90
        0
280
     0
281
     0
  0
CLASS
  1
AM_DRAWING_MGR
  2
AcDmDwgMgr
  3
AcMechDwgViewMgmt
 90
        0
280
     0
281
     0
  0
CLASS
  1
AM_DWG_DOCUMENT
  2
AcDmDwgDocument
  3
AcMechDwgViewMgmt
 90
        0
280
     0
281
     0
  0
CLASS
  1
AM_DWG_SHEET
  2
AcDmSheet
  3
AcMechDwgViewMgmt
 90
        0
280
     0
281
     0
  0
CLASS
  1
AM_VIEWDIMPARMAP
  2
AcDmViewDimParMap
  3
AcMechDwgViewMgmt
 90
        0
280
     0
281
     0
  0
CLASS
  1
ACIMREALSYSVAR
  2
AcImRealSysVar
  3
AcMeServices
 90
        0
280
     0
281
     0
  0
CLASS
  1
AM_DWGMGR_NAME
  2
AcDmDwgMgrName
  3
AcMechDwgViewMgmt
 90
        0
280
     0
281
     0
  0
CLASS
  1
ACME_DATABASE
  2
AcMeDbDatabase
  3
AcMeServices
 90
        0
280
     0
281
     0
  0
CLASS
  1
ACRFINSADJUSTERMGR
  2
AcRfInsAdjusterMgr
  3
AcMeServices
 90
        0
280
     0
281
     0
  0
CLASS
  1
ACGREFACADMASTER
  2
AcGrefacadMaster
  3
AcGrefServices
 90
        0
280
     0
281
     0
  0
CLASS
  1
AMDTMENUSTATEMGR
  2
AmdtMenuStateMgr
  3
McadcomServices
 90
        0
280
     0
281
     0
  0
CLASS
  1
AMDTMCOMMENUSTATE
  2
AmdtMcomMenuState
  3
McadcomServices
 90
        0
280
     0
281
     0
  0
CLASS
  1
AMIMASTER
  2
AmiMaster
  3
AmiServices
 90
        0
280
     0
281
     0
  0
CLASS
  1
MAPIAMMOUDLE
  2
MApiAmModule
  3
MApiAmServices
 90
        0
280
     0
281
     0
  0
CLASS
  1
AMDTADMENUSTATE
  2
AmdtAdMenuState
  3
DesignerServices
 90
        0
280
     0
281
     0
  0
CLASS
  1
ADAPPL
  2
AcAdAppl
  3
DesignerServices
 90
        0
280
     0
281
     0
  0
CLASS
  1
DEPMGR
  2
AcAdDepMgr
  3
DesignerServices
 90
        0
280
     0
281
     0
  0
CLASS
  1
PARAMMGR
  2
AcAdParamMgr
  3
DesignerServices
 90
        0
280
     0
281
     0
  0
CLASS
  1
PARAMSCOPE
  2
AcAdParamScope
  3
DesignerServices
 90
        0
280
     0
281
     0
  0
CLASS
  1
NAMEDAPPL
  2
AcAdNamedAppl
  3
DesignerServices
 90
        0
280
     0
281
     0
  0
CLASS
  1
AMDTDMMENUSTATE
  2
AmdtDmMenuState
  3
AcMechDwgViewMgmt
 90
        0
280
     0
281
     0
  0
CLASS
  1
AMDTAMMENUSTATE
  2
AmdtAmMenuState
  3
DesignerAssemblies
 90
        0
280
     0
281
     0
  0
CLASS
  1
ACIMSTRSYSVAR
  2
AcImStrSysVar
  3
AcMeServices
 90
        0
280
     0
281
     0
  0
CLASS
  1
ACAMPROJECT
  2
AcAmProject
  3
DesignerAssemblies
 90
        0
280
     0
281
     0
  0
CLASS
  1
ACAMGRCOMPDEF
  2
AcAmGrCompDef
  3
DesignerAssemblies
 90
        0
280
     0
281
     0
  0
CLASS
  1
ACCMCONTEXT
  2
AcCmContext
  3
DesignerAssemblies
 90
        0
280
     0
281
     0
  0
CLASS
  1
ACAMCOMPDEF
  2
AcAmCompDef
  3
DesignerAssemblies
 90
        0
280
     0
281
     0
  0
CLASS
  1
ACAMCOMPDEFMGR
  2
AcAmCompDefMgr
  3
DesignerAssemblies
 90
        0
280
     0
281
     0
  0
CLASS
  1
AMCONTEXTMGR
  2
AcAmContextMgr
  3
DesignerAssemblies
 90
        0
280
     0
281
     0
  0
CLASS
  1
ACAMCONTEXTMODELER
  2
AcAmContextModeler
  3
DesignerAssemblies
 90
        0
280
     0
281
     0
  0
CLASS
  1
ACMDATADICTIONARY
  2
AcmDataDictionary
  3
"AcmSymBB|Product Description: AutoCAD Mechanical 2004 DX|Company: Autodesk"
 90
        0
280
     0
281
     0
  0
CLASS
  1
CATALOGSTATE
  2
AcAmCatalogState
  3
DesignerAssemblies
 90
        0
280
     0
281
     0
  0
CLASS
  1
ACAMGRCOMPDEFSET
  2
AcAmGrCompDefSet
  3
DesignerAssemblies
 90
        0
280
     0
281
     0
  0
CLASS
  1
AMDTBROWSERDBTAB
  2
AmdtBrowserDbTab
  3
McadcomServices
 90
        0
280
     0
281
     0
  0
CLASS
  1
CBROWSERAPPOBJECT
  2
CBrowserAppObject
  3
McadcomServices
 90
        0
280
     0
281
     0
  0
CLASS
  1
DM_PLACEHOLDER
  2
AcDmSelsetPlaceholder
  3
AcMechDwgViewMgmt
 90
        0
280
     0
281
     0
  0
CLASS
  1
ACMSTANDARDANSI
  2
AcmStandardANSI
  3
"Amdt_StdImp|Product Description: AutoCAD Mechanical 2004 DX|Company: Autodesk"
 90
        0
280
     0
281
     0
  0
CLASS
  1
AMGOBJPROPCFG
  2
AmgObjPropCfg
  3
"AmgLay|Product Description: AutoCAD Mechanical 2000|Company: Autodesk"
 90
        1
280
     0
281
     0
  0
CLASS
  1
ACMSURFSTANDARDANSI
  2
AcmSurfTextStdANSI
  3
"Amdt_StdImp|Product Description: AutoCAD Mechanical 2004 DX|Company: Autodesk"
 90
        0
280
     0
281
     0
  0
CLASS
  1
ACMFCFSTANDARDANSI
  2
AcmFCFStdANSI
  3
"Amdt_StdImp|Product Description: AutoCAD Mechanical 2004 DX|Company: Autodesk"
 90
        0
280
     0
281
     0
  0
CLASS
  1
ACMWELDSTANDARDANSI
  2
AcmWeldingStdANSI
  3
"Amdt_StdImp|Product Description: AutoCAD Mechanical 2004 DX|Company: Autodesk"
 90
        0
280
     0
281
     0
  0
CLASS
  1
ACMIDSTANDARDANSI
  2
AcmIdStdANSI
  3
"Amdt_StdImp|Product Description: AutoCAD Mechanical 2004 DX|Company: Autodesk"
 90
        0
280
     0
281
     0
  0
CLASS
  1
ACMDATUMSTANDARDANSI
  2
AcmDatumStdANSI
  3
"Amdt_StdImp|Product Description: AutoCAD Mechanical 2004 DX|Company: Autodesk"
 90
        0
280
     0
281
     0
  0
CLASS
  1
ACMBOMSTANDARDANSI
  2
AcmBOMStdANSI
  3
"Amdt_StdImp|Product Description: AutoCAD Mechanical 2004 DX|Company: Autodesk"
 90
        0
280
     0
281
     0
  0
CLASS
  1
ACMDETAILSTANDARDANSI
  2
AmdtDetailSymStdANSI
  3
"Amdt_StdImp|Product Description: AutoCAD Mechanical 2004 DX|Company: Autodesk"
 90
        0
280
     0
281
     0
  0
CLASS
  1
ACMSECTIONSTANDARDANSI
  2
AmdtSectionSymStdANSI
  3
"Amdt_StdImp|Product Description: AutoCAD Mechanical 2004 DX|Company: Autodesk"
 90
        0
280
     0
281
     0
  0
CLASS
  1
ACMCENTERLINESTANDARDANSI
  2
AmdtCenterLineStdANSI
  3
"Amdt_StdImp|Product Description: AutoCAD Mechanical 2004 DX|Company: Autodesk"
 90
        0
280
     0
281
     0
  0
CLASS
  1
ACMTHREADLINESTANDARDANSI
  2
AmdtThreadLineStdANSI
  3
"Amdt_StdImp|Product Description: AutoCAD Mechanical 2004 DX|Company: Autodesk"
 90
        0
280
     0
281
     0
  0
CLASS
  1
ACMNOTESTANDARDANSI
  2
AmdtNoteStdANSI
  3
"Amdt_StdImp|Product Description: AutoCAD Mechanical 2004 DX|Company: Autodesk"
 90
        0
280
     0
281
     0
  0
CLASS
  1
AMDTNOTETEMPLATEDB
  2
AmdtNoteTemplateDB
  3
AMDT_STDIMP_MODULE_NAME
 90
        0
280
     0
281
     0
  0
CLASS
  1
ACAMGLAYSTD
  2
AcAmgLayStd
  3
"AcAmgLayStd|Product Description: AutoCAD Mechanical 2000|Company: Autodesk"
 90
        0
280
     0
281
     0
  0
CLASS
  1
ACAMGDIMSTD
  2
AcAmgDimStd
  3
"AcAmgDimStd|Product Description: AutoCAD Mechanical 2000|Company: Autodesk"
 90
        0
280
     0
281
     0
  0
CLASS
  1
ACAMGHOLECHARTSTDANSI
  2
AcAmgHoleChartStdANSI
  3
ACMSYMBB_MODULE_NAME
 90
        0
280
     0
281
     0
  0
CLASS
  1
ACAMGTITLESTD
  2
AcAmgTitleStd
  3
"TITLEAPP"
 90
        0
280
     0
281
     0
  0
CLASS
  1
ACAMGFILTERDAT
  2
AcAmgFilterDat
  3
"AcadM|Product Description: AutoCAD Mechanical 2000|Company: Autodesk"
 90
        0
280
     0
281
     0
  0
CLASS
  1
DICTIONARYVAR
  2
AcDbDictionaryVar
  3
ObjectDBX Classes
 90
        0
280
     0
281
     0
  0
ENDSEC
  0
SECTION
  2
TABLES
  0
TABLE
  2
VPORT
  5
17AC21874A2FB9
330
0
100
AcDbSymbolTable
 70
     7
  0
VPORT
  5
17AC21874A39D2
330
17AC21874A2FB9
100
AcDbSymbolTableRecord
100
AcDbViewportTableRecord
  2
*Active
 70
     0
 10
0.0
 20
0.0
 11
1.0
 21
1.0
 12
1511.8
 22
1188.9
 13
0.0
 23
0.0
 14
0.2
 24
0.2
 15
0.25
 25
0.25
 16
0.0
 26
0.0
 36
1.0
 17
0.0
 27
0.0
 37
0.0
 40
3074.600000000001
 41
1.516981132075471
 42
50.0
 43
0.0
 44
0.0
 50
0.0
 51
0.0
 71
     0
 72
   100
 73
     1
 74
     0
 75
     1
 76
     0
 77
     0
 78
     0
281
     0
 65
     1
110
0.0
120
0.0
130
0.0
111
1.0
121
0.0
131
0.0
112
0.0
122
1.0
132
0.0
 79
     0
146
0.0
  0
ENDTAB
  0
TABLE
  2
LTYPE
  5
17AC21874A2FB6
330
0
100
AcDbSymbolTable
 70
    22
  0
LTYPE
  5
17AC21874A2FC3
330
17AC21874A2FB6
100
AcDbSymbolTableRecord
100
AcDbLinetypeTableRecord
  2
BYBLOCK
 70
     0
  3

 72
    65
 73
     0
 40
0.0
  0
LTYPE
  5
17AC21874A2FC4
330
17AC21874A2FB6
100
AcDbSymbolTableRecord
100
AcDbLinetypeTableRecord
  2
BYLAYER
 70
     0
  3

 72
    65
 73
     0
 40
0.0
  0
LTYPE
  5
17AC21874A2FC5
330
17AC21874A2FB6
100
AcDbSymbolTableRecord
100
AcDbLinetypeTableRecord
  2
CONTINUOUS
 70
     0
  3
Solid line
 72
    65
 73
     0
 40
0.0
  0
LTYPE
  5
17AC21874A2FD5
330
17AC21874A2FB6
100
AcDbSymbolTableRecord
100
AcDbLinetypeTableRecord
  2
ASSI5
 70
     0
  3
- . - . - . -
 72
    65
 73
     4
 40
10.0
 49
5.0
 74
     0
 49
-2.5
 74
     0
 49
0.0
 74
     0
 49
-2.5
 74
     0
  0
LTYPE
  5
17AC21874A2FD6
330
17AC21874A2FB6
100
AcDbSymbolTableRecord
100
AcDbLinetypeTableRecord
  2
ASSI10
 70
     0
  3
- . - . - . -
 72
    65
 73
     4
 40
20.0
 49
10.0
 74
     0
 49
-5.0
 74
     0
 49
0.0
 74
     0
 49
-5.0
 74
     0
  0
LTYPE
  5
17AC21874A2FD7
330
17AC21874A2FB6
100
AcDbSymbolTableRecord
100
AcDbLinetypeTableRecord
  2
TRATTO
 70
     0
  3
- - - - - - - - -
 72
    65
 73
     2
 40
5.0
 49
2.5
 74
     0
 49
-2.5
 74
     0
  0
LTYPE
  5
17AC21874A2FD8
330
17AC21874A2FB6
100
AcDbSymbolTableRecord
100
AcDbLinetypeTableRecord
  2
TRATTINO
 70
     0
  3
- - - - - - - - -
 72
    65
 73
     2
 40
3.0
 49
2.0
 74
     0
 49
-1.0
 74
     0
  0
LTYPE
  5
17AC21874A2FD9
330
17AC21874A2FB6
100
AcDbSymbolTableRecord
100
AcDbLinetypeTableRecord
  2
TRATTI1
 70
     0
  3
- - - - - - - - - - - - - - - - - - - - - -
 72
    65
 73
     2
 40
4.0
 49
2.5
 74
     0
 49
-1.5
 74
     0
  0
LTYPE
  5
17AC21874A2FDA
330
17AC21874A2FB6
100
AcDbSymbolTableRecord
100
AcDbLinetypeTableRecord
  2
ASSI
 70
     0
  3
assi
 72
    65
 73
     4
 40
17.0
 49
8.0
 74
     0
 49
-4.0
 74
     0
 49
1.0
 74
     0
 49
-4.0
 74
     0
  0
LTYPE
  5
17AC21874A3956
330
17AC21874A2FB6
100
AcDbSymbolTableRecord
100
AcDbLinetypeTableRecord
  2
HIDDEN
 70
     0
  3
Nascosta __ __ __ __ __ __ __ __ __ __ __ __ __ __
 72
    65
 73
     2
 40
0.375
 49
0.25
 74
     0
 49
-0.125
 74
     0
  0
LTYPE
  5
17AC21874A3957
330
17AC21874A2FB6
100
AcDbSymbolTableRecord
100
AcDbLinetypeTableRecord
  2
PHANTOM2
 70
     0
  3
Linea-Lineette (.5x) ___ _ _ ___ _ _ ___ _ _ ___ _ _
 72
    65
 73
     6
 40
1.25
 49
0.625
 74
     0
 49
-0.125
 74
     0
 49
0.125
 74
     0
 49
-0.125
 74
     0
 49
0.125
 74
     0
 49
-0.125
 74
     0
  0
LTYPE
  5
17AC21874A3958
330
17AC21874A2FB6
100
AcDbSymbolTableRecord
100
AcDbLinetypeTableRecord
  2
CENTER
 70
     0
  3
Linea-Lineetta ____ _ ____ _ ____ _ ____ _ ____ _ ____
 72
    65
 73
     4
 40
2.0
 49
1.25
 74
     0
 49
-0.25
 74
     0
 49
0.25
 74
     0
 49
-0.25
 74
     0
  0
LTYPE
  5
17AC21874A398C
330
17AC21874A2FB6
100
AcDbSymbolTableRecord
100
AcDbLinetypeTableRecord
  2
AM_ISO02W050
 70
     0
  3
__ __ __ __ __ __ __ __ __ __ __ __ __ __ __
 72
    65
 73
     2
 40
7.5
 49
6.0
 74
     0
 49
-1.5
 74
     0
  0
LTYPE
  5
17AC21874A398D
330
17AC21874A2FB6
100
AcDbSymbolTableRecord
100
AcDbLinetypeTableRecord
  2
AM_ISO08W050
 70
     0
  3
____ . ____ . ____ . ____ . ____ . ____ . ____
 72
    65
 73
     4
 40
18.0
 49
12.0
 74
     0
 49
-1.5
 74
     0
 49
3.0
 74
     0
 49
-1.5
 74
     0
  0
LTYPE
  5
17AC21874A398E
330
17AC21874A2FB6
100
AcDbSymbolTableRecord
100
AcDbLinetypeTableRecord
  2
AM_ISO09W050
 70
     0
  3
_____ . . _____ . . _____ . . ____ .. ____
 72
    65
 73
     6
 40
22.5
 49
12.0
 74
     0
 49
-1.5
 74
     0
 49
3.0
 74
     0
 49
-1.5
 74
     0
 49
3.0
 74
     0
 49
-1.5
 74
     0
  0
LTYPE
  5
17AC21874A398F
330
17AC21874A2FB6
100
AcDbSymbolTableRecord
100
AcDbLinetypeTableRecord
  2
Amconstr
 70
     0
  3
_______________________
 72
    65
 73
     2
 40
9999.0
 49
9999.0
 74
     0
 49
0.0
 74
     0
  0
LTYPE
  5
17AC21874A3990
330
17AC21874A2FB6
100
AcDbSymbolTableRecord
100
AcDbLinetypeTableRecord
  2
AM_ISO08W050x2
 70
     0
  3
__ . __ . __ . __ . __ . __
 72
    65
 73
     4
 40
9.0
 49
6.0
 74
     0
 49
-0.75
 74
     0
 49
1.5
 74
     0
 49
-0.75
 74
     0
  0
LTYPE
  5
17AC21874A3991
330
17AC21874A2FB6
100
AcDbSymbolTableRecord
100
AcDbLinetypeTableRecord
  2
AM_ISO02W050x2
 70
     0
  3
 _ _ _ _ _ _ _ _ _ _ _ _
 72
    65
 73
     2
 40
3.75
 49
3.0
 74
     0
 49
-0.75
 74
     0
  0
LTYPE
  5
17AC21874A3994
330
17AC21874A2FB6
100
AcDbSymbolTableRecord
100
AcDbLinetypeTableRecord
  2
Amzigzag
 70
     0
  3
/\/-/\/-/\/-/\/-/\/-/\/
 72
    65
 73
     2
 40
11.0001
 49
0.0001
 74
     4
 75
   135
340
17AC21874A3993
 46
0.04
 50
0.0
 44
0.0
 45
0.0
 49
-11.0
 74
     0
  0
LTYPE
  5
17AC21874A3995
330
17AC21874A2FB6
100
AcDbSymbolTableRecord
100
AcDbLinetypeTableRecord
  2
CENTER2
 70
     0
  3
Center (.5x) ___ _ ___ _ ___ _ ___ _ ___ _ ___
 72
    65
 73
     4
 40
1.125
 49
0.75
 74
     0
 49
-0.125
 74
     0
 49
0.125
 74
     0
 49
-0.125
 74
     0
  0
LTYPE
  5
17AC21874A3996
330
17AC21874A2FB6
100
AcDbSymbolTableRecord
100
AcDbLinetypeTableRecord
  2
HIDDEN2
 70
     0
  3
Hidden (.5x) _ _ _ _ _ _ _ _ _ _ _ _ _ _ _ _ _
 72
    65
 73
     2
 40
0.1875
 49
0.125
 74
     0
 49
-0.0625
 74
     0
  0
LTYPE
  5
17AC21874A3997
330
17AC21874A2FB6
100
AcDbSymbolTableRecord
100
AcDbLinetypeTableRecord
  2
Amzigzag2
 70
     0
  3
/\/-/\/-/\/-/\/-/\/-/\/
 72
    65
 73
     2
 40
0.4401
 49
0.0001
 74
     4
 75
   135
340
17AC21874A3993
 46
0.0016
 50
0.0
 44
0.0
 45
0.0
 49
-0.4400000000000001
 74
     0
  0
LTYPE
  5
17AC21874A39A5
330
17AC21874A2FB6
100
AcDbSymbolTableRecord
100
AcDbLinetypeTableRecord
  2
ACANSTGB
 70
     0
  3
__ . . __ . .
 72
    65
 73
     6
 40
0.35433070866
 49
0.15748031496
 74
     0
 49
-0.03937007874
 74
     0
 49
0.03937007874
 74
     0
 49
-0.03937007874
 74
     0
 49
0.03937007874
 74
     0
 49
-0.03937007874
 74
     0
  0
LTYPE
  5
17AC21874A39A6
330
17AC21874A2FB6
100
AcDbSymbolTableRecord
100
AcDbLinetypeTableRecord
  2
ACANSTGL
 70
     0
  3
_ _ _ _ _
 72
    65
 73
     2
 40
0.11811023622
 49
0.07874015748
 74
     0
 49
-0.03937007874
 74
     0
  0
ENDTAB
  0
TABLE
  2
LAYER
  5
17AC21874A2FB3
102
{ACAD_XDICTIONARY
360
17AC21874A39C5
102
}
330
0
100
AcDbSymbolTable
 70
    30
  0
LAYER
  5
17AC21874A2FC0
330
17AC21874A2FB3
100
AcDbSymbolTableRecord
100
AcDbLayerTableRecord
  2
0
 70
     0
 62
     7
  6
CONTINUOUS
370
    -3
390
17AC21874A353A
  0
LAYER
  5
17AC21874A2FE0
330
17AC21874A2FB3
100
AcDbSymbolTableRecord
100
AcDbLayerTableRecord
  2
BOLLINI
 70
     0
 62
     4
  6
CONTINUOUS
370
    -3
390
17AC21874A353A
  0
LAYER
  5
17AC21874A2FE1
330
17AC21874A2FB3
100
AcDbSymbolTableRecord
100
AcDbLayerTableRecord
  2
LINEAFIN
 70
     0
 62
     3
  6
CONTINUOUS
370
    -3
390
17AC21874A353A
  0
LAYER
  5
17AC21874A2FE2
330
17AC21874A2FB3
100
AcDbSymbolTableRecord
100
AcDbLayerTableRecord
  2
FILETTO
 70
     0
 62
     3
  6
CONTINUOUS
370
    -3
390
17AC21874A353A
  0
LAYER
  5
17AC21874A2FE3
330
17AC21874A2FB3
100
AcDbSymbolTableRecord
100
AcDbLayerTableRecord
  2
COSTRUZIONE
 70
     0
 62
     7
  6
CONTINUOUS
370
    -3
390
17AC21874A353A
  0
LAYER
  5
17AC21874A2FE4
330
17AC21874A2FB3
100
AcDbSymbolTableRecord
100
AcDbLayerTableRecord
  2
TESTO
 70
     0
 62
   254
  6
CONTINUOUS
370
    -3
390
17AC21874A353A
  0
LAYER
  5
17AC21874A2FE5
330
17AC21874A2FB3
100
AcDbSymbolTableRecord
100
AcDbLayerTableRecord
  2
FILETTONAS
 70
     0
 62
     3
  6
TRATTINO
370
    -3
390
17AC21874A353A
  0
LAYER
  5
17AC21874A2FE6
330
17AC21874A2FB3
100
AcDbSymbolTableRecord
100
AcDbLayerTableRecord
  2
TOLLERANZE-G
 70
     0
 62
     3
  6
CONTINUOUS
370
    -3
390
17AC21874A353A
  0
LAYER
  5
17AC21874A2FE7
330
17AC21874A2FB3
100
AcDbSymbolTableRecord
100
AcDbLayerTableRecord
  2
BULLONI
 70
     0
 62
    30
  6
CONTINUOUS
370
    -3
390
17AC21874A353A
  0
LAYER
  5
17AC21874A2FE8
330
17AC21874A2FB3
100
AcDbSymbolTableRecord
100
AcDbLayerTableRecord
  2
VITE
 70
     0
 62
    30
  6
CONTINUOUS
370
    -3
390
17AC21874A353A
  0
LAYER
  5
17AC21874A2FE9
330
17AC21874A2FB3
100
AcDbSymbolTableRecord
100
AcDbLayerTableRecord
  2
DADO
 70
     0
 62
    30
  6
CONTINUOUS
370
    -3
390
17AC21874A353A
  0
LAYER
  5
17AC21874A2FEA
330
17AC21874A2FB3
100
AcDbSymbolTableRecord
100
AcDbLayerTableRecord
  2
CUSCINETTO
 70
     0
 62
   240
  6
CONTINUOUS
370
    -3
390
17AC21874A353A
  0
LAYER
  5
17AC21874A2FEB
330
17AC21874A2FB3
100
AcDbSymbolTableRecord
100
AcDbLayerTableRecord
  2
SEDI
 70
     0
 62
     7
  6
CONTINUOUS
370
    -3
390
17AC21874A353A
  0
LAYER
  5
17AC21874A2FEC
330
17AC21874A2FB3
100
AcDbSymbolTableRecord
100
AcDbLayerTableRecord
  2
FLANGIA
 70
     0
 62
     7
  6
CONTINUOUS
370
    -3
390
17AC21874A353A
  0
LAYER
  5
17AC21874A2FED
330
17AC21874A2FB3
100
AcDbSymbolTableRecord
100
AcDbLayerTableRecord
  2
NASCOSTO
 70
     0
 62
     6
  6
TRATTINO
370
    -3
390
17AC21874A353A
  0
LAYER
  5
17AC21874A2FEE
330
17AC21874A2FB3
100
AcDbSymbolTableRecord
100
AcDbLayerTableRecord
  2
SPINA
 70
     0
 62
     7
  6
CONTINUOUS
370
    -3
390
17AC21874A353A
  0
LAYER
  5
17AC21874A2FEF
330
17AC21874A2FB3
100
AcDbSymbolTableRecord
100
AcDbLayerTableRecord
  2
SIMBOLO
 70
     0
 62
     4
  6
CONTINUOUS
370
    -3
390
17AC21874A353A
  0
LAYER
  5
17AC21874A2FF0
330
17AC21874A2FB3
100
AcDbSymbolTableRecord
100
AcDbLayerTableRecord
  2
DISTINTA
 70
     0
 62
     7
  6
CONTINUOUS
370
    -3
390
17AC21874A353A
  0
LAYER
  5
17AC21874A2FF1
330
17AC21874A2FB3
100
AcDbSymbolTableRecord
100
AcDbLayerTableRecord
  2
CARTIGLIO
 70
     0
 62
     9
  6
CONTINUOUS
370
    -3
390
17AC21874A353A
  0
LAYER
  5
17AC21874A2FF2
330
17AC21874A2FB3
100
AcDbSymbolTableRecord
100
AcDbLayerTableRecord
  2
PROFILATO
 70
     0
 62
     7
  6
CONTINUOUS
370
    -3
390
17AC21874A353A
  0
LAYER
  5
17AC21874A2FF3
330
17AC21874A2FB3
100
AcDbSymbolTableRecord
100
AcDbLayerTableRecord
  2
SQUADRATURA
 70
     0
 62
     9
  6
CONTINUOUS
370
    -3
390
17AC21874A353A
  0
LAYER
  5
17AC21874A2FF4
330
17AC21874A2FB3
100
AcDbSymbolTableRecord
100
AcDbLayerTableRecord
  2
ASSE
 70
     0
 62
     1
  6
ASSI
370
    -3
390
17AC21874A353A
  0
LAYER
  5
17AC21874A2FF5
330
17AC21874A2FB3
100
AcDbSymbolTableRecord
100
AcDbLayerTableRecord
  2
SEZIONE
 70
     0
 62
     4
  6
CONTINUOUS
370
    -3
390
17AC21874A353A
  0
LAYER
  5
17AC21874A2FF6
330
17AC21874A2FB3
100
AcDbSymbolTableRecord
100
AcDbLayerTableRecord
  2
QUOTA
 70
     0
 62
     3
  6
CONTINUOUS
370
    -3
390
17AC21874A353A
  0
LAYER
  5
17AC21874A2FF7
330
17AC21874A2FB3
100
AcDbSymbolTableRecord
100
AcDbLayerTableRecord
  2
TRAVE
 70
     0
 62
     7
  6
CONTINUOUS
370
    -3
390
17AC21874A353A
  0
LAYER
  5
17AC21874A2FF8
330
17AC21874A2FB3
100
AcDbSymbolTableRecord
100
AcDbLayerTableRecord
  2
SALDATURA
 70
     0
 62
     2
  6
CONTINUOUS
370
    -3
390
17AC21874A353A
  0
LAYER
  5
17AC21874A2FF9
330
17AC21874A2FB3
100
AcDbSymbolTableRecord
100
AcDbLayerTableRecord
  2
DEFPOINTS
 70
     0
 62
     7
  6
CONTINUOUS
290
     0
370
    -3
390
17AC21874A353A
  0
LAYER
  5
17AC21874A2FFA
330
17AC21874A2FB3
100
AcDbSymbolTableRecord
100
AcDbLayerTableRecord
  2
DATI
 70
     1
 62
   254
  6
CONTINUOUS
370
    -3
390
17AC21874A353A
  0
LAYER
  5
17AC21874A39C4
330
17AC21874A2FB3
100
AcDbSymbolTableRecord
100
AcDbLayerTableRecord
  2
AM_0
 70
     0
 62
     7
  6
CONTINUOUS
370
    30
390
17AC21874A353A
  0
LAYER
  5
17AC21874A39C7
330
17AC21874A2FB3
100
AcDbSymbolTableRecord
100
AcDbLayerTableRecord
  2
AM_4
 70
     0
 62
     3
  6
CONTINUOUS
370
    15
390
17AC21874A353A
  0
ENDTAB
  0
TABLE
  2
STYLE
  5
17AC21874A2FB4
330
0
100
AcDbSymbolTable
 70
     8
  0
STYLE
  5
17AC21874A2FC1
330
17AC21874A2FB4
100
AcDbSymbolTableRecord
100
AcDbTextStyleTableRecord
  2
STANDARD
 70
     0
 40
0.0
 41
1.0
 50
0.0
 71
     0
 42
0.2
  3
TXT.SHX
  4

  0
STYLE
  5
17AC21874A2FD1
330
17AC21874A2FB4
100
AcDbSymbolTableRecord
100
AcDbTextStyleTableRecord
  2
SANSSERIFBOLD
 70
     0
 40
0.0
 41
1.0
 50
0.0
 71
     0
 42
2.5
  3
sasb____.pfb
  4

  0
STYLE
  5
17AC21874A2FD2
330
17AC21874A2FB4
100
AcDbSymbolTableRecord
100
AcDbTextStyleTableRecord
  2
ROMANS
 70
     0
 40
0.0
 41
0.8
 50
0.0
 71
     0
 42
3.0
  3
romans
  4

  0
STYLE
  5
17AC21874A2FD3
330
17AC21874A2FB4
100
AcDbSymbolTableRecord
100
AcDbTextStyleTableRecord
  2
ROMANC
 70
     0
 40
2.7
 41
0.8
 50
0.0
 71
     0
 42
8.808067653947915
  3
romanc
  4

  0
STYLE
  5
17AC21874A2FD4
330
17AC21874A2FB4
100
AcDbSymbolTableRecord
100
AcDbTextStyleTableRecord
  2
ROMANT
 70
     0
 40
3.5
 41
1.0
 50
0.0
 71
     0
 42
8.808067653947915
  3
romant
  4

  0
STYLE
  5
17AC21874A3993
330
17AC21874A2FB4
100
AcDbSymbolTableRecord
100
AcDbTextStyleTableRecord
  2

 70
     1
 40
0.0
 41
1.0
 50
0.0
 71
     0
 42
3.0
  3
ltypeshp.shx
  4

  0
STYLE
  5
17AC21874A3998
330
17AC21874A2FB4
100
AcDbSymbolTableRecord
100
AcDbTextStyleTableRecord
  2
ACANSTS
 70
     0
 40
1.0
 41
1.0
 50
0.0
 71
     0
 42
3.0
  3
romans.shx
  4

  0
STYLE
  5
17AC21874A39A4
330
17AC21874A2FB4
100
AcDbSymbolTableRecord
100
AcDbTextStyleTableRecord
  2
ACANSGDT
 70
     0
 40
0.0
 41
1.0
 50
0.0
 71
     0
 42
3.0
  3
amgdtans.shx
  4

  0
ENDTAB
  0
TABLE
  2
VIEW
  5
17AC21874A2FB7
330
0
100
AcDbSymbolTable
 70
     0
  0
ENDTAB
  0
TABLE
  2
UCS
  5
17AC21874A2FB8
330
0
100
AcDbSymbolTable
 70
     0
  0
ENDTAB
  0
TABLE
  2
APPID
  5
17AC21874A2FBA
330
0
100
AcDbSymbolTable
 70
     9
  0
APPID
  5
17AC21874A2FC2
330
17AC21874A2FBA
100
AcDbSymbolTableRecord
100
AcDbRegAppTableRecord
  2
ACAD
 70
     0
  0
APPID
  5
17AC21874A2FDD
330
17AC21874A2FBA
100
AcDbSymbolTableRecord
100
AcDbRegAppTableRecord
  2
AVE_RENDER
 70
     0
  0
APPID
  5
17AC21874A3929
330
17AC21874A2FBA
100
AcDbSymbolTableRecord
100
AcDbRegAppTableRecord
  2
MCAD_NO_VIS
 70
     0
  0
APPID
  5
17AC21874A392A
330
17AC21874A2FBA
100
AcDbSymbolTableRecord
100
AcDbRegAppTableRecord
  2
ACAD_TEMP_GRAPHIC
 70
     0
  0
APPID
  5
17AC21874A395A
330
17AC21874A2FBA
100
AcDbSymbolTableRecord
100
AcDbRegAppTableRecord
  2
AD_DRAW
 70
     0
  0
APPID
  5
17AC21874A395D
330
17AC21874A2FBA
100
AcDbSymbolTableRecord
100
AcDbRegAppTableRecord
  2
ACATTRIBSERVICES
 70
     0
  0
APPID
  5
17AC21874A397B
330
17AC21874A2FBA
100
AcDbSymbolTableRecord
100
AcDbRegAppTableRecord
  2
DESIGNERASSEMBLIES
 70
     0
  0
APPID
  5
17AC21874A3981
330
17AC21874A2FBA
100
AcDbSymbolTableRecord
100
AcDbRegAppTableRecord
  2
ACADM_DIM_EDIT
 70
     0
  0
APPID
  5
17AC21874A3982
330
17AC21874A2FBA
100
AcDbSymbolTableRecord
100
AcDbRegAppTableRecord
  2
AMDT_DM_ADJ
 70
     0
  0
ENDTAB
  0
TABLE
  2
DIMSTYLE
  5
17AC21874A2FBB
330
0
100
AcDbSymbolTable
 70
     8
100
AcDbDimStyleTable
 71
     1
340
17AC21874A2FDF
  0
DIMSTYLE
105
17AC21874A2FDE
330
17AC21874A2FBB
100
AcDbSymbolTableRecord
100
AcDbDimStyleTableRecord
  2
SCALA-1
 70
     0
 41
3.0
 42
2.0
 43
10.0
 44
2.0
 47
0.1
 48
0.15
 73
     0
 74
     0
 77
     1
 78
     8
140
3.0
141
0.5
146
0.6666666666666666
147
1.0
172
     1
176
   256
177
     5
271
     2
272
     2
275
     1
279
     2
284
     8
285
     8
286
     8
340
17AC21874A2FD2
  0
DIMSTYLE
105
17AC21874A2FDF
102
{ACAD_REACTORS
330
17AC21874A3591
330
17AC21874A36D1
330
17AC21874A36E7
330
17AC21874A3713
330
17AC21874A36FD
102
}
330
17AC21874A2FBB
100
AcDbSymbolTableRecord
100
AcDbDimStyleTableRecord
  2
BASE
 70
     0
 41
3.0
 42
2.0
 43
10.0
 44
2.0
 47
0.1
 48
0.15
 73
     0
 74
     0
 77
     1
 78
     8
140
3.0
141
0.5
146
0.6666666666666666
147
1.0
172
     1
176
   256
177
   256
178
   254
279
     2
340
17AC21874A2FD2
  0
DIMSTYLE
105
17AC21874A39AF
330
17AC21874A2FBB
100
AcDbSymbolTableRecord
100
AcDbDimStyleTableRecord
  2
AM_ANSI
 70
     0
  4
mm
 41
0.1
 42
0.05
 43
0.5
 44
0.1
 47
0.1
 48
0.1
 78
     7
 79
     2
140
0.12
141
0.0
146
0.71
147
0.06
176
   256
177
   256
178
     2
274
     4
284
     7
340
17AC21874A2FC1
371
    -1
372
    -1
  0
DIMSTYLE
105
17AC21874A39B0
330
17AC21874A2FBB
100
AcDbSymbolTableRecord
100
AcDbDimStyleTableRecord
  2
AM_ANSI$3
 70
     0
  4
mm
 41
0.1
 42
0.05
 43
0.5
 44
0.1
 47
0.1
 48
0.1
 78
     7
 79
     2
140
0.12
141
0.0
146
0.71
147
0.06
176
   256
177
   256
178
     2
274
     4
284
     7
288
     1
289
     0
340
17AC21874A2FC1
371
    -1
372
    -1
  0
DIMSTYLE
105
17AC21874A39B1
330
17AC21874A2FBB
100
AcDbSymbolTableRecord
100
AcDbDimStyleTableRecord
  2
AM_ANSI$4
 70
     0
  4
mm
 41
0.1
 42
0.05
 43
0.5
 44
0.1
 47
0.1
 48
0.1
 78
     7
 79
     2
140
0.12
141
0.0
146
0.71
147
0.06
176
   256
177
   256
178
     2
274
     4
284
     7
288
     1
289
     0
340
17AC21874A2FC1
371
    -1
372
    -1
  0
DIMSTYLE
105
17AC21874A39B2
330
17AC21874A2FBB
100
AcDbSymbolTableRecord
100
AcDbDimStyleTableRecord
  2
AM_ANSI$7
 70
     0
  4
mm
 41
0.1
 42
0.05
 43
0.5
 44
0.1
 47
0.1
 48
0.1
 78
     7
 79
     2
140
0.24
141
0.0
146
0.71
147
0.06
176
   256
177
   256
178
     2
274
     4
284
     7
340
17AC21874A2FC1
371
    -1
372
    -1
  0
DIMSTYLE
105
17AC21874A39B3
330
17AC21874A2FBB
100
AcDbSymbolTableRecord
100
AcDbDimStyleTableRecord
  2
AM_ANSI$SF
 70
     0
  4
mm
 41
0.1
 42
0.05
 43
0.5
 44
0.1
 47
0.1
 48
0.1
 75
     1
 76
     1
 78
     7
 79
     2
140
0.12
141
0.0
146
0.71
147
0.06
176
   256
177
   256
178
     2
274
     4
284
     7
340
17AC21874A2FC1
371
    -1
372
    -1
  0
DIMSTYLE
105
17AC21874A39B8
330
17AC21874A2FBB
100
AcDbSymbolTableRecord
100
AcDbDimStyleTableRecord
  2
AM_ANSI$SH
 70
     0
  4
mm
 41
0.1
 42
0.05
 43
0.5
 44
0.1
 47
0.1
 48
0.1
 75
     1
 76
     1
 78
     7
 79
     2
140
0.12
141
0.0
146
0.71
147
0.06
173
     1
176
   256
177
   256
178
     2
274
     4
284
     7
340
17AC21874A2FC1
343
17AC21874A39B4
371
    -1
372
    -1
  0
ENDTAB
  0
TABLE
  2
BLOCK_RECORD
  5
17AC21874A2FB2
330
0
100
AcDbSymbolTable
 70
    21
  0
BLOCK_RECORD
  5
17AC21874A2FC9
330
17AC21874A2FB2
100
AcDbSymbolTableRecord
100
AcDbBlockTableRecord
  2
*MODEL_SPACE
340
17AC21874A353D
  0
BLOCK_RECORD
  5
17AC21874A2FC6
330
17AC21874A2FB2
100
AcDbSymbolTableRecord
100
AcDbBlockTableRecord
  2
*PAPER_SPACE
340
17AC21874A353E
  0
BLOCK_RECORD
  5
17AC21874A2FCD
330
17AC21874A2FB2
100
AcDbSymbolTableRecord
100
AcDbBlockTableRecord
  2
AVE_RENDER
340
0
102
{BLKREFS
331
151
331
152
331
153
102
}
  0
BLOCK_RECORD
  5
17AC21874A2FCE
330
17AC21874A2FB2
100
AcDbSymbolTableRecord
100
AcDbBlockTableRecord
  2
SCALA1
340
0
102
{BLKREFS
331
D132099FA66
102
}
  0
BLOCK_RECORD
  5
17AC21874A2FCF
330
17AC21874A2FB2
100
AcDbSymbolTableRecord
100
AcDbBlockTableRecord
  2
FR0
340
0
  0
BLOCK_RECORD
  5
17AC21874A2FD0
330
17AC21874A2FB2
100
AcDbSymbolTableRecord
100
AcDbBlockTableRecord
  2
FR1
340
0
  0
BLOCK_RECORD
  5
17AC21874A338A
330
17AC21874A2FB2
100
AcDbSymbolTableRecord
100
AcDbBlockTableRecord
  2
A$C1
340
0
  0
BLOCK_RECORD
  5
17AC21874A3436
330
17AC21874A2FB2
100
AcDbSymbolTableRecord
100
AcDbBlockTableRecord
  2
A$C6
340
0
102
{BLKREFS
331
17AC21874A343C
102
}
  0
BLOCK_RECORD
  5
17AC21874A3592
330
17AC21874A2FB2
100
AcDbSymbolTableRecord
100
AcDbBlockTableRecord
  2
*D6
340
0
  0
BLOCK_RECORD
  5
17AC21874A3665
330
17AC21874A2FB2
100
AcDbSymbolTableRecord
100
AcDbBlockTableRecord
  2
A$C33712568
340
0
  0
BLOCK_RECORD
  5
17AC21874A36D2
330
17AC21874A2FB2
100
AcDbSymbolTableRecord
100
AcDbBlockTableRecord
  2
*D8
340
0
  0
BLOCK_RECORD
  5
17AC21874A36E8
330
17AC21874A2FB2
100
AcDbSymbolTableRecord
100
AcDbBlockTableRecord
  2
*D9
340
0
  0
BLOCK_RECORD
  5
17AC21874A36FE
330
17AC21874A2FB2
100
AcDbSymbolTableRecord
100
AcDbBlockTableRecord
  2
*D10
340
0
  0
BLOCK_RECORD
  5
17AC21874A3714
330
17AC21874A2FB2
100
AcDbSymbolTableRecord
100
AcDbBlockTableRecord
  2
*D11
340
0
  0
BLOCK_RECORD
  5
17AC21874A37A4
330
17AC21874A2FB2
100
AcDbSymbolTableRecord
100
AcDbBlockTableRecord
  2
A$C01986F17
340
0
  0
BLOCK_RECORD
  5
17AC21874A3854
330
17AC21874A2FB2
100
AcDbSymbolTableRecord
100
AcDbBlockTableRecord
  2
A$C12815D42
340
0
  0
BLOCK_RECORD
  5
17AC21874A39B4
330
17AC21874A2FB2
100
AcDbSymbolTableRecord
100
AcDbBlockTableRecord
  2
GENAXEH
340
0
  0
ENDTAB
  0
ENDSEC
  0
SECTION
  2
BLOCKS
  0
BLOCK
  5
17AC21874A2FFD
330
17AC21874A2FC9
100
AcDbEntity
  8
0
100
AcDbBlockBegin
  2
*MODEL_SPACE
 70
     0
 10
0.0
 20
0.0
 30
0.0
  3
*MODEL_SPACE
  1

  0
ENDBLK
  5
17AC21874A2FFE
330
17AC21874A2FC9
100
AcDbEntity
  8
0
100
AcDbBlockEnd
  0
BLOCK
  5
17AC21874A2FFB
330
17AC21874A2FC6
100
AcDbEntity
 67
     1
  8
0
100
AcDbBlockBegin
  2
*PAPER_SPACE
 70
     0
 10
0.0
 20
0.0
 30
0.0
  3
*PAPER_SPACE
  1

  0
ENDBLK
  5
17AC21874A2FFC
330
17AC21874A2FC6
100
AcDbEntity
 67
     1
  8
0
100
AcDbBlockEnd
  0
BLOCK
  5
14F
330
17AC21874A2FCD
100
AcDbEntity
  8
0
100
AcDbBlockBegin
  2
AVE_RENDER
 70
     0
 10
0.0
 20
0.0
 30
0.0
  3
AVE_RENDER
  1
AVE_RENDER
  0
ENDBLK
  5
150
330
17AC21874A2FCD
100
AcDbEntity
  8
0
100
AcDbBlockEnd
  0
BLOCK
  5
D132099F947
330
17AC21874A2FCE
100
AcDbEntity
  8
0
100
AcDbBlockBegin
  2
SCALA1
 70
     0
 10
0.0
 20
0.0
 30
0.0
  3
SCALA1
  1

  0
ENDBLK
  5
D132099FA65
330
17AC21874A2FCE
100
AcDbEntity
  8
0
100
AcDbBlockEnd
  0
BLOCK
  5
17AC21874A2E96
330
17AC21874A2FCF
100
AcDbEntity
  8
0
100
AcDbBlockBegin
  2
FR0
 70
     0
 10
0.0
 20
0.0
 30
0.0
  3
FR0
  1

  0
LINE
  5
17AC21874A2E97
330
17AC21874A2FCF
100
AcDbEntity
  8
0
 62
     0
100
AcDbLine
 10
-1.0
 20
0.0
 30
0.0
 11
0.0
 21
0.0
 31
0.0
  0
ENDBLK
  5
17AC21874A2E98
330
17AC21874A2FCF
100
AcDbEntity
  8
0
100
AcDbBlockEnd
  0
BLOCK
  5
17AC21874A2E9A
330
17AC21874A2FD0
100
AcDbEntity
  8
0
100
AcDbBlockBegin
  2
FR1
 70
     0
 10
0.0
 20
0.0
 30
0.0
  3
FR1
  1

  0
SOLID
  5
17AC21874A2E9B
330
17AC21874A2FD0
100
AcDbEntity
  8
0
  6
ByBlock
 62
     0
100
AcDbTrace
 10
-1.0
 20
0.1666666666666572
 30
0.0
 11
-1.0
 21
-0.1666666666666572
 31
0.0
 12
0.0
 22
0.0
 32
0.0
 13
0.0
 23
0.0
 33
0.0
  0
ENDBLK
  5
17AC21874A2E9C
330
17AC21874A2FD0
100
AcDbEntity
  8
0
100
AcDbBlockEnd
  0
BLOCK
  5
17AC21874A33CD
330
17AC21874A338A
100
AcDbEntity
  8
0
100
AcDbBlockBegin
  2
A$C1
 70
     0
 10
0.0
 20
0.0
 30
0.0
  3
A$C1
  1

  0
LINE
  5
17AC21874A338B
330
17AC21874A338A
100
AcDbEntity
  8
0
100
AcDbLine
 10
2689.584587478007
 20
4.447123275997739
 30
0.0
 11
3270.08390126417
 21
4.447123275997739
 31
0.0
  0
LINE
  5
17AC21874A338C
330
17AC21874A338A
100
AcDbEntity
  8
0
100
AcDbLine
 10
2689.584587478007
 20
15.80079711906256
 30
0.0
 11
3270.08390126417
 21
15.80079711906256
 31
0.0
  0
TEXT
  5
17AC21874A338D
330
17AC21874A338A
100
AcDbEntity
  8
TESTO
100
AcDbText
 10
2686.316174806704
 20
24.25589484882659
 30
0.0
 40
50.0
  1
QUADRO ELETTRICO
 41
0.8
  7
ROMANS
100
AcDbText
  0
LINE
  5
17AC21874A338E
330
17AC21874A338A
100
AcDbEntity
  8
SQUADRATURA
100
AcDbLine
 10
2.956728884124579
 20
2174.089712292888
 30
0.0
 11
878.9265661898136
 21
2174.089712292888
 31
0.0
  0
LINE
  5
17AC21874A338F
330
17AC21874A338A
100
AcDbEntity
  8
SQUADRATURA
100
AcDbLine
 10
2.956728884124579
 20
2069.487277653438
 30
0.0
 11
875.2535965395766
 21
2069.487277653438
 31
0.0
  0
LINE
  5
17AC21874A3390
330
17AC21874A338A
100
AcDbEntity
  8
SQUADRATURA
100
AcDbLine
 10
2.956728884124579
 20
1968.054611581344
 30
0.0
 11
871.5806173347644
 21
1968.054611581344
 31
0.0
  0
LINE
  5
17AC21874A3391
330
17AC21874A338A
100
AcDbEntity
  8
SQUADRATURA
100
AcDbLine
 10
2.956728884124579
 20
1853.94287123983
 30
0.0
 11
871.5806173347644
 21
1853.94287123983
 31
0.0
  0
LINE
  5
17AC21874A3392
330
17AC21874A338A
100
AcDbEntity
  8
SQUADRATURA
100
AcDbLine
 10
2.956728884124579
 20
1731.906698415815
 30
0.0
 11
875.2535965395766
 21
1731.906698415815
 31
0.0
  0
LINE
  5
17AC21874A3393
330
17AC21874A338A
100
AcDbEntity
  8
SQUADRATURA
100
AcDbLine
 10
2.956728884124579
 20
1624.134489676954
 30
0.0
 11
875.2535965395766
 21
1624.134489676954
 31
0.0
  0
LINE
  5
17AC21874A3394
330
17AC21874A338A
100
AcDbEntity
  8
SQUADRATURA
100
AcDbLine
 10
2.956728884124579
 20
1502.098322384996
 30
0.0
 11
871.5806173347644
 21
1502.098322384996
 31
0.0
  0
LINE
  5
17AC21874A3395
330
17AC21874A338A
100
AcDbEntity
  8
SQUADRATURA
100
AcDbLine
 10
2.956728884124579
 20
1384.816802412014
 30
0.0
 11
871.5806173347644
 21
1384.816802412014
 31
0.0
  0
LINE
  5
17AC21874A3396
330
17AC21874A338A
100
AcDbEntity
  8
SQUADRATURA
100
AcDbLine
 10
2.956728884124579
 20
1256.441086921233
 30
0.0
 11
875.5607417240733
 21
1256.441086921233
 31
0.0
  0
LINE
  5
17AC21874A3397
330
17AC21874A338A
100
AcDbEntity
  8
SQUADRATURA
100
AcDbLine
 10
2.66103998275151
 20
2422.025253144033
 30
0.0
 11
2.66103998275151
 21
1465.617958464217
 31
0.0
  0
LINE
  5
17AC21874A3398
330
17AC21874A338A
100
AcDbEntity
  8
0
100
AcDbLine
 10
2.66103998275151
 20
1889.284368001104
 30
0.0
 11
363.3570891148551
 21
1889.284368001104
 31
0.0
  0
LINE
  5
17AC21874A3399
330
17AC21874A338A
100
AcDbEntity
  8
0
100
AcDbLine
 10
2.66103998275151
 20
1983.109427342208
 30
0.0
 11
388.3558214777274
 21
1983.109427342208
 31
0.0
  0
LINE
  5
17AC21874A339A
330
17AC21874A338A
100
AcDbEntity
  8
0
100
AcDbLine
 10
2.66103998275151
 20
1876.605288199629
 30
0.0
 11
363.3570891148551
 21
1876.605288199629
 31
0.0
  0
TEXT
  5
17AC21874A339B
330
17AC21874A338A
100
AcDbEntity
  8
TESTO
100
AcDbText
 10
11.78411396713284
 20
1895.686282737734
 30
0.0
 40
40.0
  1
3.500 B/h
 41
0.8
  7
ROMANS
100
AcDbText
  0
LINE
  5
17AC21874A339C
330
17AC21874A338A
100
AcDbEntity
  8
0
100
AcDbLine
 10
2.66103998275151
 20
1646.258012456043
 30
0.0
 11
281.2183826820701
 21
1646.258012456043
 31
0.0
  0
LINE
  5
17AC21874A339D
330
17AC21874A338A
100
AcDbEntity
  8
0
100
AcDbLine
 10
2.66103998275151
 20
1636.748701221922
 30
0.0
 11
281.2183826820701
 21
1636.748701221922
 31
0.0
  0
TEXT
  5
17AC21874A339E
330
17AC21874A338A
100
AcDbEntity
  8
TESTO
100
AcDbText
 10
8.608580996647042
 20
1651.346010430021
 30
0.0
 40
40.0
  1
2500 mm
 41
0.8
  7
ROMANS
100
AcDbText
  0
LINE
  5
17AC21874A339F
330
17AC21874A338A
100
AcDbEntity
  8
0
100
AcDbLine
 10
2.66103998275151
 20
1766.385758695466
 30
0.0
 11
638.3431817186074
 21
1766.385758695466
 31
0.0
  0
LINE
  5
17AC21874A33A0
330
17AC21874A338A
100
AcDbEntity
  8
0
100
AcDbLine
 10
2.66103998275151
 20
1535.492894349992
 30
0.0
 11
602.6307082220804
 21
1535.492894349992
 31
0.0
  0
LINE
  5
17AC21874A33A1
330
17AC21874A338A
100
AcDbEntity
  8
0
100
AcDbLine
 10
2.66103998275151
 20
1415.358044037841
 30
0.0
 11
531.20574292295
 21
1415.358044037841
 31
0.0
  0
LINE
  5
17AC21874A33A2
330
17AC21874A338A
100
AcDbEntity
  8
0
100
AcDbLine
 10
2.66103998275151
 20
1752.121789078256
 30
0.0
 11
638.3431817186074
 21
1752.121789078256
 31
0.0
  0
LINE
  5
17AC21874A33A3
330
17AC21874A338A
100
AcDbEntity
  8
0
100
AcDbLine
 10
2.66103998275151
 20
1522.813814548516
 30
0.0
 11
602.6307082220804
 21
1522.813814548516
 31
0.0
  0
LINE
  5
17AC21874A33A4
330
17AC21874A338A
100
AcDbEntity
  8
0
100
AcDbLine
 10
2.66103998275151
 20
1401.094079952686
 30
0.0
 11
531.20574292295
 21
1401.094079952686
 31
0.0
  0
TEXT
  5
17AC21874A33A5
330
17AC21874A338A
100
AcDbEntity
  8
TESTO
100
AcDbText
 10
8.608580996647042
 20
1771.929518314858
 30
0.0
 40
40.0
  1
LUNGHEZZA NASTRO
 41
0.8
  7
ROMANS
100
AcDbText
  0
TEXT
  5
17AC21874A33A6
330
17AC21874A338A
100
AcDbEntity
  8
TESTO
100
AcDbText
 10
5.433056871014677
 20
1543.455501968378
 30
0.0
 40
40.0
  1
DIMENSIONI NASTRO
 41
0.8
  7
ROMANS
100
AcDbText
  0
TEXT
  5
17AC21874A33A7
330
17AC21874A338A
100
AcDbEntity
  8
TESTO
100
AcDbText
 10
11.78411396713284
 20
1422.871994083541
 30
0.0
 40
40.0
  1
ALTEZZA 100 mm
 41
0.8
  7
ROMANS
100
AcDbText
  0
LINE
  5
17AC21874A33A8
330
17AC21874A338A
100
AcDbEntity
  8
0
100
AcDbLine
 10
2.956728884124579
 20
1288.202865897778
 30
0.0
 11
588.1996161959667
 21
1288.202865897778
 31
0.0
  0
LINE
  5
17AC21874A33A9
330
17AC21874A338A
100
AcDbEntity
  8
0
100
AcDbLine
 10
2.956728884124579
 20
1272.354011996891
 30
0.0
 11
588.1996161959667
 21
1272.354011996891
 31
0.0
  0
TEXT
  5
17AC21874A33AA
330
17AC21874A338A
100
AcDbEntity
  8
TESTO
100
AcDbText
 10
8.608580996647042
 20
1299.115235006457
 30
0.0
 40
40.0
  1
LARGHEZZA 120 mm
 41
0.8
  7
ROMANS
100
AcDbText
  0
LINE
  5
17AC21874A33AB
330
17AC21874A338A
100
AcDbEntity
  8
SQUADRATURA
100
AcDbLine
 10
2.66103998275151
 20
1465.617958464217
 30
0.0
 11
2.66103998275151
 21
1255.807152016753
 31
0.0
  0
LINE
  5
17AC21874A33AC
330
17AC21874A338A
100
AcDbEntity
  8
0
100
AcDbLine
 10
588.1996161959667
 20
1288.202865897778
 30
0.0
 11
685.9920260884662
 21
1288.202865897778
 31
0.0
  0
LINE
  5
17AC21874A33AD
330
17AC21874A338A
100
AcDbEntity
  8
0
100
AcDbLine
 10
588.1996161959667
 20
1272.354011996891
 30
0.0
 11
686.8673748695853
 21
1272.354011996891
 31
0.0
  0
LINE
  5
17AC21874A33AE
330
17AC21874A338A
100
AcDbEntity
  8
0
100
AcDbLine
 10
531.20574292295
 20
1415.358044037841
 30
0.0
 11
606.3351366440599
 21
1415.358044037841
 31
0.0
  0
LINE
  5
17AC21874A33AF
330
17AC21874A338A
100
AcDbEntity
  8
0
100
AcDbLine
 10
531.20574292295
 20
1401.094079952686
 30
0.0
 11
606.3351366440599
 21
1401.094079952686
 31
0.0
  0
LINE
  5
17AC21874A33B0
330
17AC21874A338A
100
AcDbEntity
  8
0
100
AcDbLine
 10
602.6307082220804
 20
1522.813814548516
 30
0.0
 11
643.9752049910379
 21
1522.813814548516
 31
0.0
  0
LINE
  5
17AC21874A33B1
330
17AC21874A338A
100
AcDbEntity
  8
0
100
AcDbLine
 10
388.3558214777274
 20
1983.109427342208
 30
0.0
 11
408.5059406271533
 21
1983.109427342208
 31
0.0
  0
LINE
  5
17AC21874A33B2
330
17AC21874A338A
100
AcDbEntity
  8
0
100
AcDbLine
 10
281.2183826820701
 20
1636.748701221922
 30
0.0
 11
331.4751063709607
 21
1636.748701221922
 31
0.0
  0
LINE
  5
17AC21874A33B3
330
17AC21874A338A
100
AcDbEntity
  8
0
100
AcDbLine
 10
281.2183826820701
 20
1646.258012456043
 30
0.0
 11
331.4751063709607
 21
1646.258012456043
 31
0.0
  0
LINE
  5
17AC21874A33B4
330
17AC21874A338A
100
AcDbEntity
  8
0
100
AcDbLine
 10
363.3570891148551
 20
1876.605288199629
 30
0.0
 11
388.3728832819857
 21
1876.605288199629
 31
0.0
  0
LINE
  5
17AC21874A33B5
330
17AC21874A338A
100
AcDbEntity
  8
0
100
AcDbLine
 10
363.3570891148551
 20
1889.284368001104
 30
0.0
 11
388.3728832819857
 21
1889.284368001104
 31
0.0
  0
LINE
  5
17AC21874A33B6
330
17AC21874A338A
100
AcDbEntity
  8
0
100
AcDbLine
 10
602.6307082220804
 20
1535.492894349992
 30
0.0
 11
643.9752049910379
 21
1535.492894349992
 31
0.0
  0
LINE
  5
17AC21874A33B7
330
17AC21874A338A
100
AcDbEntity
  8
0
100
AcDbLine
 10
638.3431817186074
 20
1752.121789078256
 30
0.0
 11
655.3547568353003
 21
1752.121789078256
 31
0.0
  0
LINE
  5
17AC21874A33B8
330
17AC21874A338A
100
AcDbEntity
  8
0
100
AcDbLine
 10
638.3431817186074
 20
1766.385758695466
 30
0.0
 11
654.4794080541812
 21
1766.385758695466
 31
0.0
  0
LINE
  5
17AC21874A33B9
330
17AC21874A338A
100
AcDbEntity
  8
0
100
AcDbLine
 10
2.66103998275151
 20
2204.335531971647
 30
0.0
 11
313.3596152360706
 21
2204.335531971647
 31
0.0
  0
LINE
  5
17AC21874A33BA
330
17AC21874A338A
100
AcDbEntity
  8
0
100
AcDbLine
 10
2.66103998275151
 20
2191.656446638115
 30
0.0
 11
313.3596152360706
 21
2191.656446638115
 31
0.0
  0
TEXT
  5
17AC21874A33BB
330
17AC21874A338A
100
AcDbEntity
  8
TESTO
100
AcDbText
 10
11.78411396713284
 20
2209.838054545921
 30
0.0
 40
40.0
  1
MODELLO
 41
0.8
  7
ROMANS
100
AcDbText
  0
LINE
  5
17AC21874A33BC
330
17AC21874A338A
100
AcDbEntity
  8
0
100
AcDbLine
 10
2.66103998275151
 20
1995.78851267574
 30
0.0
 11
388.3558214777274
 21
1995.78851267574
 31
0.0
  0
TEXT
  5
17AC21874A33BD
330
17AC21874A338A
100
AcDbEntity
  8
TESTO
100
AcDbText
 10
11.78411396713284
 20
2003.576791199376
 30
0.0
 40
40.0
  1
PRODUZIONE
 41
0.8
  7
ROMANS
100
AcDbText
  0
TEXT
  5
17AC21874A33BE
330
17AC21874A338A
100
AcDbEntity
  8
TESTO
100
AcDbText
 10
8.608580996647042
 20
2108.294048468772
 30
0.0
 40
40.0
  1
AR 5T 3S 3E
 41
0.8
  7
ROMANS
100
AcDbText
  0
LINE
  5
17AC21874A33BF
330
17AC21874A338A
100
AcDbEntity
  8
0
100
AcDbLine
 10
2.66103998275151
 20
2102.040440482041
 30
0.0
 11
452.9992865299146
 21
2102.040440482041
 31
0.0
  0
LINE
  5
17AC21874A33C0
330
17AC21874A338A
100
AcDbEntity
  8
0
100
AcDbLine
 10
2.66103998275151
 20
2087.77647086483
 30
0.0
 11
452.9992865299146
 21
2087.77647086483
 31
0.0
  0
LINE
  5
17AC21874A33C1
330
17AC21874A338A
100
AcDbEntity
  8
0
100
AcDbLine
 10
388.3558214777274
 20
1995.78851267574
 30
0.0
 11
408.5059406271533
 21
1995.78851267574
 31
0.0
  0
LINE
  5
17AC21874A33C2
330
17AC21874A338A
100
AcDbEntity
  8
SQUADRATURA
100
AcDbLine
 10
875.5607417240733
 20
1256.33599773032
 30
0.0
 11
875.5607417240733
 21
2282.846582760809
 31
0.0
  0
LINE
  5
17AC21874A33C3
330
17AC21874A338A
100
AcDbEntity
  8
SQUADRATURA
100
AcDbLine
 10
1303.836067650295
 20
2282.846582760809
 30
0.0
 11
1303.836067650295
 21
2422.025253144033
 31
0.0
  0
LINE
  5
17AC21874A33C4
330
17AC21874A338A
100
AcDbEntity
  8
SQUADRATURA
100
AcDbLine
 10
1303.750441763627
 20
2422.025253144033
 30
0.0
 11
2.66103998275151
 21
2422.025253144033
 31
0.0
  0
LINE
  5
17AC21874A33C5
330
17AC21874A338A
100
AcDbEntity
  8
0
100
AcDbLine
 10
5.363776582777184
 20
2310.307963707688
 30
0.0
 11
1202.853146766325
 21
2310.307963707688
 31
0.0
  0
LINE
  5
17AC21874A33C6
330
17AC21874A338A
100
AcDbEntity
  8
0
100
AcDbLine
 10
5.363776582777184
 20
2299.213768189889
 30
0.0
 11
1202.853146766325
 21
2299.213768189889
 31
0.0
  0
LINE
  5
17AC21874A33C7
330
17AC21874A338A
100
AcDbEntity
  8
SQUADRATURA
100
AcDbLine
 10
691.9119056929567
 20
2282.846582760809
 30
0.0
 11
1303.750441763627
 21
2282.846582760809
 31
0.0
  0
TEXT
  5
17AC21874A33C8
330
17AC21874A338A
100
AcDbEntity
  8
0
100
AcDbText
 10
2.257532745382313
 20
2320.901819545599
 30
0.0
 40
80.0
  1
ETICAP SYSTEM 
 41
0.8
  7
ROMANS
100
AcDbText
  0
LINE
  5
17AC21874A33C9
330
17AC21874A338A
100
AcDbEntity
  8
SQUADRATURA
100
AcDbLine
 10
691.9119056929567
 20
2282.846582760809
 30
0.0
 11
2.66103998275151
 21
2282.846582760809
 31
0.0
  0
TEXT
  5
17AC21874A33CA
330
17AC21874A338A
100
AcDbEntity
  8
TESTO
100
AcDbText
 10
1024.966483274582
 20
2319.619973565014
 30
0.0
 40
48.0
  1
canelli
 41
0.8
  7
ROMANS
100
AcDbText
  0
LINE
  5
17AC21874A33CB
330
17AC21874A338A
100
AcDbEntity
  8
0
100
AcDbLine
 10
1202.853146766325
 20
2310.307963707688
 30
0.0
 11
1288.38908097122
 21
2310.307963707688
 31
0.0
  0
LINE
  5
17AC21874A33CC
330
17AC21874A338A
100
AcDbEntity
  8
0
100
AcDbLine
 10
1202.853146766325
 20
2299.213768189889
 30
0.0
 11
1288.38908097122
 21
2299.213768189889
 31
0.0
  0
ENDBLK
  5
17AC21874A33CE
330
17AC21874A338A
100
AcDbEntity
  8
0
100
AcDbBlockEnd
  0
BLOCK
  5
17AC21874A343A
330
17AC21874A3436
100
AcDbEntity
  8
0
100
AcDbBlockBegin
  2
A$C6
 70
     0
 10
0.0
 20
0.0
 30
0.0
  3
A$C6
  1

  0
LINE
  5
17AC21874A3437
330
17AC21874A3436
100
AcDbEntity
  8
0
100
AcDbLine
 10
1.900637218473519
 20
0.8165157741112096
 30
0.0
 11
1700.64860396784
 21
0.8165157741112096
 31
0.0
  0
LINE
  5
17AC21874A3438
330
17AC21874A3436
100
AcDbEntity
  8
0
100
AcDbLine
 10
1.900637218473519
 20
14.30680798376833
 30
0.0
 11
1700.64860396784
 21
14.30680798376833
 31
0.0
  0
TEXT
  5
17AC21874A3439
330
17AC21874A3436
100
AcDbEntity
  8
TESTO
100
AcDbText
 10
8.733529025279011
 20
25.88597534847286
 30
0.0
 40
25.0
  1
DATI NON INPEGNATIVI con la possibilità di modifica da parte del costruttore
  7
ROMANC
100
AcDbText
  0
ENDBLK
  5
17AC21874A343B
330
17AC21874A3436
100
AcDbEntity
  8
0
100
AcDbBlockEnd
  0
BLOCK
  5
17AC21874A359C
330
17AC21874A3592
100
AcDbEntity
  8
0
100
AcDbBlockBegin
  2
*D6
 70
     1
 10
0.0
 20
0.0
 30
0.0
  3
*D6
  1

  0
LINE
  5
17AC21874A361F
330
17AC21874A3592
100
AcDbEntity
  8
QUOTA
370
    -2
100
AcDbLine
 10
388.7081835144278
 20
765.0119137806828
 30
0.0
 11
388.7081835144277
 21
37.0
 31
0.0
  0
LINE
  5
17AC21874A3620
330
17AC21874A3592
100
AcDbEntity
  8
QUOTA
370
    -2
100
AcDbLine
 10
2890.482489844682
 20
765.3933269204412
 30
0.0
 11
2890.482489844682
 21
37.0
 31
0.0
  0
LINE
  5
17AC21874A3621
330
17AC21874A3592
100
AcDbEntity
  8
QUOTA
370
    -2
100
AcDbLine
 10
418.7081835144277
 20
57.0
 30
0.0
 11
2860.482489844682
 21
57.0
 31
0.0
  0
SOLID
  5
17AC21874A3622
330
17AC21874A3592
100
AcDbEntity
  8
QUOTA
100
AcDbTrace
 10
418.7081835144277
 20
62.0
 30
0.0
 11
418.7081835144277
 21
52.0
 31
0.0
 12
388.7081835144277
 22
57.0
 32
0.0
 13
388.7081835144277
 23
57.0
 33
0.0
  0
SOLID
  5
17AC21874A3623
330
17AC21874A3592
100
AcDbEntity
  8
QUOTA
100
AcDbTrace
 10
2860.482489844682
 20
62.0
 30
0.0
 11
2860.482489844682
 21
52.0
 31
0.0
 12
2890.482489844682
 22
57.0
 32
0.0
 13
2890.482489844682
 23
57.0
 33
0.0
  0
MTEXT
  5
17AC21874A3624
330
17AC21874A3592
100
AcDbEntity
  8
QUOTA
 62
   254
100
AcDbMText
 10
1639.595336679555
 20
82.0
 30
0.0
 40
30.0
 41
0.0
 71
     5
 72
     1
  1
\A1;2500 mm
  7
ROMANS
 73
     1
 44
1.0
1001
ACAD
1000
MTEXTBEGIN
1070
    73
1070
     1
1070
    44
1040
1.0
1070
    74
1070
     0
1000
MTEXTEND
  0
POINT
  5
17AC21874A3625
330
17AC21874A3592
100
AcDbEntity
  8
DEFPOINTS
 62
     0
100
AcDbPoint
 10
388.7081835144278
 20
785.0119137806828
 30
0.0
  0
POINT
  5
17AC21874A3626
330
17AC21874A3592
100
AcDbEntity
  8
DEFPOINTS
 62
     0
100
AcDbPoint
 10
2890.482489844682
 20
785.3933269204413
 30
0.0
  0
POINT
  5
17AC21874A3627
330
17AC21874A3592
100
AcDbEntity
  8
DEFPOINTS
 62
     0
100
AcDbPoint
 10
2890.482489844682
 20
57.0
 30
0.0
  0
ENDBLK
  5
17AC21874A359D
330
17AC21874A3592
100
AcDbEntity
  8
0
100
AcDbBlockEnd
  0
BLOCK
  5
17AC21874A3698
330
17AC21874A3665
100
AcDbEntity
  8
0
100
AcDbBlockBegin
  2
A$C33712568
 70
     0
 10
0.0
 20
0.0
 30
0.0
  3
A$C33712568
  1

  0
LINE
  5
17AC21874A3666
330
17AC21874A3665
100
AcDbEntity
  8
0
 62
     0
100
AcDbLine
 10
-927.4520541625843
 20
1127.811112991753
 30
0.0
 11
929.378654489683
 21
1127.811112991753
 31
0.0
  0
LINE
  5
17AC21874A3667
330
17AC21874A3665
100
AcDbEntity
  8
0
 62
     0
100
AcDbLine
 10
929.378654489683
 20
1097.72604094923
 30
0.0
 11
-927.6121065958632
 21
1097.72604094923
 31
0.0
  0
LINE
  5
17AC21874A3668
330
17AC21874A3665
100
AcDbEntity
  8
0
  6
Continuous
 62
     0
100
AcDbLine
 10
-1131.034134179059
 20
1135.811112991753
 30
0.0
 11
1139.240732466012
 21
1135.811112991753
 31
0.0
  0
LINE
  5
17AC21874A3669
330
17AC21874A3665
100
AcDbEntity
  8
0
 62
     0
100
AcDbLine
 10
-925.1313484679485
 20
-939.0793836587327
 30
0.0
 11
514.2461603606061
 21
-939.0793836587327
 31
0.0
  0
LINE
  5
17AC21874A366A
330
17AC21874A3665
100
AcDbEntity
  8
0
 62
     0
100
AcDbLine
 10
-925.7943797355183
 20
-909.2139455684264
 30
0.0
 11
635.1673050510544
 21
-909.2139455684264
 31
0.0
  0
LINE
  5
17AC21874A366B
330
17AC21874A3665
100
AcDbEntity
  8
0
  6
Continuous
 62
     0
100
AcDbLine
 10
1139.146131479316
 20
-947.0935170773854
 30
0.0
 11
-1131.034134179059
 21
-947.0935170773854
 31
0.0
  0
LINE
  5
17AC21874A366C
330
17AC21874A3665
100
AcDbEntity
  8
0
 62
     0
100
AcDbLine
 10
-1131.034134179059
 20
1136.105332226983
 30
0.0
 11
-1131.034134179059
 21
-947.0935170773854
 31
0.0
  0
LINE
  5
17AC21874A366D
330
17AC21874A3665
100
AcDbEntity
  8
0
 62
     0
100
AcDbLine
 10
-1093.850013968978
 20
927.463258186688
 30
0.0
 11
-1093.969996473097
 21
-741.6488218522345
 31
0.0
  0
LINE
  5
17AC21874A366E
330
17AC21874A3665
100
AcDbEntity
  8
0
 62
     0
100
AcDbLine
 10
-1123.969996473097
 20
-741.6488218522345
 30
0.0
 11
-1123.874242685699
 21
647.9423357231471
 31
0.0
  0
LINE
  5
17AC21874A366F
330
17AC21874A3665
100
AcDbEntity
  8
0
  6
Continuous
 62
     0
100
AcDbLine
 10
-1123.969996473097
 20
-740.5070026479688
 30
0.0
 11
-1123.969996473097
 21
-939.0935170773856
 31
0.0
  0
LINE
  5
17AC21874A3670
330
17AC21874A3665
100
AcDbEntity
  8
0
  6
Continuous
 62
     0
100
AcDbLine
 10
-925.6329109633316
 20
-939.0935170773856
 30
0.0
 11
-1124.083487665126
 21
-939.0935170773856
 31
0.0
  0
LINE
  5
17AC21874A3671
330
17AC21874A3665
100
AcDbEntity
  8
0
  6
Continuous
 62
     0
100
AcDbLine
 10
-922.9475810068889
 20
-912.0935170773854
 30
0.0
 11
-922.9475810068889
 21
-936.0935170773855
 31
0.0
  0
LINE
  5
17AC21874A3672
330
17AC21874A3665
100
AcDbEntity
  8
0
  6
Continuous
 62
     0
100
AcDbLine
 10
-949.9475810068888
 20
-909.0935170773855
 30
0.0
 11
-925.9475810068888
 21
-909.0935170773855
 31
0.0
  0
ARC
  5
17AC21874A3673
330
17AC21874A3665
100
AcDbEntity
  8
0
  6
Continuous
 62
     0
100
AcDbCircle
 10
-925.9475810068888
 20
-912.0935170773854
 30
0.0
 40
3.000000000000002
100
AcDbArc
 50
0.0
 51
90.0
  0
ARC
  5
17AC21874A3674
330
17AC21874A3665
100
AcDbEntity
  8
0
  6
Continuous
 62
     0
100
AcDbCircle
 10
-925.9475810068888
 20
-936.0935170773855
 30
0.0
 40
3.000000000000002
100
AcDbArc
 50
270.0
 51
0.0
  0
ARC
  5
17AC21874A3675
330
17AC21874A3665
100
AcDbEntity
  8
0
  6
Continuous
 62
     0
100
AcDbCircle
 10
-1096.969996473097
 20
-741.6488218522345
 30
0.0
 40
3.000000000000002
100
AcDbArc
 50
0.0
 51
90.0
  0
LINE
  5
17AC21874A3676
330
17AC21874A3665
100
AcDbEntity
  8
0
  6
Continuous
 62
     0
100
AcDbLine
 10
-1093.969996473097
 20
-741.6488218522345
 30
0.0
 11
-1093.969996473097
 21
-768.6488218522344
 31
0.0
  0
ARC
  5
17AC21874A3677
330
17AC21874A3665
100
AcDbEntity
  8
0
  6
Continuous
 62
     0
100
AcDbCircle
 10
-1120.969996473097
 20
-741.6488218522345
 30
0.0
 40
3.000000000000002
100
AcDbArc
 50
90.0
 51
180.0
  0
LINE
  5
17AC21874A3678
330
17AC21874A3665
100
AcDbEntity
  8
0
  6
Continuous
 62
     0
100
AcDbLine
 10
-1096.969996473097
 20
-738.6488218522345
 30
0.0
 11
-1120.969996473097
 21
-738.6488218522345
 31
0.0
  0
LINE
  5
17AC21874A3679
330
17AC21874A3665
100
AcDbEntity
  8
0
  6
Continuous
 62
     0
100
AcDbLine
 10
-1123.969996473097
 20
647.1005886978273
 30
0.0
 11
-1123.969996473097
 21
1127.905189999135
 31
0.0
  0
ARC
  5
17AC21874A367A
330
17AC21874A3665
100
AcDbEntity
  8
0
  6
Continuous
 62
     0
100
AcDbCircle
 10
-1096.969996473097
 20
930.4944136802651
 30
0.0
 40
3.000000000000002
100
AcDbArc
 50
270.0
 51
0.0
  0
ARC
  5
17AC21874A367B
330
17AC21874A3665
100
AcDbEntity
  8
0
  6
Continuous
 62
     0
100
AcDbCircle
 10
-1120.969996473097
 20
930.4944136802651
 30
0.0
 40
3.000000000000002
100
AcDbArc
 50
180.0
 51
270.0
  0
LINE
  5
17AC21874A367C
330
17AC21874A3665
100
AcDbEntity
  8
0
  6
Continuous
 62
     0
100
AcDbLine
 10
-1096.969996473097
 20
927.494413680265
 30
0.0
 11
-1120.969996473097
 21
927.494413680265
 31
0.0
  0
LINE
  5
17AC21874A367D
330
17AC21874A3665
100
AcDbEntity
  8
0
  6
Continuous
 62
     0
100
AcDbLine
 10
-1093.969996473097
 20
930.4944136802651
 30
0.0
 11
-1093.969996473097
 21
957.4944136802651
 31
0.0
  0
LINE
  5
17AC21874A367E
330
17AC21874A3665
100
AcDbEntity
  8
0
  6
Continuous
 62
     0
100
AcDbLine
 10
-924.4520541625844
 20
1100.811112991753
 30
0.0
 11
-924.4520541625844
 21
1124.811112991753
 31
0.0
  0
LINE
  5
17AC21874A367F
330
17AC21874A3665
100
AcDbEntity
  8
0
  6
Continuous
 62
     0
100
AcDbLine
 10
-954.4520541625843
 20
1097.811112991753
 30
0.0
 11
-927.4520541625843
 21
1097.811112991753
 31
0.0
  0
ARC
  5
17AC21874A3680
330
17AC21874A3665
100
AcDbEntity
  8
0
  6
Continuous
 62
     0
100
AcDbCircle
 10
-927.4520541625843
 20
1100.811112991753
 30
0.0
 40
3.000000000000002
100
AcDbArc
 50
270.0
 51
0.0
  0
LINE
  5
17AC21874A3681
330
17AC21874A3665
100
AcDbEntity
  8
0
  6
Continuous
 62
     0
100
AcDbLine
 10
-1124.035039239636
 20
1127.811112991753
 30
0.0
 11
-927.1128530240348
 21
1127.811112991753
 31
0.0
  0
ARC
  5
17AC21874A3682
330
17AC21874A3665
100
AcDbEntity
  8
0
  6
Continuous
 62
     0
100
AcDbCircle
 10
-927.4520541625843
 20
1124.811112991753
 30
0.0
 40
3.000000000000002
100
AcDbArc
 50
0.0
 51
90.0
  0
LINE
  5
17AC21874A3683
330
17AC21874A3665
100
AcDbEntity
  8
0
  6
Continuous
 62
     0
100
AcDbLine
 10
1138.705895978706
 20
1135.811112991753
 30
0.0
 11
1139.146131479316
 21
-947.0935170773854
 31
0.0
  0
LINE
  5
17AC21874A3684
330
17AC21874A3665
100
AcDbEntity
  8
0
 62
     0
100
AcDbLine
 10
1130.705895978706
 20
926.933500700894
 30
0.0
 11
1130.739806078563
 21
-738.3429482079618
 31
0.0
  0
LINE
  5
17AC21874A3685
330
17AC21874A3665
100
AcDbEntity
  8
0
 62
     0
100
AcDbLine
 10
1100.63902578638
 20
-738.3429482079618
 30
0.0
 11
1100.63902578638
 21
928.149451793477
 31
0.0
  0
LINE
  5
17AC21874A3686
330
17AC21874A3665
100
AcDbEntity
  8
ASSE
 62
     0
100
AcDbLine
 10
0.0
 20
439.320071798249
 30
0.0
 11
0.0
 21
-435.4174263639524
 31
0.0
  0
LINE
  5
17AC21874A3687
330
17AC21874A3665
100
AcDbEntity
  8
0
  6
Continuous
 62
     0
100
AcDbLine
 10
1130.739806078563
 20
-738.3429482079618
 30
0.0
 11
1130.705895978706
 21
-939.1488732648658
 31
0.0
  0
LINE
  5
17AC21874A3688
330
17AC21874A3665
100
AcDbEntity
  8
0
 62
     0
100
AcDbLine
 10
635.1324284063121
 20
-738.3429482079618
 30
0.0
 11
635.1324284063121
 21
-938.9284495002984
 31
0.0
  0
TEXT
  5
17AC21874A3689
330
17AC21874A3665
100
AcDbEntity
  8
0
 62
     0
100
AcDbText
 10
683.8087521780781
 20
-904.1367722769619
 30
0.0
 40
50.0
  1
elettrico
100
AcDbText
  0
LINE
  5
17AC21874A368A
330
17AC21874A3665
100
AcDbEntity
  8
0
  6
Continuous
 62
     0
100
AcDbLine
 10
1130.44129677015
 20
-939.0935170773856
 30
0.0
 11
514.5847709555091
 21
-939.0935170773856
 31
0.0
  0
LINE
  5
17AC21874A368B
330
17AC21874A3665
100
AcDbEntity
  8
ASSE
 62
     0
100
AcDbLine
 10
433.3612615641832
 20
0.0
 30
0.0
 11
-438.8957841030951
 21
0.0
 31
0.0
  0
LINE
  5
17AC21874A368C
330
17AC21874A3665
100
AcDbEntity
  8
0
 62
     0
100
AcDbLine
 10
1130.739806078563
 20
-738.3429482079618
 30
0.0
 11
635.1324284063121
 21
-738.3429482079618
 31
0.0
  0
TEXT
  5
17AC21874A368D
330
17AC21874A3665
100
AcDbEntity
  8
0
 62
     0
100
AcDbText
 10
683.8087521780781
 20
-820.8034389436289
 30
0.0
 40
50.0
  1
 Quadro 
100
AcDbText
  0
LINE
  5
17AC21874A368E
330
17AC21874A3665
100
AcDbEntity
  8
0
  6
Continuous
 62
     0
100
AcDbLine
 10
1129.779588802397
 20
931.1878735490045
 30
0.0
 11
1129.779588802397
 21
1128.754749783642
 31
0.0
  0
ARC
  5
17AC21874A368F
330
17AC21874A3665
100
AcDbEntity
  8
0
  6
Continuous
 62
     0
100
AcDbCircle
 10
1126.779588802397
 20
931.4576975439594
 30
0.0
 40
3.000000000000002
100
AcDbArc
 50
270.0
 51
0.0
  0
LINE
  5
17AC21874A3690
330
17AC21874A3665
100
AcDbEntity
  8
0
  6
Continuous
 62
     0
100
AcDbLine
 10
1126.779588802397
 20
928.4576975439595
 30
0.0
 11
1102.779588802397
 21
928.4576975439595
 31
0.0
  0
ARC
  5
17AC21874A3691
330
17AC21874A3665
100
AcDbEntity
  8
0
  6
Continuous
 62
     0
100
AcDbCircle
 10
1102.779588802397
 20
931.4576975439594
 30
0.0
 40
3.000000000000002
100
AcDbArc
 50
180.0
 51
270.0
  0
LINE
  5
17AC21874A3692
330
17AC21874A3665
100
AcDbEntity
  8
0
  6
Continuous
 62
     0
100
AcDbLine
 10
1099.779588802397
 20
931.4576975439594
 30
0.0
 11
1099.779588802397
 21
955.4576975439594
 31
0.0
  0
LINE
  5
17AC21874A3693
330
17AC21874A3665
100
AcDbEntity
  8
0
  6
Continuous
 62
     0
100
AcDbLine
 10
1129.779588802397
 20
1128.735922699564
 30
0.0
 11
931.875584534846
 21
1128.735922699564
 31
0.0
  0
LINE
  5
17AC21874A3694
330
17AC21874A3665
100
AcDbEntity
  8
0
  6
Continuous
 62
     0
100
AcDbLine
 10
929.5576975916866
 20
1125.735922699564
 30
0.0
 11
929.5576975916866
 21
1101.735922699564
 31
0.0
  0
ARC
  5
17AC21874A3695
330
17AC21874A3665
100
AcDbEntity
  8
0
  6
Continuous
 62
     0
100
AcDbCircle
 10
932.5576975916865
 20
1101.735922699564
 30
0.0
 40
3.000000000000002
100
AcDbArc
 50
180.0
 51
270.0
  0
LINE
  5
17AC21874A3696
330
17AC21874A3665
100
AcDbEntity
  8
0
  6
Continuous
 62
     0
100
AcDbLine
 10
932.5576975916865
 20
1098.735922699564
 30
0.0
 11
959.5576975916864
 21
1098.735922699564
 31
0.0
  0
ARC
  5
17AC21874A3697
330
17AC21874A3665
100
AcDbEntity
  8
0
  6
Continuous
 62
     0
100
AcDbCircle
 10
932.5576975916865
 20
1125.735922699564
 30
0.0
 40
3.000000000000002
100
AcDbArc
 50
90.0
 51
180.0
  0
ENDBLK
  5
17AC21874A3699
330
17AC21874A3665
100
AcDbEntity
  8
0
100
AcDbBlockEnd
  0
BLOCK
  5
17AC21874A36DC
330
17AC21874A36D2
100
AcDbEntity
  8
0
100
AcDbBlockBegin
  2
*D8
 70
     1
 10
0.0
 20
0.0
 30
0.0
  3
*D8
  1

  0
LINE
  5
17AC21874A3729
330
17AC21874A36D2
100
AcDbEntity
  8
QUOTA
370
    -2
100
AcDbLine
 10
557.6824898446812
 20
504.199999999992
 30
0.0
 11
557.6824898446812
 21
269.8
 31
0.0
  0
LINE
  5
17AC21874A372A
330
17AC21874A36D2
100
AcDbEntity
  8
QUOTA
370
    -2
100
AcDbLine
 10
2657.862755503056
 20
504.199999999992
 30
0.0
 11
2657.862755503056
 21
269.8
 31
0.0
  0
LINE
  5
17AC21874A372B
330
17AC21874A36D2
100
AcDbEntity
  8
QUOTA
370
    -2
100
AcDbLine
 10
587.6824898446812
 20
289.8
 30
0.0
 11
2627.862755503056
 21
289.8
 31
0.0
  0
SOLID
  5
17AC21874A372C
330
17AC21874A36D2
100
AcDbEntity
  8
QUOTA
100
AcDbTrace
 10
587.6824898446812
 20
294.8
 30
0.0
 11
587.6824898446812
 21
284.8
 31
0.0
 12
557.6824898446812
 22
289.8
 32
0.0
 13
557.6824898446812
 23
289.8
 33
0.0
  0
SOLID
  5
17AC21874A372D
330
17AC21874A36D2
100
AcDbEntity
  8
QUOTA
100
AcDbTrace
 10
2627.862755503056
 20
294.8
 30
0.0
 11
2627.862755503056
 21
284.8
 31
0.0
 12
2657.862755503056
 22
289.8
 32
0.0
 13
2657.862755503056
 23
289.8
 33
0.0
  0
MTEXT
  5
17AC21874A372E
330
17AC21874A36D2
100
AcDbEntity
  8
QUOTA
 62
   254
100
AcDbMText
 10
1607.772622673868
 20
314.8
 30
0.0
 40
30.0
 41
0.0
 71
     5
 72
     1
  1
\A1;2100 mm
  7
ROMANS
 73
     1
 44
1.0
1001
ACAD
1000
MTEXTBEGIN
1070
    73
1070
     1
1070
    44
1040
1.0
1070
    74
1070
     0
1000
MTEXTEND
  0
POINT
  5
17AC21874A372F
330
17AC21874A36D2
100
AcDbEntity
  8
DEFPOINTS
 62
     0
100
AcDbPoint
 10
557.6824898446812
 20
524.199999999992
 30
0.0
  0
POINT
  5
17AC21874A3730
330
17AC21874A36D2
100
AcDbEntity
  8
DEFPOINTS
 62
     0
100
AcDbPoint
 10
2657.862755503056
 20
524.199999999992
 30
0.0
  0
POINT
  5
17AC21874A3731
330
17AC21874A36D2
100
AcDbEntity
  8
DEFPOINTS
 62
     0
100
AcDbPoint
 10
2657.862755503056
 20
289.8
 30
0.0
  0
ENDBLK
  5
17AC21874A36DD
330
17AC21874A36D2
100
AcDbEntity
  8
0
100
AcDbBlockEnd
  0
BLOCK
  5
17AC21874A36F2
330
17AC21874A36E8
100
AcDbEntity
  8
0
100
AcDbBlockBegin
  2
*D9
 70
     1
 10
0.0
 20
0.0
 30
0.0
  3
*D9
  1

  0
LINE
  5
17AC21874A373B
330
17AC21874A36E8
100
AcDbEntity
  8
QUOTA
370
    -2
100
AcDbLine
 10
2677.862755503057
 20
524.199999999992
 30
0.0
 11
3121.600000000001
 21
524.199999999992
 31
0.0
  0
LINE
  5
17AC21874A373C
330
17AC21874A36E8
100
AcDbEntity
  8
QUOTA
370
    -2
100
AcDbLine
 10
3002.082489844682
 20
847.3757281591792
 30
0.0
 11
3121.600000000001
 21
847.3757281591792
 31
0.0
  0
LINE
  5
17AC21874A373D
330
17AC21874A36E8
100
AcDbEntity
  8
QUOTA
370
    -2
100
AcDbLine
 10
3101.600000000001
 20
554.1999999999919
 30
0.0
 11
3101.600000000001
 21
817.3757281591793
 31
0.0
  0
SOLID
  5
17AC21874A373E
330
17AC21874A36E8
100
AcDbEntity
  8
QUOTA
100
AcDbTrace
 10
3096.6
 20
554.1999999999919
 30
0.0
 11
3106.600000000001
 21
554.1999999999919
 31
0.0
 12
3101.600000000001
 22
524.199999999992
 32
0.0
 13
3101.600000000001
 23
524.199999999992
 33
0.0
  0
SOLID
  5
17AC21874A373F
330
17AC21874A36E8
100
AcDbEntity
  8
QUOTA
100
AcDbTrace
 10
3096.6
 20
817.3757281591793
 30
0.0
 11
3106.600000000001
 21
817.3757281591793
 31
0.0
 12
3101.600000000001
 22
847.3757281591792
 32
0.0
 13
3101.600000000001
 23
847.3757281591792
 33
0.0
  0
MTEXT
  5
17AC21874A3740
330
17AC21874A36E8
100
AcDbEntity
  8
QUOTA
 62
   254
100
AcDbMText
 10
3076.600000000001
 20
685.7878640795861
 30
0.0
 40
30.0
 41
0.0
 71
     5
 72
     1
  1
\A1;320 mm
  7
ROMANS
 11
0.0000000000000001
 21
1.0
 31
0.0
 73
     1
 44
1.0
1001
ACAD
1000
MTEXTBEGIN
1070
    73
1070
     1
1070
    44
1040
1.0
1070
    74
1070
     0
1000
MTEXTEND
  0
POINT
  5
17AC21874A3741
330
17AC21874A36E8
100
AcDbEntity
  8
DEFPOINTS
 62
     0
100
AcDbPoint
 10
2657.862755503056
 20
524.199999999992
 30
0.0
  0
POINT
  5
17AC21874A3742
330
17AC21874A36E8
100
AcDbEntity
  8
DEFPOINTS
 62
     0
100
AcDbPoint
 10
2982.082489844682
 20
847.3757281591792
 30
0.0
  0
POINT
  5
17AC21874A3743
330
17AC21874A36E8
100
AcDbEntity
  8
DEFPOINTS
 62
     0
100
AcDbPoint
 10
3101.600000000001
 20
847.3757281591792
 30
0.0
  0
ENDBLK
  5
17AC21874A36F3
330
17AC21874A36E8
100
AcDbEntity
  8
0
100
AcDbBlockEnd
  0
BLOCK
  5
17AC21874A3708
330
17AC21874A36FE
100
AcDbEntity
  8
0
100
AcDbBlockBegin
  2
*D10
 70
     1
 10
0.0
 20
0.0
 30
0.0
  3
*D10
  1

  0
LINE
  5
17AC21874A374D
330
17AC21874A36FE
100
AcDbEntity
  8
QUOTA
370
    -2
100
AcDbLine
 10
3002.082489844682
 20
847.3757281591792
 30
0.0
 11
3121.0
 21
847.3757281591792
 31
0.0
  0
LINE
  5
17AC21874A374E
330
17AC21874A36FE
100
AcDbEntity
  8
QUOTA
370
    -2
100
AcDbLine
 10
2677.957356489753
 20
2074.810410833901
 30
0.0
 11
3121.0
 21
2074.810410833901
 31
0.0
  0
LINE
  5
17AC21874A374F
330
17AC21874A36FE
100
AcDbEntity
  8
QUOTA
370
    -2
100
AcDbLine
 10
3100.999999999999
 20
877.3757281591793
 30
0.0
 11
3101.0
 21
2044.810410833901
 31
0.0
  0
SOLID
  5
17AC21874A3750
330
17AC21874A36FE
100
AcDbEntity
  8
QUOTA
100
AcDbTrace
 10
3096.0
 20
877.3757281591793
 30
0.0
 11
3106.0
 21
877.3757281591793
 31
0.0
 12
3100.999999999999
 22
847.3757281591792
 32
0.0
 13
3100.999999999999
 23
847.3757281591792
 33
0.0
  0
SOLID
  5
17AC21874A3751
330
17AC21874A36FE
100
AcDbEntity
  8
QUOTA
100
AcDbTrace
 10
3096.0
 20
2044.810410833901
 30
0.0
 11
3106.0
 21
2044.810410833901
 31
0.0
 12
3101.0
 22
2074.810410833901
 32
0.0
 13
3101.0
 23
2074.810410833901
 33
0.0
  0
MTEXT
  5
17AC21874A3752
330
17AC21874A36FE
100
AcDbEntity
  8
QUOTA
 62
   254
100
AcDbMText
 10
3076.0
 20
1461.093069496541
 30
0.0
 40
30.0
 41
0.0
 71
     5
 72
     1
  1
\A1;1230 mm
  7
ROMANS
 11
0.0000000000000001
 21
1.0
 31
0.0
 73
     1
 44
1.0
1001
ACAD
1000
MTEXTBEGIN
1070
    73
1070
     1
1070
    44
1040
1.0
1070
    74
1070
     0
1000
MTEXTEND
  0
POINT
  5
17AC21874A3753
330
17AC21874A36FE
100
AcDbEntity
  8
DEFPOINTS
 62
     0
100
AcDbPoint
 10
2982.082489844682
 20
847.3757281591792
 30
0.0
  0
POINT
  5
17AC21874A3754
330
17AC21874A36FE
100
AcDbEntity
  8
DEFPOINTS
 62
     0
100
AcDbPoint
 10
2657.957356489753
 20
2074.810410833901
 30
0.0
  0
POINT
  5
17AC21874A3755
330
17AC21874A36FE
100
AcDbEntity
  8
DEFPOINTS
 62
     0
100
AcDbPoint
 10
3101.0
 20
2074.810410833901
 30
0.0
  0
ENDBLK
  5
17AC21874A3709
330
17AC21874A36FE
100
AcDbEntity
  8
0
100
AcDbBlockEnd
  0
BLOCK
  5
17AC21874A371E
330
17AC21874A3714
100
AcDbEntity
  8
0
100
AcDbBlockBegin
  2
*D11
 70
     1
 10
0.0
 20
0.0
 30
0.0
  3
*D11
  1

  0
LINE
  5
17AC21874A3744
330
17AC21874A3714
100
AcDbEntity
  8
QUOTA
370
    -2
100
AcDbLine
 10
3121.600000000001
 20
524.199999999992
 30
0.0
 11
3291.8
 21
524.199999999992
 31
0.0
  0
LINE
  5
17AC21874A3745
330
17AC21874A3714
100
AcDbEntity
  8
QUOTA
370
    -2
100
AcDbLine
 10
3121.0
 20
2074.810410833901
 30
0.0
 11
3291.8
 21
2074.810410833901
 31
0.0
  0
LINE
  5
17AC21874A3746
330
17AC21874A3714
100
AcDbEntity
  8
QUOTA
370
    -2
100
AcDbLine
 10
3271.8
 20
554.1999999999919
 30
0.0
 11
3271.800000000001
 21
2044.810410833901
 31
0.0
  0
SOLID
  5
17AC21874A3747
330
17AC21874A3714
100
AcDbEntity
  8
QUOTA
100
AcDbTrace
 10
3266.8
 20
554.1999999999919
 30
0.0
 11
3276.8
 21
554.1999999999919
 31
0.0
 12
3271.8
 22
524.199999999992
 32
0.0
 13
3271.8
 23
524.199999999992
 33
0.0
  0
SOLID
  5
17AC21874A3748
330
17AC21874A3714
100
AcDbEntity
  8
QUOTA
100
AcDbTrace
 10
3266.8
 20
2044.810410833901
 30
0.0
 11
3276.8
 21
2044.810410833901
 31
0.0
 12
3271.800000000001
 22
2074.810410833901
 32
0.0
 13
3271.800000000001
 23
2074.810410833901
 33
0.0
  0
MTEXT
  5
17AC21874A3749
330
17AC21874A3714
100
AcDbEntity
  8
QUOTA
 62
   254
100
AcDbMText
 10
3246.8
 20
1299.505205416947
 30
0.0
 40
30.0
 41
0.0
 71
     5
 72
     1
  1
\A1;1550 mm
  7
ROMANS
 11
0.0000000000000001
 21
1.0
 31
0.0
 73
     1
 44
1.0
1001
ACAD
1000
MTEXTBEGIN
1070
    73
1070
     1
1070
    44
1040
1.0
1070
    74
1070
     0
1000
MTEXTEND
  0
POINT
  5
17AC21874A374A
330
17AC21874A3714
100
AcDbEntity
  8
DEFPOINTS
 62
     0
100
AcDbPoint
 10
3101.600000000001
 20
524.199999999992
 30
0.0
  0
POINT
  5
17AC21874A374B
330
17AC21874A3714
100
AcDbEntity
  8
DEFPOINTS
 62
     0
100
AcDbPoint
 10
3101.0
 20
2074.810410833901
 30
0.0
  0
POINT
  5
17AC21874A374C
330
17AC21874A3714
100
AcDbEntity
  8
DEFPOINTS
 62
     0
100
AcDbPoint
 10
3271.800000000001
 20
2074.810410833901
 30
0.0
  0
ENDBLK
  5
17AC21874A371F
330
17AC21874A3714
100
AcDbEntity
  8
0
100
AcDbBlockEnd
  0
BLOCK
  5
17AC21874A37B4
330
17AC21874A37A4
100
AcDbEntity
  8
0
100
AcDbBlockBegin
  2
A$C01986F17
 70
     0
 10
0.0
 20
0.0
 30
0.0
  3
A$C01986F17
  1

  0
LINE
  5
17AC21874A37A5
330
17AC21874A37A4
100
AcDbEntity
  8
0
100
AcDbLine
 10
-205.5943542417099
 20
25.72006579089884
 30
0.0
 11
-195.5943542417099
 21
35.72006579089884
 31
0.0
  0
LINE
  5
17AC21874A37A6
330
17AC21874A37A4
100
AcDbEntity
  8
0
100
AcDbLine
 10
-195.5943542417099
 20
-34.43282272148281
 30
0.0
 11
-205.5943542417099
 21
-24.43282272148281
 31
0.0
  0
LINE
  5
17AC21874A37A7
330
17AC21874A37A4
100
AcDbEntity
  8
0
100
AcDbLine
 10
-205.5943542417099
 20
25.72006579089884
 30
0.0
 11
-205.5943542417099
 21
-24.43282272148281
 31
0.0
  0
LINE
  5
17AC21874A37A8
330
17AC21874A37A4
100
AcDbEntity
  8
0
100
AcDbLine
 10
25.40564575829012
 20
35.72006579089884
 30
0.0
 11
-195.5943542417099
 21
35.72006579089884
 31
0.0
  0
LINE
  5
17AC21874A37A9
330
17AC21874A37A4
100
AcDbEntity
  8
0
100
AcDbLine
 10
-195.5943542417099
 20
-34.43282272148281
 30
0.0
 11
25.50729124574719
 21
-34.43282272148326
 31
0.0
  0
CIRCLE
  5
17AC21874A37AA
330
17AC21874A37A4
100
AcDbEntity
  8
COSTRUZIONE
100
AcDbCircle
 10
0.0
 20
0.0
 30
0.0
 40
34.0
  0
ARC
  5
17AC21874A37AB
330
17AC21874A37A4
100
AcDbEntity
  8
COSTRUZIONE
100
AcDbCircle
 10
-120.0
 20
0.0
 30
0.0
 40
55.0
100
AcDbArc
 50
40.50074441948637
 51
139.5663004750349
  0
CIRCLE
  5
17AC21874A37AC
330
17AC21874A37A4
100
AcDbEntity
  8
COSTRUZIONE
100
AcDbCircle
 10
-120.2897394264946
 20
0.0378724560496266
 30
0.0
 40
30.0
  0
ARC
  5
17AC21874A37AD
330
17AC21874A37A4
100
AcDbEntity
  8
COSTRUZIONE
100
AcDbCircle
 10
-120.0
 20
0.0
 30
0.0
 40
55.0
100
AcDbArc
 50
219.2500782645501
 51
321.1794655261858
  0
LINE
  5
17AC21874A37AE
330
17AC21874A37A4
100
AcDbEntity
  8
ASSE
100
AcDbLine
 10
-141.5
 20
0.0
 30
0.0
 11
-98.50000000000001
 21
0.0
 31
0.0
  0
LINE
  5
17AC21874A37AF
330
17AC21874A37A4
100
AcDbEntity
  8
0
100
AcDbLine
 10
35.50729124574719
 20
-24.43282272148326
 30
0.0
 11
35.50729124574719
 21
0.3158029544310921
 31
0.0
  0
LINE
  5
17AC21874A37B0
330
17AC21874A37A4
100
AcDbEntity
  8
0
100
AcDbLine
 10
25.50729124574719
 20
-34.43282272148326
 30
0.0
 11
35.50729124574719
 21
-24.43282272148326
 31
0.0
  0
LINE
  5
17AC21874A37B1
330
17AC21874A37A4
100
AcDbEntity
  8
0
100
AcDbLine
 10
25.40564575829012
 20
35.72006579089884
 30
0.0
 11
35.40564575829012
 21
25.72006579089884
 31
0.0
  0
CIRCLE
  5
17AC21874A37B2
330
17AC21874A37A4
100
AcDbEntity
  8
COSTRUZIONE
100
AcDbCircle
 10
0.0
 20
0.0
 30
0.0
 40
12.5
  0
LINE
  5
17AC21874A37B3
330
17AC21874A37A4
100
AcDbEntity
  8
0
100
AcDbLine
 10
35.40564575829012
 20
-0.0120100937901953
 30
0.0
 11
35.40564575829012
 21
25.72006579089884
 31
0.0
  0
ENDBLK
  5
17AC21874A37B5
330
17AC21874A37A4
100
AcDbEntity
  8
0
100
AcDbBlockEnd
  0
BLOCK
  5
17AC21874A38AE
330
17AC21874A3854
100
AcDbEntity
  8
0
100
AcDbBlockBegin
  2
A$C12815D42
 70
     0
 10
0.0
 20
0.0
 30
0.0
  3
A$C12815D42
  1

  0
LINE
  5
17AC21874A3855
330
17AC21874A3854
100
AcDbEntity
  8
ASSE
100
AcDbLine
 10
0.0
 20
0.0
 30
0.0
 11
311.9523855165771
 21
-226.6466747905156
 31
0.0
  0
LINE
  5
17AC21874A3856
330
17AC21874A3854
100
AcDbEntity
  8
ASSE
100
AcDbLine
 10
0.0
 20
0.0
 30
0.0
 11
-119.1552083957231
 21
-366.7220232482
 31
0.0
  0
ARC
  5
17AC21874A3857
330
17AC21874A3854
100
AcDbEntity
  8
0
100
AcDbCircle
 10
0.0
 20
0.0
 30
0.0
 40
365.0
100
AcDbArc
 50
185.4131325932276
 51
246.3838630889856
  0
LINE
  5
17AC21874A3858
330
17AC21874A3854
100
AcDbEntity
  8
0
100
AcDbLine
 10
-83.31747802827067
 20
-367.8517854704864
 30
0.0
 11
-14.99331208838066
 21
-157.5716247660598
 31
0.0
  0
LINE
  5
17AC21874A3859
330
17AC21874A3854
100
AcDbEntity
  8
0
100
AcDbLine
 10
-81.74408402803511
 20
-135.9898606144406
 30
0.0
 11
-150.0368397848979
 21
-346.1733507156696
 31
0.0
  0
ARC
  5
17AC21874A385A
330
17AC21874A3854
100
AcDbEntity
  8
COSTRUZIONE
100
AcDbCircle
 10
242.7050983124837
 20
-176.3355756877417
 30
0.0
 40
55.0
100
AcDbArc
 50
184.5007444194831
 51
283.5663004750101
  0
LINE
  5
17AC21874A385B
330
17AC21874A3854
100
AcDbEntity
  8
0
100
AcDbLine
 10
104.0737319331565
 20
-119.7664217759834
 30
0.0
 11
282.8664876900202
 21
-249.6669625326201
 31
0.0
  0
LINE
  5
17AC21874A385C
330
17AC21874A3854
100
AcDbEntity
  8
0
100
AcDbLine
 10
296.8345101566938
 20
-247.4546451117953
 30
0.0
 11
326.3136383841411
 21
-206.8801059882865
 31
0.0
  0
LINE
  5
17AC21874A385D
330
17AC21874A3854
100
AcDbEntity
  8
ASSE
100
AcDbLine
 10
0.0
 20
373.8000000000002
 30
0.0
 11
0.0
 21
-387.8
 31
0.0
  0
CIRCLE
  5
17AC21874A385E
330
17AC21874A3854
100
AcDbEntity
  8
ASSE
100
AcDbCircle
 10
0.0
 20
0.0
 30
0.0
 40
300.0
  0
ARC
  5
17AC21874A385F
330
17AC21874A3854
100
AcDbEntity
  8
0
100
AcDbCircle
 10
0.0
 20
0.0
 30
0.0
 40
365.0
100
AcDbArc
 50
257.4131325931971
 51
318.3838630890126
  0
ARC
  5
17AC21874A3860
330
17AC21874A3854
100
AcDbEntity
  8
COSTRUZIONE
100
AcDbCircle
 10
-92.70509831248364
 20
-285.3169548885462
 30
0.0
 40
55.0
100
AcDbArc
 50
291.2500782645733
 51
33.17946552618378
  0
LINE
  5
17AC21874A3861
330
17AC21874A3854
100
AcDbEntity
  8
0
100
AcDbLine
 10
-143.6164445656959
 20
-358.7740858223706
 30
0.0
 11
-95.91821313497167
 21
-374.2721806896887
 31
0.0
  0
LINE
  5
17AC21874A3862
330
17AC21874A3854
100
AcDbEntity
  8
0
100
AcDbLine
 10
-143.6164445656959
 20
-358.7740858223706
 30
0.0
 11
-150.0368397848979
 21
-346.1733507156696
 31
0.0
  0
LINE
  5
17AC21874A3863
330
17AC21874A3854
100
AcDbEntity
  8
0
100
AcDbLine
 10
-83.31747802827067
 20
-367.8517854704864
 30
0.0
 11
-95.91821313497167
 21
-374.2721806896887
 31
0.0
  0
ARC
  5
17AC21874A3864
330
17AC21874A3854
100
AcDbEntity
  8
COSTRUZIONE
100
AcDbCircle
 10
-92.70509831248364
 20
-285.3169548885462
 30
0.0
 40
55.0
100
AcDbArc
 50
112.5007444194608
 51
211.5663004750369
  0
LINE
  5
17AC21874A3865
330
17AC21874A3854
100
AcDbEntity
  8
ASSE
100
AcDbLine
 10
-99.34896369154557
 20
-305.7646699888919
 30
0.0
 11
-86.06123293342262
 21
-264.8692397882005
 31
0.0
  0
CIRCLE
  5
17AC21874A3866
330
17AC21874A3854
100
AcDbEntity
  8
COSTRUZIONE
100
AcDbCircle
 10
-92.83065156532575
 20
-285.5808102256035
 30
0.0
 40
30.0
  0
LINE
  5
17AC21874A3867
330
17AC21874A3854
100
AcDbEntity
  8
0
100
AcDbLine
 10
296.8345101566938
 20
-247.4546451117953
 30
0.0
 11
282.8664876900202
 21
-249.6669625326201
 31
0.0
  0
LINE
  5
17AC21874A3868
330
17AC21874A3854
100
AcDbEntity
  8
ASSE
100
AcDbLine
 10
-385.5943542417099
 20
0.0
 30
0.0
 11
365.0
 21
0.0
 31
0.0
  0
ARC
  5
17AC21874A3869
330
17AC21874A3854
100
AcDbEntity
  8
0
100
AcDbCircle
 10
0.0
 20
0.0
 30
0.0
 40
365.0
100
AcDbArc
 50
113.4131325932088
 51
174.383863088992
  0
LINE
  5
17AC21874A386A
330
17AC21874A3854
100
AcDbEntity
  8
0
100
AcDbLine
 10
-375.5943542417099
 20
-34.43282272148281
 30
0.0
 11
-154.4927087542528
 21
-34.43282272148326
 31
0.0
  0
LINE
  5
17AC21874A386B
330
17AC21874A3854
100
AcDbEntity
  8
0
100
AcDbLine
 10
-154.5943542417099
 20
35.72006579089884
 30
0.0
 11
-375.5943542417099
 21
35.72006579089884
 31
0.0
  0
ARC
  5
17AC21874A386C
330
17AC21874A3854
100
AcDbEntity
  8
COSTRUZIONE
100
AcDbCircle
 10
-300.0
 20
0.0
 30
0.0
 40
55.0
100
AcDbArc
 50
40.50074441948637
 51
139.5663004750449
  0
ARC
  5
17AC21874A386D
330
17AC21874A3854
100
AcDbEntity
  8
COSTRUZIONE
100
AcDbCircle
 10
-300.0
 20
0.0
 30
0.0
 40
55.0
100
AcDbArc
 50
219.2500782645501
 51
321.1794655261858
  0
LINE
  5
17AC21874A386E
330
17AC21874A3854
100
AcDbEntity
  8
0
100
AcDbLine
 10
-385.5943542417099
 20
25.72006579089884
 30
0.0
 11
-385.5943542417099
 21
-24.43282272148281
 31
0.0
  0
LINE
  5
17AC21874A386F
330
17AC21874A3854
100
AcDbEntity
  8
0
100
AcDbLine
 10
-375.5943542417099
 20
-34.43282272148281
 30
0.0
 11
-385.5943542417099
 21
-24.43282272148281
 31
0.0
  0
LINE
  5
17AC21874A3870
330
17AC21874A3854
100
AcDbEntity
  8
0
100
AcDbLine
 10
-385.5943542417099
 20
25.72006579089884
 30
0.0
 11
-375.5943542417099
 21
35.72006579089884
 31
0.0
  0
CIRCLE
  5
17AC21874A3871
330
17AC21874A3854
100
AcDbEntity
  8
COSTRUZIONE
100
AcDbCircle
 10
-300.2897394264946
 20
0.0378724560496266
 30
0.0
 40
30.0
  0
LINE
  5
17AC21874A3872
330
17AC21874A3854
100
AcDbEntity
  8
ASSE
100
AcDbLine
 10
-321.5
 20
0.0
 30
0.0
 11
-278.5
 21
0.0
 31
0.0
  0
LINE
  5
17AC21874A3873
330
17AC21874A3854
100
AcDbEntity
  8
ASSE
100
AcDbLine
 10
0.0
 20
0.0
 30
0.0
 11
-119.1552083957231
 21
366.7220232482
 31
0.0
  0
ARC
  5
17AC21874A3874
330
17AC21874A3854
100
AcDbEntity
  8
0
100
AcDbCircle
 10
0.0
 20
0.0
 30
0.0
 40
365.0
100
AcDbArc
 50
41.41313259322827
 51
102.3838630890139
  0
LINE
  5
17AC21874A3875
330
17AC21874A3854
100
AcDbEntity
  8
ASSE
100
AcDbLine
 10
-99.34896369154557
 20
305.7646699888919
 30
0.0
 11
-86.06123293342262
 21
264.8692397882003
 31
0.0
  0
ARC
  5
17AC21874A3876
330
17AC21874A3854
100
AcDbEntity
  8
COSTRUZIONE
100
AcDbCircle
 10
-92.70509831248364
 20
285.316954888546
 30
0.0
 40
55.0
100
AcDbArc
 50
147.2500782645634
 51
249.1794655262019
  0
CIRCLE
  5
17AC21874A3877
330
17AC21874A3854
100
AcDbEntity
  8
COSTRUZIONE
100
AcDbCircle
 10
-92.7586138730976
 20
285.6042166906793
 30
0.0
 40
30.0
  0
ARC
  5
17AC21874A3878
330
17AC21874A3854
100
AcDbEntity
  8
COSTRUZIONE
100
AcDbCircle
 10
-92.70509831248364
 20
285.316954888546
 30
0.0
 40
55.0
100
AcDbArc
 50
328.5007444194624
 51
67.56630047505931
  0
LINE
  5
17AC21874A3879
330
17AC21874A3854
100
AcDbEntity
  8
0
100
AcDbLine
 10
-148.8125988756746
 20
346.5711307000104
 30
0.0
 11
-80.48843293578556
 21
136.2909699955832
 31
0.0
  0
LINE
  5
17AC21874A387A
330
17AC21874A3854
100
AcDbEntity
  8
0
100
AcDbLine
 10
-13.80048136218283
 20
158.0660753535983
 30
0.0
 11
-82.09323711904653
 21
368.2495654548272
 31
0.0
  0
LINE
  5
17AC21874A387B
330
17AC21874A3854
100
AcDbEntity
  8
ASSE
100
AcDbLine
 10
0.0
 20
0.0
 30
0.0
 11
311.9523855165771
 21
226.6466747905181
 31
0.0
  0
LINE
  5
17AC21874A387C
330
17AC21874A3854
100
AcDbEntity
  8
0
100
AcDbLine
 10
116.9722305162058
 20
85.00014535801142
 30
0.0
 11
132.0971652320968
 21
64.18245866675215
 31
0.0
  0
CIRCLE
  5
17AC21874A387D
330
17AC21874A3854
100
AcDbEntity
  8
COSTRUZIONE
100
AcDbCircle
 10
145.6230589874903
 20
105.8013454126455
 30
0.0
 40
34.0
  0
LINE
  5
17AC21874A387E
330
17AC21874A3854
100
AcDbEntity
  8
0
100
AcDbLine
 10
283.6231101823387
 20
248.6255610135718
 30
0.0
 11
104.7481214987201
 21
118.6652745384463
 31
0.0
  0
LINE
  5
17AC21874A387F
330
17AC21874A3854
100
AcDbEntity
  8
0
100
AcDbLine
 10
131.2583098130244
 20
-65.16411446731081
 30
0.0
 11
116.7114326262153
 21
-85.18617322654973
 31
0.0
  0
CIRCLE
  5
17AC21874A3880
330
17AC21874A3854
100
AcDbEntity
  8
COSTRUZIONE
100
AcDbCircle
 10
145.6230589874903
 20
-105.8013454126448
 30
0.0
 40
34.0
  0
CIRCLE
  5
17AC21874A3881
330
17AC21874A3854
100
AcDbEntity
  8
ASSE
100
AcDbCircle
 10
0.0
 20
0.0
 30
0.0
 40
180.0
  0
CIRCLE
  5
17AC21874A3882
330
17AC21874A3854
100
AcDbEntity
  8
0
100
AcDbCircle
 10
0.0
 20
0.0
 30
0.0
 40
140.0
  0
LINE
  5
17AC21874A3883
330
17AC21874A3854
100
AcDbEntity
  8
0
100
AcDbLine
 10
-44.67069047339919
 20
-137.5211141441532
 30
0.0
 11
-69.1433489213341
 21
-129.5694653952387
 31
0.0
  0
CIRCLE
  5
17AC21874A3884
330
17AC21874A3854
100
AcDbEntity
  8
COSTRUZIONE
100
AcDbCircle
 10
-55.62305898749037
 20
-171.1901729331277
 30
0.0
 40
12.5
  0
CIRCLE
  5
17AC21874A3885
330
17AC21874A3854
100
AcDbEntity
  8
COSTRUZIONE
100
AcDbCircle
 10
-55.62305898749037
 20
-171.1901729331277
 30
0.0
 40
33.99999999999999
  0
LINE
  5
17AC21874A3886
330
17AC21874A3854
100
AcDbEntity
  8
0
100
AcDbLine
 10
-81.74408402803511
 20
-135.9898606144406
 30
0.0
 11
-69.1433489213341
 21
-129.5694653952387
 31
0.0
  0
CIRCLE
  5
17AC21874A3887
330
17AC21874A3854
100
AcDbEntity
  8
COSTRUZIONE
100
AcDbCircle
 10
-180.0
 20
0.0
 30
0.0
 40
34.0
  0
CIRCLE
  5
17AC21874A3888
330
17AC21874A3854
100
AcDbEntity
  8
COSTRUZIONE
100
AcDbCircle
 10
-180.0
 20
0.0
 30
0.0
 40
12.5
  0
LINE
  5
17AC21874A3889
330
17AC21874A3854
100
AcDbEntity
  8
0
100
AcDbLine
 10
-144.4927087542528
 20
-24.43282272148326
 30
0.0
 11
-144.4927087542528
 21
0.3158029544310921
 31
0.0
  0
LINE
  5
17AC21874A388A
330
17AC21874A3854
100
AcDbEntity
  8
0
100
AcDbLine
 10
-154.4927087542528
 20
-34.43282272148326
 30
0.0
 11
-144.4927087542528
 21
-24.43282272148326
 31
0.0
  0
LINE
  5
17AC21874A388B
330
17AC21874A3854
100
AcDbEntity
  8
0
100
AcDbLine
 10
-144.5943542417098
 20
-0.0120100937901953
 30
0.0
 11
-144.5943542417098
 21
25.72006579089884
 31
0.0
  0
LINE
  5
17AC21874A388C
330
17AC21874A3854
100
AcDbEntity
  8
0
100
AcDbLine
 10
-154.5943542417099
 20
35.72006579089884
 30
0.0
 11
-144.5943542417098
 21
25.72006579089884
 31
0.0
  0
LINE
  5
17AC21874A388D
330
17AC21874A3854
100
AcDbEntity
  8
0
100
AcDbLine
 10
-21.41370730758263
 20
-144.9708896593588
 30
0.0
 11
-44.95104902601087
 21
-137.3231437380771
 31
0.0
  0
LINE
  5
17AC21874A388E
330
17AC21874A3854
100
AcDbEntity
  8
0
100
AcDbLine
 10
-14.99331208838066
 20
-157.5716247660598
 30
0.0
 11
-21.41370730758263
 21
-144.9708896593588
 31
0.0
  0
LINE
  5
17AC21874A388F
330
17AC21874A3854
100
AcDbEntity
  8
0
100
AcDbLine
 10
116.9863492282229
 20
-84.98071261805012
 30
0.0
 11
101.8614145123319
 21
-105.7983993093091
 31
0.0
  0
LINE
  5
17AC21874A3890
330
17AC21874A3854
100
AcDbEntity
  8
0
100
AcDbLine
 10
104.0737319331565
 20
-119.7664217759834
 30
0.0
 11
101.8614145123319
 21
-105.7983993093091
 31
0.0
  0
CIRCLE
  5
17AC21874A3891
330
17AC21874A3854
100
AcDbEntity
  8
COSTRUZIONE
100
AcDbCircle
 10
-55.62305898749037
 20
171.1901729331275
 30
0.0
 40
12.5
  0
LINE
  5
17AC21874A3892
330
17AC21874A3854
100
AcDbEntity
  8
0
100
AcDbLine
 10
-67.88769782908457
 20
129.8705747763811
 30
0.0
 11
-44.35035611065631
 21
137.5183206976628
 31
0.0
  0
CIRCLE
  5
17AC21874A3893
330
17AC21874A3854
100
AcDbEntity
  8
COSTRUZIONE
100
AcDbCircle
 10
-55.62305898749037
 20
171.1901729331275
 30
0.0
 40
34.0
  0
LINE
  5
17AC21874A3894
330
17AC21874A3854
100
AcDbEntity
  8
0
100
AcDbLine
 10
-80.48843293578556
 20
136.2909699955832
 30
0.0
 11
-67.88769782908457
 21
129.8705747763811
 31
0.0
  0
LINE
  5
17AC21874A3895
330
17AC21874A3854
100
AcDbEntity
  8
0
100
AcDbLine
 10
-13.80048136218283
 20
158.0660753535983
 30
0.0
 11
-20.2208765813848
 21
145.4653402468973
 31
0.0
  0
LINE
  5
17AC21874A3896
330
17AC21874A3854
100
AcDbEntity
  8
0
100
AcDbLine
 10
-44.69353502931972
 20
137.5136914979825
 30
0.0
 11
-20.2208765813848
 21
145.4653402468973
 31
0.0
  0
LINE
  5
17AC21874A3897
330
17AC21874A3854
100
AcDbEntity
  8
0
100
AcDbLine
 10
104.7481214987201
 20
118.6652745384463
 30
0.0
 11
102.5358040778956
 21
104.697252071772
 31
0.0
  0
LINE
  5
17AC21874A3898
330
17AC21874A3854
100
AcDbEntity
  8
0
100
AcDbLine
 10
102.5358040778956
 20
104.697252071772
 30
0.0
 11
117.0826812647046
 21
84.67519331253312
 31
0.0
  0
ARC
  5
17AC21874A3899
330
17AC21874A3854
100
AcDbEntity
  8
0
100
AcDbCircle
 10
0.0
 20
0.0
 30
0.0
 40
365.0
100
AcDbArc
 50
329.4131325932147
 51
30.38386308900063
  0
ARC
  5
17AC21874A389A
330
17AC21874A3854
100
AcDbEntity
  8
COSTRUZIONE
100
AcDbCircle
 10
242.7050983124837
 20
-176.3355756877417
 30
0.0
 40
55.0
100
AcDbArc
 50
3.25007826455138
 51
105.1794655261709
  0
LINE
  5
17AC21874A389B
330
17AC21874A3854
100
AcDbEntity
  8
0
100
AcDbLine
 10
324.1013209633156
 20
-192.9120835216122
 30
0.0
 11
145.2263322796989
 21
-62.95179704648603
 31
0.0
  0
CIRCLE
  5
17AC21874A389C
330
17AC21874A3854
100
AcDbEntity
  8
COSTRUZIONE
100
AcDbCircle
 10
242.9172415613248
 20
-176.5365197102057
 30
0.0
 40
30.0
  0
CIRCLE
  5
17AC21874A389D
330
17AC21874A3854
100
AcDbEntity
  8
COSTRUZIONE
100
AcDbCircle
 10
145.6230589874903
 20
-105.8013454126448
 30
0.0
 40
12.5
  0
LINE
  5
17AC21874A389E
330
17AC21874A3854
100
AcDbEntity
  8
ASSE
100
AcDbLine
 10
260.0989636915456
 20
-188.9729586120297
 30
0.0
 11
225.3112329334226
 21
-163.6981927634535
 31
0.0
  0
LINE
  5
17AC21874A389F
330
17AC21874A3854
100
AcDbEntity
  8
0
100
AcDbLine
 10
145.2263322796989
 20
-62.95179704648603
 30
0.0
 11
131.2583098130244
 21
-65.16411446731081
 31
0.0
  0
LINE
  5
17AC21874A38A0
330
17AC21874A3854
100
AcDbEntity
  8
0
100
AcDbLine
 10
324.1013209633156
 20
-192.9120835216122
 30
0.0
 11
326.3136383841411
 21
-206.8801059882865
 31
0.0
  0
ARC
  5
17AC21874A38A1
330
17AC21874A3854
100
AcDbEntity
  8
COSTRUZIONE
100
AcDbCircle
 10
242.7050983124837
 20
176.3355756877422
 30
0.0
 40
55.0
100
AcDbArc
 50
256.5007444195072
 51
355.566300475041
  0
LINE
  5
17AC21874A38A2
330
17AC21874A3854
100
AcDbEntity
  8
0
100
AcDbLine
 10
146.0651876987713
 20
61.97014124592738
 30
0.0
 11
324.8579434556341
 21
191.870682002564
 31
0.0
  0
LINE
  5
17AC21874A38A3
330
17AC21874A3854
100
AcDbEntity
  8
0
100
AcDbLine
 10
327.0702608764596
 20
205.8387044692381
 30
0.0
 11
297.5911326490132
 21
246.413243592747
 31
0.0
  0
LINE
  5
17AC21874A38A4
330
17AC21874A3854
100
AcDbEntity
  8
ASSE
100
AcDbLine
 10
260.0989636915456
 20
188.9729586120304
 30
0.0
 11
225.3112329334226
 21
163.6981927634542
 31
0.0
  0
CIRCLE
  5
17AC21874A38A5
330
17AC21874A3854
100
AcDbEntity
  8
COSTRUZIONE
100
AcDbCircle
 10
242.9617633035923
 20
176.4752407890807
 30
0.0
 40
30.0
  0
CIRCLE
  5
17AC21874A38A6
330
17AC21874A3854
100
AcDbEntity
  8
COSTRUZIONE
100
AcDbCircle
 10
145.6230589874903
 20
105.8013454126455
 30
0.0
 40
12.5
  0
LINE
  5
17AC21874A38A7
330
17AC21874A3854
100
AcDbEntity
  8
0
100
AcDbLine
 10
146.0651876987713
 20
61.97014124592738
 30
0.0
 11
132.0971652320968
 21
64.18245866675215
 31
0.0
  0
ARC
  5
17AC21874A38A8
330
17AC21874A3854
100
AcDbEntity
  8
COSTRUZIONE
100
AcDbCircle
 10
242.7050983124837
 20
176.3355756877422
 30
0.0
 40
55.0
100
AcDbArc
 50
75.25007826453002
 51
177.1794655261863
  0
LINE
  5
17AC21874A38A9
330
17AC21874A3854
100
AcDbEntity
  8
0
100
AcDbLine
 10
283.6231101823387
 20
248.6255610135718
 30
0.0
 11
297.5911326490132
 21
246.413243592747
 31
0.0
  0
LINE
  5
17AC21874A38AA
330
17AC21874A3854
100
AcDbEntity
  8
0
100
AcDbLine
 10
327.0702608764596
 20
205.8387044692381
 30
0.0
 11
324.8579434556341
 21
191.870682002564
 31
0.0
  0
LINE
  5
17AC21874A38AB
330
17AC21874A3854
100
AcDbEntity
  8
0
100
AcDbLine
 10
-94.69397222574754
 20
374.6699606740294
 30
0.0
 11
-142.3922036564727
 21
359.1718658067114
 31
0.0
  0
LINE
  5
17AC21874A38AC
330
17AC21874A3854
100
AcDbEntity
  8
0
100
AcDbLine
 10
-148.8125988756746
 20
346.5711307000104
 30
0.0
 11
-142.3922036564727
 21
359.1718658067114
 31
0.0
  0
LINE
  5
17AC21874A38AD
330
17AC21874A3854
100
AcDbEntity
  8
0
100
AcDbLine
 10
-94.69397222574754
 20
374.6699606740294
 30
0.0
 11
-82.09323711904653
 21
368.2495654548272
 31
0.0
  0
ENDBLK
  5
17AC21874A38AF
330
17AC21874A3854
100
AcDbEntity
  8
0
100
AcDbBlockEnd
  0
BLOCK
  5
17AC21874A39B6
330
17AC21874A39B4
100
AcDbEntity
  8
0
100
AcDbBlockBegin
  2
GENAXEH
 70
     0
 10
0.0
 20
0.0
 30
0.0
  3
GENAXEH
  1

  0
LINE
  5
17AC21874A39B5
330
17AC21874A39B4
100
AcDbEntity
  8
0
100
AcDbLine
 10
-1.0
 20
0.0
 30
0.0
 11
1.0
 21
0.0
 31
0.0
  0
ENDBLK
  5
17AC21874A39B7
330
17AC21874A39B4
100
AcDbEntity
  8
0
100
AcDbBlockEnd
  0
ENDSEC
  0
SECTION
  2
ENTITIES
  0
INSERT
  5
151
330
17AC21874A2FC9
100
AcDbEntity
  8
LINEAFIN
100
AcDbBlockReference
  2
AVE_RENDER
 10
0.0
 20
0.0
 30
0.0
1001
AVE_RENDER
1002
{
1070
     2
1000
Pref
1070
    30
1070
    20
1070
     0
1070
     0
1000

1070
    10
1070
     0
1070
    30
1040
1.0
1070
     1
1040
0.3
1040
0.7
1040
0.0
1040
10.0
1010
-1.0
1020
-1.0
1030
-1.0
1040
0.3
1070
    49
1002
}
  0
INSERT
  5
152
330
17AC21874A2FC9
100
AcDbEntity
  8
LINEAFIN
100
AcDbBlockReference
  2
AVE_RENDER
 10
0.0
 20
0.0
 30
0.0
1001
AVE_RENDER
1002
{
1070
     0
1000
Full Opt
1070
     0
1070
     1
1070
     1
1070
     1
1070
     0
1070
     0
1070
     0
1070
     1
1070
     1
1040
0.0001
1040
0.0001
1002
}
  0
INSERT
  5
153
330
17AC21874A2FC9
100
AcDbEntity
  8
LINEAFIN
100
AcDbBlockReference
  2
AVE_RENDER
 10
0.0
 20
0.0
 30
0.0
1001
AVE_RENDER
1002
{
1070
     0
1000
Quick Opt
1070
     0
1070
     1
1070
     1
1070
     1
1070
     0
1070
     0
1070
     1
1002
}
  0
INSERT
  5
D132099FA66
330
17AC21874A2FC9
100
AcDbEntity
  8
BOLLINI
100
AcDbBlockReference
  2
SCALA1
 10
228.4815022492328
 20
131.7646532168282
 30
0.0
  0
LINE
  5
17AC21874A3055
330
17AC21874A2FC9
100
AcDbEntity
  8
0
100
AcDbLine
 10
388.6
 20
906.2590107189949
 30
0.0
 11
557.6824898446817
 21
906.189606651425
 31
0.0
  0
LINE
  5
17AC21874A3057
330
17AC21874A2FC9
100
AcDbEntity
  8
ASSE
100
AcDbLine
 10
372.0921293551961
 20
847.3757281591792
 30
0.0
 11
937.5803016641937
 21
847.3757281591792
 31
0.0
  0
LINE
  5
17AC21874A3108
330
17AC21874A2FC9
100
AcDbEntity
  8
0
100
AcDbLine
 10
2079.282489844682
 20
906.2590107189949
 30
0.0
 11
2619.224707530508
 21
906.2590107189949
 31
0.0
  0
CIRCLE
  5
17AC21874A3112
330
17AC21874A2FC9
100
AcDbEntity
  8
0
100
AcDbCircle
 10
1940.687956579408
 20
1043.635679743156
 30
0.0
 40
40.0
  0
LINE
  5
17AC21874A3114
330
17AC21874A2FC9
100
AcDbEntity
  8
ASSE
100
AcDbLine
 10
1967.206669358975
 20
1239.202553852365
 30
0.0
 11
1911.596815098052
 21
843.9384596260254
 31
0.0
  0
LINE
  5
17AC21874A3115
330
17AC21874A2FC9
100
AcDbEntity
  8
ASSE
100
AcDbLine
 10
1744.921772335437
 20
1070.978097923924
 30
0.0
 11
2139.465924368888
 21
1015.469532601226
 31
0.0
  0
LINE
  5
17AC21874A3116
330
17AC21874A2FC9
100
AcDbEntity
  8
ASSE
100
AcDbLine
 10
1939.401742228513
 20
1041.570506739195
 30
0.0
 11
1906.827911299259
 21
794.1161022096235
 31
0.0
  0
LINE
  5
17AC21874A312E
330
17AC21874A2FC9
100
AcDbEntity
  8
ASSE
100
AcDbLine
 10
1856.082489844682
 20
847.3757281591792
 30
0.0
 11
2982.082489844682
 21
847.3757281591792
 31
0.0
  0
LINE
  5
17AC21874A315C
330
17AC21874A2FC9
100
AcDbEntity
  8
0
100
AcDbLine
 10
1371.320717391673
 20
703.161090652226
 30
0.0
 11
1306.198021676392
 21
703.161090652226
 31
0.0
  0
LINE
  5
17AC21874A315D
330
17AC21874A2FC9
100
AcDbEntity
  8
0
100
AcDbLine
 10
821.3207173916732
 20
703.161090652226
 30
0.0
 11
821.3207173916732
 21
803.161090652226
 31
0.0
  0
LINE
  5
17AC21874A315E
330
17AC21874A2FC9
100
AcDbEntity
  8
0
100
AcDbLine
 10
821.3207173916732
 20
803.161090652226
 30
0.0
 11
938.4143082054476
 21
803.161090652226
 31
0.0
  0
LINE
  5
17AC21874A3162
330
17AC21874A2FC9
100
AcDbEntity
  8
0
100
AcDbLine
 10
821.1128414486671
 20
785.3933269204413
 30
0.0
 11
815.6535189793636
 21
785.3933269204413
 31
0.0
  0
LINE
  5
17AC21874A3172
330
17AC21874A2FC9
100
AcDbEntity
  8
0
100
AcDbLine
 10
993.085982444593
 20
1033.026480053194
 30
0.0
 11
993.085982444593
 21
963.0264800531945
 31
0.0
  0
LINE
  5
17AC21874A3173
330
17AC21874A2FC9
100
AcDbEntity
  8
0
100
AcDbLine
 10
993.085982444593
 20
963.0264800531945
 30
0.0
 11
1443.085982444593
 21
963.0264800531945
 31
0.0
  0
LINE
  5
17AC21874A3174
330
17AC21874A2FC9
100
AcDbEntity
  8
0
100
AcDbLine
 10
1443.085982444593
 20
963.0264800531945
 30
0.0
 11
1443.085982444593
 21
1033.026480053194
 31
0.0
  0
LINE
  5
17AC21874A3175
330
17AC21874A2FC9
100
AcDbEntity
  8
0
100
AcDbLine
 10
1443.085982444593
 20
1033.026480053194
 30
0.0
 11
993.085982444593
 21
1033.026480053194
 31
0.0
  0
LINE
  5
17AC21874A3176
330
17AC21874A2FC9
100
AcDbEntity
  8
0
100
AcDbLine
 10
992.93139678122
 20
1032.627408590371
 30
0.0
 11
992.93139678122
 21
1122.627408590371
 31
0.0
  0
LINE
  5
17AC21874A3177
330
17AC21874A2FC9
100
AcDbEntity
  8
0
100
AcDbLine
 10
992.93139678122
 20
1122.627408590371
 30
0.0
 11
1142.93139678122
 21
1122.627408590371
 31
0.0
  0
LINE
  5
17AC21874A3178
330
17AC21874A2FC9
100
AcDbEntity
  8
0
100
AcDbLine
 10
1142.93139678122
 20
1122.627408590371
 30
0.0
 11
1142.93139678122
 21
1031.810644763896
 31
0.0
  0
LINE
  5
17AC21874A317E
330
17AC21874A2FC9
100
AcDbEntity
  8
0
100
AcDbLine
 10
1000.28754719169
 20
952.3395277670866
 30
0.0
 11
1198.086415864426
 21
952.3395277670866
 31
0.0
  0
LINE
  5
17AC21874A317F
330
17AC21874A2FC9
100
AcDbEntity
  8
0
100
AcDbLine
 10
1198.086415864426
 20
952.3395277670866
 30
0.0
 11
1198.086415864426
 21
752.3395277670865
 31
0.0
  0
LINE
  5
17AC21874A3180
330
17AC21874A2FC9
100
AcDbEntity
  8
0
100
AcDbLine
 10
1198.086415864426
 20
752.3395277670865
 30
0.0
 11
1148.228022402182
 21
752.3395277670865
 31
0.0
  0
LINE
  5
17AC21874A3181
330
17AC21874A2FC9
100
AcDbEntity
  8
0
100
AcDbLine
 10
1148.228022402182
 20
752.3395277670865
 30
0.0
 11
1148.228022402182
 21
952.0945019383775
 31
0.0
  0
LINE
  5
17AC21874A3183
330
17AC21874A2FC9
100
AcDbEntity
  8
ASSE
100
AcDbLine
 10
1172.748545127505
 20
968.4297784678824
 30
0.0
 11
1172.748545127505
 21
739.7359070548096
 31
0.0
  0
LINE
  5
17AC21874A3184
330
17AC21874A2FC9
100
AcDbEntity
  8
0
100
AcDbLine
 10
1148.228022402182
 20
751.9873644519389
 30
0.0
 11
1000.28754719169
 21
751.9873644519389
 31
0.0
  0
LINE
  5
17AC21874A3186
330
17AC21874A2FC9
100
AcDbEntity
  8
0
100
AcDbLine
 10
1000.28754719169
 20
952.3395277670866
 30
0.0
 11
938.1688969433049
 21
952.3395277670866
 31
0.0
  0
LINE
  5
17AC21874A3187
330
17AC21874A2FC9
100
AcDbEntity
  8
0
100
AcDbLine
 10
938.1688969433049
 20
952.3395277670866
 30
0.0
 11
938.1688969433049
 21
751.9873644519389
 31
0.0
  0
LINE
  5
17AC21874A3188
330
17AC21874A2FC9
100
AcDbEntity
  8
0
100
AcDbLine
 10
938.1688969433049
 20
751.9873644519389
 30
0.0
 11
1000.28754719169
 21
751.9873644519389
 31
0.0
  0
LINE
  5
17AC21874A3189
330
17AC21874A2FC9
100
AcDbEntity
  8
0
100
AcDbLine
 10
1187.966697761575
 20
963.1245200733797
 30
0.0
 11
1187.966697761575
 21
952.1967841235804
 31
0.0
  0
LINE
  5
17AC21874A318A
330
17AC21874A2FC9
100
AcDbEntity
  8
0
100
AcDbLine
 10
1157.462147440078
 20
963.1245200733797
 30
0.0
 11
1157.462147440078
 21
952.1967841235804
 31
0.0
  0
LINE
  5
17AC21874A318D
330
17AC21874A2FC9
100
AcDbEntity
  8
0
100
AcDbLine
 10
1257.896907839646
 20
938.3933249842225
 30
0.0
 11
1198.038948207947
 21
938.3933249842225
 31
0.0
  0
LINE
  5
17AC21874A318E
330
17AC21874A2FC9
100
AcDbEntity
  8
0
100
AcDbLine
 10
1198.038948207947
 20
938.3933249842225
 30
0.0
 11
1198.038948207947
 21
778.3933249842225
 31
0.0
  0
LINE
  5
17AC21874A318F
330
17AC21874A2FC9
100
AcDbEntity
  8
0
100
AcDbLine
 10
1198.038948207947
 20
778.3933249842225
 30
0.0
 11
1257.896907839646
 21
778.3933249842225
 31
0.0
  0
LINE
  5
17AC21874A3190
330
17AC21874A2FC9
100
AcDbEntity
  8
0
100
AcDbLine
 10
1257.896907839646
 20
938.3933249842225
 30
0.0
 11
1317.754867471346
 21
938.3933249842225
 31
0.0
  0
LINE
  5
17AC21874A3191
330
17AC21874A2FC9
100
AcDbEntity
  8
0
100
AcDbLine
 10
1317.754867471346
 20
778.3933249842225
 30
0.0
 11
1257.896907839646
 21
778.3933249842225
 31
0.0
  0
LINE
  5
17AC21874A3192
330
17AC21874A2FC9
100
AcDbEntity
  8
0
100
AcDbLine
 10
1317.754867471346
 20
938.3933249842225
 30
0.0
 11
1317.754867471346
 21
777.3529923306246
 31
0.0
  0
LINE
  5
17AC21874A3199
330
17AC21874A2FC9
100
AcDbEntity
  8
0
100
AcDbLine
 10
1438.621900286924
 20
938.3933249842225
 30
0.0
 11
1438.621900286924
 21
777.3529923306246
 31
0.0
  0
LINE
  5
17AC21874A319A
330
17AC21874A2FC9
100
AcDbEntity
  8
0
100
AcDbLine
 10
1378.763940655225
 20
938.3933249842225
 30
0.0
 11
1438.621900286924
 21
938.3933249842225
 31
0.0
  0
LINE
  5
17AC21874A319B
330
17AC21874A2FC9
100
AcDbEntity
  8
0
100
AcDbLine
 10
1378.763940655225
 20
938.3933249842225
 30
0.0
 11
1318.905981023525
 21
938.3933249842225
 31
0.0
  0
LINE
  5
17AC21874A319C
330
17AC21874A2FC9
100
AcDbEntity
  8
0
100
AcDbLine
 10
1318.905981023525
 20
778.3933249842225
 30
0.0
 11
1378.763940655225
 21
778.3933249842225
 31
0.0
  0
LINE
  5
17AC21874A319D
330
17AC21874A2FC9
100
AcDbEntity
  8
0
100
AcDbLine
 10
1438.621900286924
 20
778.3933249842225
 30
0.0
 11
1378.763940655225
 21
778.3933249842225
 31
0.0
  0
LINE
  5
17AC21874A319E
330
17AC21874A2FC9
100
AcDbEntity
  8
0
100
AcDbLine
 10
1279.082594294927
 20
963.056331949911
 30
0.0
 11
1279.082594294927
 21
938.5000162181354
 31
0.0
  0
LINE
  5
17AC21874A319F
330
17AC21874A2FC9
100
AcDbEntity
  8
0
100
AcDbLine
 10
1236.550732011307
 20
963.056331949911
 30
0.0
 11
1236.550732011307
 21
938.5000162181354
 31
0.0
  0
LINE
  5
17AC21874A31A0
330
17AC21874A2FC9
100
AcDbEntity
  8
0
100
AcDbLine
 10
1399.920300775883
 20
963.056331949911
 30
0.0
 11
1399.920300775883
 21
938.5000162181354
 31
0.0
  0
LINE
  5
17AC21874A31A1
330
17AC21874A2FC9
100
AcDbEntity
  8
0
100
AcDbLine
 10
1357.388438492262
 20
963.056331949911
 30
0.0
 11
1357.388438492262
 21
938.5000162181354
 31
0.0
  0
LINE
  5
17AC21874A31A2
330
17AC21874A2FC9
100
AcDbEntity
  8
ASSE
100
AcDbLine
 10
1258.100224278778
 20
1014.955166871237
 30
0.0
 11
1258.100224278778
 21
763.4418406551999
 31
0.0
  0
LINE
  5
17AC21874A31A3
330
17AC21874A2FC9
100
AcDbEntity
  8
ASSE
100
AcDbLine
 10
1378.134568590615
 20
1014.671837086103
 30
0.0
 11
1378.134568590615
 21
762.4973693136939
 31
0.0
  0
LINE
  5
17AC21874A31A6
330
17AC21874A2FC9
100
AcDbEntity
  8
0
100
AcDbLine
 10
948.0496932881449
 20
940.0988468152377
 30
0.0
 11
948.0496932881449
 21
764.2195094412277
 31
0.0
  0
LINE
  5
17AC21874A31A7
330
17AC21874A2FC9
100
AcDbEntity
  8
0
100
AcDbLine
 10
947.8365007207163
 20
940.0988468152378
 30
0.0
 11
1148.614335535484
 21
940.0988468152377
 31
0.0
  0
LINE
  5
17AC21874A31A8
330
17AC21874A2FC9
100
AcDbEntity
  8
0
100
AcDbLine
 10
947.8365007207163
 20
764.2195094412275
 30
0.0
 11
1148.614335535484
 21
764.2195094412277
 31
0.0
  0
LINE
  5
17AC21874A31B5
330
17AC21874A2FC9
100
AcDbEntity
  8
0
100
AcDbLine
 10
994.2949431986514
 20
1369.435806841614
 30
0.0
 11
994.2949431986514
 21
1211.765730000433
 31
0.0
  0
LINE
  5
17AC21874A31B6
330
17AC21874A2FC9
100
AcDbEntity
  8
0
100
AcDbLine
 10
994.2949431986514
 20
1211.765730000433
 30
0.0
 11
1173.116085379308
 21
1211.765730000433
 31
0.0
  0
LINE
  5
17AC21874A31B7
330
17AC21874A2FC9
100
AcDbEntity
  8
0
100
AcDbLine
 10
1173.116085379308
 20
1211.765730000433
 30
0.0
 11
1173.116085379308
 21
1369.435806841614
 31
0.0
  0
LINE
  5
17AC21874A31B8
330
17AC21874A2FC9
100
AcDbEntity
  8
0
100
AcDbLine
 10
1173.116085379308
 20
1369.435806841614
 30
0.0
 11
994.2949431986514
 21
1369.435806841614
 31
0.0
  0
LINE
  5
17AC21874A31BF
330
17AC21874A2FC9
100
AcDbEntity
  8
0
100
AcDbLine
 10
1175.268623695775
 20
1211.279346096209
 30
0.0
 11
1203.266303283226
 21
1211.279346096209
 31
0.0
  0
LINE
  5
17AC21874A31C0
330
17AC21874A2FC9
100
AcDbEntity
  8
0
100
AcDbLine
 10
1203.266303283226
 20
1211.279346096209
 30
0.0
 11
1203.266303283226
 21
1172.421592131268
 31
0.0
  0
LINE
  5
17AC21874A31C1
330
17AC21874A2FC9
100
AcDbEntity
  8
0
100
AcDbLine
 10
1203.266303283226
 20
1172.421592131268
 30
0.0
 11
927.9557629318521
 21
1172.421592131268
 31
0.0
  0
LINE
  5
17AC21874A31C3
330
17AC21874A2FC9
100
AcDbEntity
  8
0
100
AcDbLine
 10
927.9557629318521
 20
1211.279346096209
 30
0.0
 11
994.839118783028
 21
1211.279346096209
 31
0.0
  0
LINE
  5
17AC21874A31C4
330
17AC21874A2FC9
100
AcDbEntity
  8
0
100
AcDbLine
 10
1133.27209516156
 20
1122.683672366919
 30
0.0
 11
1133.27209516156
 21
1172.421592131268
 31
0.0
  0
LINE
  5
17AC21874A31C5
330
17AC21874A2FC9
100
AcDbEntity
  8
0
100
AcDbLine
 10
1091.275575780383
 20
1122.683672366919
 30
0.0
 11
1091.275575780383
 21
1172.421592131268
 31
0.0
  0
LINE
  5
17AC21874A31C6
330
17AC21874A2FC9
100
AcDbEntity
  8
ASSE
100
AcDbLine
 10
994.839118783028
 20
1287.440534352354
 30
0.0
 11
1184.601180507247
 21
1287.440534352354
 31
0.0
  0
CIRCLE
  5
17AC21874A31C7
330
17AC21874A2FC9
100
AcDbEntity
  8
0
100
AcDbCircle
 10
1083.498440527637
 20
1287.440534352354
 30
0.0
 40
12.44341823499963
  0
CIRCLE
  5
17AC21874A31C8
330
17AC21874A2FC9
100
AcDbEntity
  8
0
100
AcDbCircle
 10
1083.498440527637
 20
1285.886225742732
 30
0.0
 40
74.66049110392123
  0
CIRCLE
  5
17AC21874A31C9
330
17AC21874A2FC9
100
AcDbEntity
  8
0
100
AcDbCircle
 10
1083.498440527637
 20
1287.440534352354
 30
0.0
 40
57.55078988666719
  0
LINE
  5
17AC21874A31CC
330
17AC21874A2FC9
100
AcDbEntity
  8
ASSE
100
AcDbLine
 10
1084.280384587201
 20
1379.536926373028
 30
0.0
 11
1084.280384587201
 21
1200.805382579934
 31
0.0
  0
LINE
  5
17AC21874A31D7
330
17AC21874A2FC9
100
AcDbEntity
  8
0
100
AcDbLine
 10
1371.238880076484
 20
703.4561133599331
 30
0.0
 11
1322.102757316019
 21
778.3049618647753
 31
0.0
  0
LINE
  5
17AC21874A31D8
330
17AC21874A2FC9
100
AcDbEntity
  8
0
100
AcDbLine
 10
1305.865720621933
 20
703.4561133599331
 30
0.0
 11
1257.097037216299
 21
778.0607491933758
 31
0.0
  0
LINE
  5
17AC21874A31D9
330
17AC21874A2FC9
100
AcDbEntity
  8
0
100
AcDbLine
 10
1241.289799953897
 20
702.6594530253191
 30
0.0
 11
1198.184727784975
 21
769.663641320637
 31
0.0
  0
LINE
  5
17AC21874A31DA
330
17AC21874A2FC9
100
AcDbEntity
  8
0
100
AcDbLine
 10
1175.916640499345
 20
703.4561133599331
 30
0.0
 11
1145.166954752159
 21
751.4680024359781
 31
0.0
  0
LINE
  5
17AC21874A31DB
330
17AC21874A2FC9
100
AcDbEntity
  8
0
100
AcDbLine
 10
1111.340710678271
 20
703.4561133599331
 30
0.0
 11
1079.631850671691
 21
751.7580860341652
 31
0.0
  0
LINE
  5
17AC21874A31DC
330
17AC21874A2FC9
100
AcDbEntity
  8
0
100
AcDbLine
 10
1046.764790010235
 20
703.4561133599331
 30
0.0
 11
1014.856835366808
 21
751.6725244865983
 31
0.0
  0
LINE
  5
17AC21874A31DD
330
17AC21874A2FC9
100
AcDbEntity
  8
0
100
AcDbLine
 10
981.3916305556837
 20
703.4561133599331
 30
0.0
 11
949.408715722434
 21
751.7857975362503
 31
0.0
  0
LINE
  5
17AC21874A31DE
330
17AC21874A2FC9
100
AcDbEntity
  8
0
100
AcDbLine
 10
916.0184711011321
 20
702.6594530253191
 30
0.0
 11
851.4425412800571
 21
803.0387713598353
 31
0.0
  0
LINE
  5
17AC21874A31DF
330
17AC21874A2FC9
100
AcDbEntity
  8
0
100
AcDbLine
 10
938.0420703356838
 20
768.9620425580056
 30
0.0
 11
916.0184711011321
 21
802.2421110252212
 31
0.0
  0
LINE
  5
17AC21874A31E6
330
17AC21874A2FC9
100
AcDbEntity
  8
0
100
AcDbLine
 10
851.3539490226245
 20
702.8824391425319
 30
0.0
 11
821.242842051242
 21
746.0543117352231
 31
0.0
  0
ARC
  5
17AC21874A31E7
330
17AC21874A2FC9
100
AcDbEntity
  8
0
100
AcDbCircle
 10
1273.846516374172
 20
631.6036814021322
 30
0.0
 40
78.20266587666522
100
AcDbArc
 50
65.85437521970432
 51
114.1456247802957
  0
ARC
  5
17AC21874A31E8
330
17AC21874A2FC9
100
AcDbEntity
  8
0
100
AcDbCircle
 10
1144.279529834244
 20
631.6036814021322
 30
0.0
 40
78.20266587666522
100
AcDbArc
 50
65.85437521970432
 51
114.1456247802957
  0
ARC
  5
17AC21874A31E9
330
17AC21874A2FC9
100
AcDbEntity
  8
0
100
AcDbCircle
 10
1014.310148272768
 20
631.6036814021322
 30
0.0
 40
78.20266587666522
100
AcDbArc
 50
65.85437521970432
 51
114.1456247802957
  0
ARC
  5
17AC21874A31EA
330
17AC21874A2FC9
100
AcDbEntity
  8
0
100
AcDbCircle
 10
883.5360041273185
 20
631.6036814021322
 30
0.0
 40
78.20266587666522
100
AcDbArc
 50
65.85437521970432
 51
114.1456247802957
  0
LINE
  5
17AC21874A31EB
330
17AC21874A2FC9
100
AcDbEntity
  8
0
100
AcDbLine
 10
851.7076132684103
 20
703.161090652226
 30
0.0
 11
821.3207173916732
 21
703.161090652226
 31
0.0
  0
LINE
  5
17AC21874A31ED
330
17AC21874A2FC9
100
AcDbEntity
  8
0
100
AcDbLine
 10
982.0793715453534
 20
703.161090652226
 30
0.0
 11
916.0887298229068
 21
703.161090652226
 31
0.0
  0
LINE
  5
17AC21874A31EE
330
17AC21874A2FC9
100
AcDbEntity
  8
0
100
AcDbLine
 10
1112.249909428929
 20
703.161090652226
 30
0.0
 11
1046.862864815317
 21
703.161090652226
 31
0.0
  0
LINE
  5
17AC21874A31EF
330
17AC21874A2FC9
100
AcDbEntity
  8
0
100
AcDbLine
 10
1241.414528406427
 20
703.161090652226
 30
0.0
 11
1176.228649267956
 21
703.161090652226
 31
0.0
  0
LINE
  5
17AC21874A31F1
330
17AC21874A2FC9
100
AcDbEntity
  8
0
100
AcDbLine
 10
1371.140256089106
 20
703.0876231032202
 30
0.0
 11
1371.140256089106
 21
778.4154900889884
 31
0.0
  0
LINE
  5
17AC21874A31F4
330
17AC21874A2FC9
100
AcDbEntity
  8
0
100
AcDbLine
 10
388.7081835144278
 20
905.9611094980969
 30
0.0
 11
388.7081835144278
 21
785.0119137806828
 31
0.0
  0
LINE
  5
17AC21874A31F5
330
17AC21874A2FC9
100
AcDbEntity
  8
0
100
AcDbLine
 10
815.6535189793636
 20
800.708913660063
 30
0.0
 11
815.6535189793636
 21
695.4327395697514
 31
0.0
  0
LINE
  5
17AC21874A31F6
330
17AC21874A2FC9
100
AcDbEntity
  8
0
100
AcDbLine
 10
815.6535189793636
 20
695.4327395697514
 30
0.0
 11
706.605145971264
 21
695.4327395697514
 31
0.0
  0
LINE
  5
17AC21874A31F7
330
17AC21874A2FC9
100
AcDbEntity
  8
0
100
AcDbLine
 10
706.605145971264
 20
695.4327395697514
 30
0.0
 11
706.605145971264
 21
800.708913660063
 31
0.0
  0
LINE
  5
17AC21874A31F8
330
17AC21874A2FC9
100
AcDbEntity
  8
0
100
AcDbLine
 10
706.605145971264
 20
800.708913660063
 30
0.0
 11
815.6535189793636
 21
800.708913660063
 31
0.0
  0
LINE
  5
17AC21874A31F9
330
17AC21874A2FC9
100
AcDbEntity
  8
0
100
AcDbLine
 10
706.605145971264
 20
785.3933269204413
 30
0.0
 11
594.7466275506431
 21
785.3933269204413
 31
0.0
  0
LINE
  5
17AC21874A31FB
330
17AC21874A2FC9
100
AcDbEntity
  8
0
100
AcDbLine
 10
2890.816009590987
 20
907.9259519907786
 30
0.0
 11
2890.816009590987
 21
787.1854807499562
 31
0.0
  0
LINE
  5
17AC21874A32A1
330
17AC21874A2FC9
100
AcDbEntity
  8
0
100
AcDbLine
 10
594.7466275506431
 20
906.1743927642853
 30
0.0
 11
937.7771571731749
 21
906.0335874444776
 31
0.0
  0
LINE
  5
17AC21874A32A2
330
17AC21874A2FC9
100
AcDbEntity
  8
0
100
AcDbLine
 10
557.6824898446817
 20
785.3933269204413
 30
0.0
 11
388.6
 21
785.3933269204413
 31
0.0
  0
LWPOLYLINE
  5
17AC21874A32A5
330
17AC21874A2FC9
100
AcDbEntity
  8
0
100
AcDbPolyline
 90
        4
 70
     1
 43
0.0
 10
-537.9999999999995
 20
-260.3999999999999
 10
3562.000000000001
 20
-260.3999999999999
 10
3562.000000000001
 20
2609.6
 10
-537.9999999999995
 20
2609.6
  0
LWPOLYLINE
  5
17AC21874A32AB
330
17AC21874A2FC9
100
AcDbEntity
  8
0
100
AcDbPolyline
 90
        4
 70
     1
 43
0.0
 10
-487.9999999999995
 20
-210.3999999999999
 10
3512.0
 20
-210.3999999999999
 10
3512.0
 20
2559.6
 10
-487.9999999999995
 20
2559.6
  0
LINE
  5
17AC21874A33D3
330
17AC21874A2FC9
100
AcDbEntity
  8
0
100
AcDbLine
 10
-458.104311098627
 20
2281.664459148855
 30
0.0
 11
414.4997017413218
 21
2281.664459148855
 31
0.0
  0
LINE
  5
17AC21874A33D4
330
17AC21874A2FC9
100
AcDbEntity
  8
0
100
AcDbLine
 10
-458.104311098627
 20
2177.062024509405
 30
0.0
 11
414.192556556825
 21
2177.062024509405
 31
0.0
  0
LINE
  5
17AC21874A33D5
330
17AC21874A2FC9
100
AcDbEntity
  8
0
100
AcDbLine
 10
-458.104311098627
 20
2075.629358437311
 30
0.0
 11
410.5195773520129
 21
2075.629358437311
 31
0.0
  0
LINE
  5
17AC21874A33D6
330
17AC21874A2FC9
100
AcDbEntity
  8
0
100
AcDbLine
 10
-458.104311098627
 20
1961.517618095797
 30
0.0
 11
410.5195773520129
 21
1961.517618095797
 31
0.0
  0
LINE
  5
17AC21874A33D7
330
17AC21874A2FC9
100
AcDbEntity
  8
0
100
AcDbLine
 10
-458.104311098627
 20
1839.481445271783
 30
0.0
 11
414.192556556825
 21
1839.481445271783
 31
0.0
  0
LINE
  5
17AC21874A33D8
330
17AC21874A2FC9
100
AcDbEntity
  8
0
100
AcDbLine
 10
-458.104311098627
 20
1731.709236532922
 30
0.0
 11
414.192556556825
 21
1731.709236532922
 31
0.0
  0
LINE
  5
17AC21874A33D9
330
17AC21874A2FC9
100
AcDbEntity
  8
0
100
AcDbLine
 10
-458.104311098627
 20
1609.673069240963
 30
0.0
 11
410.5195773520129
 21
1609.673069240963
 31
0.0
  0
LINE
  5
17AC21874A33DA
330
17AC21874A2FC9
100
AcDbEntity
  8
0
100
AcDbLine
 10
-458.104311098627
 20
1492.391549267981
 30
0.0
 11
410.5195773520129
 21
1492.391549267981
 31
0.0
  0
LINE
  5
17AC21874A33DB
330
17AC21874A2FC9
100
AcDbEntity
  8
0
100
AcDbLine
 10
-458.104311098627
 20
1364.0158337772
 30
0.0
 11
414.4997017413218
 21
1364.0158337772
 31
0.0
  0
LINE
  5
17AC21874A33DC
330
17AC21874A2FC9
100
AcDbEntity
  8
0
100
AcDbLine
 10
-458.4
 20
2529.6
 30
0.0
 11
-458.4
 21
1573.192705320185
 31
0.0
  0
LINE
  5
17AC21874A33DD
330
17AC21874A2FC9
100
AcDbEntity
  8
AM_4
100
AcDbLine
 10
-458.4
 20
1996.859114857072
 30
0.0
 11
-97.70395086789648
 21
1996.859114857072
 31
0.0
  0
LINE
  5
17AC21874A33DE
330
17AC21874A2FC9
100
AcDbEntity
  8
AM_4
100
AcDbLine
 10
-458.4
 20
2090.684174198176
 30
0.0
 11
-72.70521850502411
 21
2090.684174198176
 31
0.0
  0
LINE
  5
17AC21874A33DF
330
17AC21874A2FC9
100
AcDbEntity
  8
AM_4
100
AcDbLine
 10
-458.4
 20
1984.180035055597
 30
0.0
 11
-97.70395086789648
 21
1984.180035055597
 31
0.0
  0
TEXT
  5
17AC21874A33E0
330
17AC21874A2FC9
100
AcDbEntity
  8
0
100
AcDbText
 10
-449.2769260156187
 20
2003.261029593702
 30
0.0
 40
40.0
  1
3500 B/h
 41
0.8
  7
ROMANS
100
AcDbText
  0
LINE
  5
17AC21874A33E1
330
17AC21874A2FC9
100
AcDbEntity
  8
AM_4
100
AcDbLine
 10
-458.4
 20
1753.832759312011
 30
0.0
 11
-179.8426573006814
 21
1753.832759312011
 31
0.0
  0
LINE
  5
17AC21874A33E2
330
17AC21874A2FC9
100
AcDbEntity
  8
AM_4
100
AcDbLine
 10
-458.4
 20
1744.323448077889
 30
0.0
 11
-179.8426573006814
 21
1744.323448077889
 31
0.0
  0
TEXT
  5
17AC21874A33E3
330
17AC21874A2FC9
100
AcDbEntity
  8
0
100
AcDbText
 10
-452.4524589861044
 20
1758.920757285988
 30
0.0
 40
40.0
  1
2500 mm
 41
0.8
  7
ROMANS
100
AcDbText
  0
LINE
  5
17AC21874A33E4
330
17AC21874A2FC9
100
AcDbEntity
  8
AM_4
100
AcDbLine
 10
-458.4
 20
1873.960505551434
 30
0.0
 11
177.2821417358558
 21
1873.960505551434
 31
0.0
  0
LINE
  5
17AC21874A33E5
330
17AC21874A2FC9
100
AcDbEntity
  8
AM_4
100
AcDbLine
 10
-458.4
 20
1643.06764120596
 30
0.0
 11
141.5696682393289
 21
1643.06764120596
 31
0.0
  0
LINE
  5
17AC21874A33E6
330
17AC21874A2FC9
100
AcDbEntity
  8
AM_4
100
AcDbLine
 10
-458.4
 20
1522.932790893808
 30
0.0
 11
70.14470294019844
 21
1522.932790893808
 31
0.0
  0
LINE
  5
17AC21874A33E7
330
17AC21874A2FC9
100
AcDbEntity
  8
AM_4
100
AcDbLine
 10
-458.4
 20
1859.696535934224
 30
0.0
 11
177.2821417358558
 21
1859.696535934224
 31
0.0
  0
LINE
  5
17AC21874A33E8
330
17AC21874A2FC9
100
AcDbEntity
  8
AM_4
100
AcDbLine
 10
-458.4
 20
1630.388561404483
 30
0.0
 11
141.5696682393289
 21
1630.388561404483
 31
0.0
  0
LINE
  5
17AC21874A33E9
330
17AC21874A2FC9
100
AcDbEntity
  8
AM_4
100
AcDbLine
 10
-458.4
 20
1508.668826808654
 30
0.0
 11
70.14470294019844
 21
1508.668826808654
 31
0.0
  0
TEXT
  5
17AC21874A33EA
330
17AC21874A2FC9
100
AcDbEntity
  8
0
100
AcDbText
 10
-452.4524589861044
 20
1879.504265170826
 30
0.0
 40
40.0
  1
LUNGHEZZA NASTRO
 41
0.8
  7
ROMANS
100
AcDbText
  0
TEXT
  5
17AC21874A33EB
330
17AC21874A2FC9
100
AcDbEntity
  8
0
100
AcDbText
 10
-455.6279831117368
 20
1651.030248824346
 30
0.0
 40
40.0
  1
DIMENSIONI NASTRO
 41
0.8
  7
ROMANS
100
AcDbText
  0
TEXT
  5
17AC21874A33EC
330
17AC21874A2FC9
100
AcDbEntity
  8
0
100
AcDbText
 10
-449.2769260156187
 20
1530.446740939509
 30
0.0
 40
40.0
  1
ALTEZZA 100 mm
 41
0.8
  7
ROMANS
100
AcDbText
  0
LINE
  5
17AC21874A33ED
330
17AC21874A2FC9
100
AcDbEntity
  8
AM_4
100
AcDbLine
 10
-458.104311098627
 20
1395.777612753746
 30
0.0
 11
127.1385762132151
 21
1395.777612753746
 31
0.0
  0
LINE
  5
17AC21874A33EE
330
17AC21874A2FC9
100
AcDbEntity
  8
AM_4
100
AcDbLine
 10
-458.104311098627
 20
1379.928758852858
 30
0.0
 11
127.1385762132151
 21
1379.928758852858
 31
0.0
  0
TEXT
  5
17AC21874A33EF
330
17AC21874A2FC9
100
AcDbEntity
  8
0
100
AcDbText
 10
-452.4524589861044
 20
1406.689981862425
 30
0.0
 40
40.0
  1
LARGHEZZA 120 mm
 41
0.8
  7
ROMANS
100
AcDbText
  0
LINE
  5
17AC21874A33F0
330
17AC21874A2FC9
100
AcDbEntity
  8
0
100
AcDbLine
 10
-458.4
 20
1573.192705320185
 30
0.0
 11
-458.4
 21
1363.38189887272
 31
0.0
  0
LINE
  5
17AC21874A33F1
330
17AC21874A2FC9
100
AcDbEntity
  8
AM_4
100
AcDbLine
 10
127.1385762132151
 20
1395.777612753746
 30
0.0
 11
364.7389600172485
 21
1395.777612753746
 31
0.0
  0
LINE
  5
17AC21874A33F2
330
17AC21874A2FC9
100
AcDbEntity
  8
AM_4
100
AcDbLine
 10
127.1385762132151
 20
1379.928758852858
 30
0.0
 11
364.7389600172485
 21
1379.928758852858
 31
0.0
  0
LINE
  5
17AC21874A33F3
330
17AC21874A2FC9
100
AcDbEntity
  8
AM_4
100
AcDbLine
 10
70.14470294019844
 20
1522.932790893808
 30
0.0
 11
364.7389600172484
 21
1522.932790893808
 31
0.0
  0
LINE
  5
17AC21874A33F4
330
17AC21874A2FC9
100
AcDbEntity
  8
AM_4
100
AcDbLine
 10
70.14470294019844
 20
1508.668826808654
 30
0.0
 11
364.7389600172484
 21
1508.668826808653
 31
0.0
  0
LINE
  5
17AC21874A33F5
330
17AC21874A2FC9
100
AcDbEntity
  8
AM_4
100
AcDbLine
 10
141.5696682393289
 20
1630.388561404483
 30
0.0
 11
364.7389600172484
 21
1630.388561404483
 31
0.0
  0
LINE
  5
17AC21874A33F6
330
17AC21874A2FC9
100
AcDbEntity
  8
AM_4
100
AcDbLine
 10
-72.70521850502411
 20
2090.684174198176
 30
0.0
 11
364.7389600172485
 21
2090.684174198176
 31
0.0
  0
LINE
  5
17AC21874A33F7
330
17AC21874A2FC9
100
AcDbEntity
  8
AM_4
100
AcDbLine
 10
-179.8426573006814
 20
1744.323448077889
 30
0.0
 11
364.7389600172485
 21
1744.323448077889
 31
0.0
  0
LINE
  5
17AC21874A33F8
330
17AC21874A2FC9
100
AcDbEntity
  8
AM_4
100
AcDbLine
 10
-179.8426573006814
 20
1753.832759312011
 30
0.0
 11
364.7389600172485
 21
1753.832759312011
 31
0.0
  0
LINE
  5
17AC21874A33F9
330
17AC21874A2FC9
100
AcDbEntity
  8
AM_4
100
AcDbLine
 10
-97.70395086789648
 20
1984.180035055597
 30
0.0
 11
364.7389600172485
 21
1984.180035055596
 31
0.0
  0
LINE
  5
17AC21874A33FA
330
17AC21874A2FC9
100
AcDbEntity
  8
AM_4
100
AcDbLine
 10
-97.70395086789648
 20
1996.859114857072
 30
0.0
 11
364.7389600172485
 21
1996.859114857072
 31
0.0
  0
LINE
  5
17AC21874A33FB
330
17AC21874A2FC9
100
AcDbEntity
  8
AM_4
100
AcDbLine
 10
141.5696682393289
 20
1643.06764120596
 30
0.0
 11
364.7389600172484
 21
1643.06764120596
 31
0.0
  0
LINE
  5
17AC21874A33FC
330
17AC21874A2FC9
100
AcDbEntity
  8
AM_4
100
AcDbLine
 10
177.2821417358558
 20
1859.696535934224
 30
0.0
 11
364.7389600172485
 21
1859.696535934224
 31
0.0
  0
LINE
  5
17AC21874A33FD
330
17AC21874A2FC9
100
AcDbEntity
  8
AM_4
100
AcDbLine
 10
177.2821417358558
 20
1873.960505551434
 30
0.0
 11
364.7389600172485
 21
1873.960505551434
 31
0.0
  0
LINE
  5
17AC21874A33FE
330
17AC21874A2FC9
100
AcDbEntity
  8
AM_4
100
AcDbLine
 10
-458.4
 20
2311.910278827614
 30
0.0
 11
364.7389600172485
 21
2311.910278827614
 31
0.0
  0
LINE
  5
17AC21874A33FF
330
17AC21874A2FC9
100
AcDbEntity
  8
AM_4
100
AcDbLine
 10
-458.4
 20
2299.231193494083
 30
0.0
 11
364.7389600172485
 21
2299.231193494083
 31
0.0
  0
TEXT
  5
17AC21874A3400
330
17AC21874A2FC9
100
AcDbEntity
  8
0
100
AcDbText
 10
-449.2769260156187
 20
2317.412801401888
 30
0.0
 40
40.0
  1
MODELLO
 41
0.8
  7
ROMANS
100
AcDbText
  0
LINE
  5
17AC21874A3401
330
17AC21874A2FC9
100
AcDbEntity
  8
AM_4
100
AcDbLine
 10
-458.4
 20
2103.363259531707
 30
0.0
 11
-72.70521850502411
 21
2103.363259531707
 31
0.0
  0
TEXT
  5
17AC21874A3402
330
17AC21874A2FC9
100
AcDbEntity
  8
0
100
AcDbText
 10
-449.2769260156187
 20
2111.151538055344
 30
0.0
 40
40.0
  1
PRODUZIONE
 41
0.8
  7
ROMANS
100
AcDbText
  0
TEXT
  5
17AC21874A3403
330
17AC21874A2FC9
100
AcDbEntity
  8
0
100
AcDbText
 10
-452.4524589861044
 20
2215.868795324739
 30
0.0
 40
40.0
  1
XR SU 5P  
 41
0.8
  7
ROMANS
100
AcDbText
  0
LINE
  5
17AC21874A3404
330
17AC21874A2FC9
100
AcDbEntity
  8
AM_4
100
AcDbLine
 10
-458.4
 20
2209.615187338008
 30
0.0
 11
364.7389600172485
 21
2209.615187338008
 31
0.0
  0
LINE
  5
17AC21874A3405
330
17AC21874A2FC9
100
AcDbEntity
  8
AM_4
100
AcDbLine
 10
-458.4
 20
2195.351217720798
 30
0.0
 11
364.7389600172484
 21
2195.351217720798
 31
0.0
  0
LINE
  5
17AC21874A3406
330
17AC21874A2FC9
100
AcDbEntity
  8
AM_4
100
AcDbLine
 10
-72.70521850502411
 20
2103.363259531707
 30
0.0
 11
364.7389600172485
 21
2103.363259531707
 31
0.0
  0
LINE
  5
17AC21874A3407
330
17AC21874A2FC9
100
AcDbEntity
  8
0
100
AcDbLine
 10
414.4997017413218
 20
1363.910744586288
 30
0.0
 11
414.4997017413218
 21
2390.421329616776
 31
0.0
  0
LINE
  5
17AC21874A3408
330
17AC21874A2FC9
100
AcDbEntity
  8
0
100
AcDbLine
 10
842.7750276675435
 20
2390.421329616776
 30
0.0
 11
842.7750276675435
 21
2529.6
 31
0.0
  0
LINE
  5
17AC21874A3409
330
17AC21874A2FC9
100
AcDbEntity
  8
0
100
AcDbLine
 10
842.6894017808759
 20
2529.6
 30
0.0
 11
-458.4
 21
2529.6
 31
0.0
  0
LINE
  5
17AC21874A340A
330
17AC21874A2FC9
100
AcDbEntity
  8
AM_4
100
AcDbLine
 10
-455.6972633999743
 20
2417.882710563656
 30
0.0
 11
741.7921067835735
 21
2417.882710563656
 31
0.0
  0
LINE
  5
17AC21874A340B
330
17AC21874A2FC9
100
AcDbEntity
  8
AM_4
100
AcDbLine
 10
-455.6972633999743
 20
2406.788515045857
 30
0.0
 11
741.7921067835735
 21
2406.788515045857
 31
0.0
  0
LINE
  5
17AC21874A340C
330
17AC21874A2FC9
100
AcDbEntity
  8
0
100
AcDbLine
 10
230.8508657102052
 20
2390.421329616776
 30
0.0
 11
842.6894017808759
 21
2390.421329616776
 31
0.0
  0
TEXT
  5
17AC21874A340D
330
17AC21874A2FC9
100
AcDbEntity
  8
0
100
AcDbText
 10
-458.8035072373692
 20
2428.476566401567
 30
0.0
 40
80.0
  1
ETICAP SYSTEM 
 41
0.8
  7
ROMANS
100
AcDbText
  0
LINE
  5
17AC21874A340E
330
17AC21874A2FC9
100
AcDbEntity
  8
0
100
AcDbLine
 10
230.8508657102052
 20
2390.421329616776
 30
0.0
 11
-458.4
 21
2390.421329616776
 31
0.0
  0
TEXT
  5
17AC21874A340F
330
17AC21874A2FC9
100
AcDbEntity
  8
0
100
AcDbText
 10
563.9054432918303
 20
2427.194720420981
 30
0.0
 40
48.0
  1
canelli
 41
0.8
  7
ROMANS
100
AcDbText
  0
LINE
  5
17AC21874A3410
330
17AC21874A2FC9
100
AcDbEntity
  8
AM_4
100
AcDbLine
 10
741.7921067835735
 20
2417.882710563656
 30
0.0
 11
802.1389600172485
 21
2417.882710563656
 31
0.0
  0
LINE
  5
17AC21874A3411
330
17AC21874A2FC9
100
AcDbEntity
  8
AM_4
100
AcDbLine
 10
741.7921067835735
 20
2406.788515045857
 30
0.0
 11
802.1389600172485
 21
2406.788515045858
 31
0.0
  0
INSERT
  5
17AC21874A343C
330
17AC21874A2FC9
100
AcDbEntity
  8
0
100
AcDbBlockReference
  2
A$C6
 10
-446.6
 20
-178.2
 30
0.0
  0
ARC
  5
17AC21874A34E3
330
17AC21874A2FC9
100
AcDbEntity
  8
0
100
AcDbCircle
 10
1381.798586994684
 20
1044.823735492602
 30
0.0
 40
191.2562509373355
100
AcDbArc
 50
48.18134338671537
 51
147.8067706144872
  0
ARC
  5
17AC21874A34E4
330
17AC21874A2FC9
100
AcDbEntity
  8
0
100
AcDbCircle
 10
1382.473483425991
 20
1043.863813714899
 30
0.0
 40
192.339342648267
100
AcDbArc
 50
287.8662687312237
 51
8.055099250890542
  0
LINE
  5
17AC21874A34E5
330
17AC21874A2FC9
100
AcDbEntity
  8
ASSE
100
AcDbLine
 10
1576.843207353926
 20
1070.978097923924
 30
0.0
 11
1182.299055320475
 21
1015.469532601226
 31
0.0
  0
ARC
  5
17AC21874A34E7
330
17AC21874A2FC9
100
AcDbEntity
  8
0
100
AcDbCircle
 10
1381.077023109956
 20
1043.635679743156
 30
0.0
 40
40.0
100
AcDbArc
 50
344.4438025429462
 51
195.3311817554209
  0
ARC
  5
17AC21874A34E9
330
17AC21874A2FC9
100
AcDbEntity
  8
0
100
AcDbCircle
 10
1203.405409844132
 20
1116.462642470023
 30
0.0
 40
35.0
100
AcDbArc
 50
253.258755224611
 51
63.03469251096753
  0
ARC
  5
17AC21874A34EA
330
17AC21874A2FC9
100
AcDbEntity
  8
0
100
AcDbCircle
 10
1380.718811663647
 20
1045.245942022611
 30
0.0
 40
191.183764837527
100
AcDbArc
 50
168.4355254848739
 51
183.6307990718018
  0
ARC
  5
17AC21874A34EB
330
17AC21874A2FC9
100
AcDbEntity
  8
0
100
AcDbCircle
 10
1406.271287900465
 20
856.2473171233463
 30
0.0
 40
35.0
100
AcDbArc
 50
11.92490191418493
 51
21.29082784428874
  0
LINE
  5
17AC21874A34ED
330
17AC21874A2FC9
100
AcDbEntity
  8
ASSE
100
AcDbLine
 10
1354.558310330389
 20
1239.202553852365
 30
0.0
 11
1410.168164591312
 21
843.9384596260254
 31
0.0
  0
ARC
  5
17AC21874A34F2
330
17AC21874A2FC9
100
AcDbEntity
  8
0
100
AcDbCircle
 10
1380.682489844681
 20
1042.199999999992
 30
0.0
 40
216.6000000000001
100
AcDbArc
 50
285.5152571724464
 51
16.83256458754507
  0
ARC
  5
17AC21874A34F3
330
17AC21874A2FC9
100
AcDbEntity
  8
0
100
AcDbCircle
 10
1660.482489844682
 20
1441.799999999992
 30
0.0
 40
241.4834984010294
100
AcDbArc
 50
260.37399473913
 51
291.2505055071332
  0
LINE
  5
17AC21874A34F5
330
17AC21874A2FC9
100
AcDbEntity
  8
0
100
AcDbLine
 10
1380.613623704515
 20
778.3933249842224
 30
0.0
 11
1380.613623704515
 21
748.1999999999921
 31
0.0
  0
LINE
  5
17AC21874A34F6
330
17AC21874A2FC9
100
AcDbEntity
  8
0
100
AcDbLine
 10
1380.482489844682
 20
748.1999999999921
 30
0.0
 11
1661.082489844682
 21
748.1999999999921
 31
0.0
  0
LINE
  5
17AC21874A34F8
330
17AC21874A2FC9
100
AcDbEntity
  8
0
100
AcDbLine
 10
1943.282489844682
 20
748.1999999999921
 30
0.0
 11
1662.682489844681
 21
748.1999999999921
 31
0.0
  0
LINE
  5
17AC21874A34F9
330
17AC21874A2FC9
100
AcDbEntity
  8
0
100
AcDbLine
 10
1943.151355984848
 20
825.6433070083224
 30
0.0
 11
1943.151355984848
 21
748.1999999999921
 31
0.0
  0
ARC
  5
17AC21874A34FA
330
17AC21874A2FC9
100
AcDbEntity
  8
0
100
AcDbCircle
 10
1943.082489844682
 20
1042.199999999992
 30
0.0
 40
216.6000000000001
100
AcDbArc
 50
140.8773926066431
 51
270.0
  0
LINE
  5
17AC21874A3503
330
17AC21874A2FC9
100
AcDbEntity
  8
0
100
AcDbLine
 10
2890.482489844682
 20
785.3933269204413
 30
0.0
 11
2657.878690612399
 21
785.3933269204413
 31
0.0
  0
LINE
  5
17AC21874A3567
330
17AC21874A2FC9
100
AcDbEntity
  8
0
100
AcDbLine
 10
2657.886064491012
 20
906.2590107189949
 30
0.0
 11
2890.482489844682
 21
906.2590107189949
 31
0.0
  0
LINE
  5
17AC21874A3568
330
17AC21874A2FC9
100
AcDbEntity
  8
0
100
AcDbLine
 10
2619.316026960737
 20
785.3933269204413
 30
0.0
 11
1943.282489844682
 21
785.3933269204413
 31
0.0
  0
LINE
  5
17AC21874A3569
330
17AC21874A2FC9
100
AcDbEntity
  8
0
100
AcDbLine
 10
927.9557629318521
 20
1172.421592131268
 30
0.0
 11
927.9557629318521
 21
1211.279346096209
 31
0.0
  0
DIMENSION
  5
17AC21874A3591
330
17AC21874A2FC9
100
AcDbEntity
  8
QUOTA
100
AcDbDimension
  2
*D6
 10
2890.482489844682
 20
57.0
 30
0.0
 11
1639.595336679555
 21
82.0
 31
0.0
 70
    32
  1
2500 mm
 71
     5
 42
2501.774306330255
  3
BASE
100
AcDbAlignedDimension
 13
388.7081835144278
 23
785.0119137806828
 33
0.0
 14
2890.482489844682
 24
785.3933269204413
 34
0.0
100
AcDbRotatedDimension
1001
ACAD
1000
DSTYLE
1002
{
1070
    40
1040
10.0
1002
}
  0
LINE
  5
17AC21874A364D
330
17AC21874A2FC9
100
AcDbEntity
  8
ASSE
100
AcDbLine
 10
1938.384366241909
 20
1043.959772735199
 30
0.0
 11
2126.279272347597
 21
1119.842193320458
 31
0.0
  0
LINE
  5
17AC21874A364F
330
17AC21874A2FC9
100
AcDbEntity
  8
ASSE
100
AcDbLine
 10
1938.384366241909
 20
1043.959772735199
 30
0.0
 11
1781.895522003526
 21
1166.259217131536
 31
0.0
  0
LINE
  5
17AC21874A3655
330
17AC21874A2FC9
100
AcDbEntity
  8
ASSE
100
AcDbLine
 10
1382.080953979718
 20
1043.576923155272
 30
0.0
 11
1540.929329662742
 21
1167.72039283098
 31
0.0
  0
LINE
  5
17AC21874A3657
330
17AC21874A2FC9
100
AcDbEntity
  8
ASSE
100
AcDbLine
 10
1382.080953979718
 20
1043.576923155272
 30
0.0
 11
1195.1453676851
 21
1119.071917008812
 31
0.0
  0
LINE
  5
17AC21874A369B
330
17AC21874A2FC9
100
AcDbEntity
  8
0
 62
     0
100
AcDbLine
 10
761.2645698611559
 20
2066.810410833901
 30
0.0
 11
2448.095278513423
 21
2066.810410833901
 31
0.0
  0
LINE
  5
17AC21874A369C
330
17AC21874A2FC9
100
AcDbEntity
  8
0
 62
     0
100
AcDbLine
 10
2448.095278513423
 20
2036.725338791378
 30
0.0
 11
761.2645698611559
 21
2036.810410833901
 31
0.0
  0
LINE
  5
17AC21874A369D
330
17AC21874A2FC9
100
AcDbEntity
  8
0
  6
Continuous
 62
     0
100
AcDbLine
 10
557.6824898446812
 20
2074.810410833901
 30
0.0
 11
2657.957356489753
 21
2074.810410833901
 31
0.0
  0
LINE
  5
17AC21874A369E
330
17AC21874A2FC9
100
AcDbEntity
  8
0
 62
     0
100
AcDbLine
 10
763.0837130604086
 20
532.1999999999921
 30
0.0
 11
2032.962784384347
 21
532.2141334186449
 31
0.0
  0
LINE
  5
17AC21874A369F
330
17AC21874A2FC9
100
AcDbEntity
  8
0
 62
     0
100
AcDbLine
 10
763.6105107374387
 20
562.0795715089512
 30
0.0
 11
2153.883929074795
 21
562.0795715089512
 31
0.0
  0
LINE
  5
17AC21874A36A0
330
17AC21874A2FC9
100
AcDbEntity
  8
0
  6
Continuous
 62
     0
100
AcDbLine
 10
2657.862755503056
 20
524.199999999992
 30
0.0
 11
557.6824898446812
 21
524.199999999992
 31
0.0
  0
LINE
  5
17AC21874A36A1
330
17AC21874A2FC9
100
AcDbEntity
  8
0
 62
     0
100
AcDbLine
 10
557.6824898446812
 20
2074.810410833901
 30
0.0
 11
557.6824898446812
 21
524.199999999992
 31
0.0
  0
LINE
  5
17AC21874A36A2
330
17AC21874A2FC9
100
AcDbEntity
  8
0
 62
     0
100
AcDbLine
 10
594.7466275506431
 20
1869.493711522413
 30
0.0
 11
594.7466275506431
 21
729.6446952251431
 31
0.0
  0
LINE
  5
17AC21874A36A3
330
17AC21874A2FC9
100
AcDbEntity
  8
0
 62
     0
100
AcDbLine
 10
564.746627550643
 20
729.6446952251431
 30
0.0
 11
564.6815847841044
 21
2066.810410833901
 31
0.0
  0
LINE
  5
17AC21874A36A4
330
17AC21874A2FC9
100
AcDbEntity
  8
0
  6
Continuous
 62
     0
100
AcDbLine
 10
564.746627550643
 20
730.7865144294087
 30
0.0
 11
564.746627550643
 21
532.1999999999921
 31
0.0
  0
LINE
  5
17AC21874A36A5
330
17AC21874A2FC9
100
AcDbEntity
  8
0
  6
Continuous
 62
     0
100
AcDbLine
 10
763.0837130604086
 20
532.1999999999921
 30
0.0
 11
564.6331363586141
 21
532.1999999999921
 31
0.0
  0
LINE
  5
17AC21874A36A6
330
17AC21874A2FC9
100
AcDbEntity
  8
0
  6
Continuous
 62
     0
100
AcDbLine
 10
765.7690430168513
 20
559.199999999992
 30
0.0
 11
765.7690430168513
 21
535.1999999999921
 31
0.0
  0
LINE
  5
17AC21874A36A7
330
17AC21874A2FC9
100
AcDbEntity
  8
0
  6
Continuous
 62
     0
100
AcDbLine
 10
738.7690430168513
 20
562.199999999992
 30
0.0
 11
762.7690430168513
 21
562.199999999992
 31
0.0
  0
ARC
  5
17AC21874A36A8
330
17AC21874A2FC9
100
AcDbEntity
  8
0
  6
Continuous
 62
     0
100
AcDbCircle
 10
762.7690430168513
 20
559.199999999992
 30
0.0
 40
3.000000000000002
100
AcDbArc
 50
0.0
 51
90.0
  0
ARC
  5
17AC21874A36A9
330
17AC21874A2FC9
100
AcDbEntity
  8
0
  6
Continuous
 62
     0
100
AcDbCircle
 10
762.7690430168513
 20
535.1999999999921
 30
0.0
 40
3.000000000000002
100
AcDbArc
 50
270.0
 51
0.0
  0
ARC
  5
17AC21874A36AA
330
17AC21874A2FC9
100
AcDbEntity
  8
0
  6
Continuous
 62
     0
100
AcDbCircle
 10
591.7466275506431
 20
729.6446952251431
 30
0.0
 40
3.000000000000002
100
AcDbArc
 50
0.0
 51
90.0
  0
LINE
  5
17AC21874A36AB
330
17AC21874A2FC9
100
AcDbEntity
  8
0
  6
Continuous
 62
     0
100
AcDbLine
 10
594.7466275506431
 20
729.6446952251431
 30
0.0
 11
594.7466275506431
 21
702.6446952251431
 31
0.0
  0
ARC
  5
17AC21874A36AC
330
17AC21874A2FC9
100
AcDbEntity
  8
0
  6
Continuous
 62
     0
100
AcDbCircle
 10
567.746627550643
 20
729.6446952251431
 30
0.0
 40
3.000000000000002
100
AcDbArc
 50
90.0
 51
180.0
  0
LINE
  5
17AC21874A36AD
330
17AC21874A2FC9
100
AcDbEntity
  8
0
  6
Continuous
 62
     0
100
AcDbLine
 10
591.7466275506431
 20
732.6446952251431
 30
0.0
 11
567.746627550643
 21
732.6446952251431
 31
0.0
  0
LINE
  5
17AC21874A36AE
330
17AC21874A2FC9
100
AcDbEntity
  8
0
  6
Continuous
 62
     0
100
AcDbLine
 10
564.746627550643
 20
1869.493711522413
 30
0.0
 11
564.6815847841044
 21
2066.810410833901
 31
0.0
  0
ARC
  5
17AC21874A36AF
330
17AC21874A2FC9
100
AcDbEntity
  8
0
  6
Continuous
 62
     0
100
AcDbCircle
 10
591.7466275506431
 20
1869.493711522413
 30
0.0
 40
3.000000000000002
100
AcDbArc
 50
270.0
 51
0.0
  0
ARC
  5
17AC21874A36B0
330
17AC21874A2FC9
100
AcDbEntity
  8
0
  6
Continuous
 62
     0
100
AcDbCircle
 10
567.746627550643
 20
1869.493711522413
 30
0.0
 40
3.000000000000002
100
AcDbArc
 50
180.0
 51
270.0
  0
LINE
  5
17AC21874A36B1
330
17AC21874A2FC9
100
AcDbEntity
  8
0
  6
Continuous
 62
     0
100
AcDbLine
 10
591.7466275506431
 20
1866.493711522412
 30
0.0
 11
567.746627550643
 21
1866.493711522412
 31
0.0
  0
LINE
  5
17AC21874A36B2
330
17AC21874A2FC9
100
AcDbEntity
  8
0
  6
Continuous
 62
     0
100
AcDbLine
 10
594.7466275506431
 20
1869.493711522413
 30
0.0
 11
594.7466275506431
 21
1896.493711522413
 31
0.0
  0
LINE
  5
17AC21874A36B3
330
17AC21874A2FC9
100
AcDbEntity
  8
0
  6
Continuous
 62
     0
100
AcDbLine
 10
764.2645698611559
 20
2039.810410833901
 30
0.0
 11
764.2645698611559
 21
2063.810410833901
 31
0.0
  0
LINE
  5
17AC21874A36B4
330
17AC21874A2FC9
100
AcDbEntity
  8
0
  6
Continuous
 62
     0
100
AcDbLine
 10
734.2645698611558
 20
2036.810410833901
 30
0.0
 11
761.2645698611559
 21
2036.810410833901
 31
0.0
  0
ARC
  5
17AC21874A36B5
330
17AC21874A2FC9
100
AcDbEntity
  8
0
  6
Continuous
 62
     0
100
AcDbCircle
 10
761.2645698611559
 20
2039.810410833901
 30
0.0
 40
3.000000000000002
100
AcDbArc
 50
270.0
 51
0.0
  0
LINE
  5
17AC21874A36B6
330
17AC21874A2FC9
100
AcDbEntity
  8
0
  6
Continuous
 62
     0
100
AcDbLine
 10
564.6815847841044
 20
2066.810410833901
 30
0.0
 11
761.6037709997053
 21
2066.810410833901
 31
0.0
  0
ARC
  5
17AC21874A36B7
330
17AC21874A2FC9
100
AcDbEntity
  8
0
  6
Continuous
 62
     0
100
AcDbCircle
 10
761.2645698611559
 20
2063.810410833901
 30
0.0
 40
3.000000000000002
100
AcDbArc
 50
0.0
 51
90.0
  0
LINE
  5
17AC21874A36B8
330
17AC21874A2FC9
100
AcDbEntity
  8
0
  6
Continuous
 62
     0
100
AcDbLine
 10
2657.957356489753
 20
2074.810410833901
 30
0.0
 11
2657.862755503056
 21
524.199999999992
 31
0.0
  0
LINE
  5
17AC21874A36B9
330
17AC21874A2FC9
100
AcDbEntity
  8
0
 62
     0
100
AcDbLine
 10
2648.496212826138
 20
1870.187171391152
 30
0.0
 11
2649.456430102304
 21
732.9505688694157
 31
0.0
  0
LINE
  5
17AC21874A36BA
330
17AC21874A2FC9
100
AcDbEntity
  8
0
 62
     0
100
AcDbLine
 10
2619.355649810121
 20
732.9505688694157
 30
0.0
 11
2618.496212826138
 21
1870.456995386107
 31
0.0
  0
LINE
  5
17AC21874A36BC
330
17AC21874A2FC9
100
AcDbEntity
  8
0
  6
Continuous
 62
     0
100
AcDbLine
 10
2649.456430102304
 20
732.9505688694157
 30
0.0
 11
2649.422520002447
 21
532.1446438125117
 31
0.0
  0
LINE
  5
17AC21874A36BD
330
17AC21874A2FC9
100
AcDbEntity
  8
0
 62
     0
100
AcDbLine
 10
2153.849052430052
 20
732.9505688694157
 30
0.0
 11
2153.849052430052
 21
532.3650675770791
 31
0.0
  0
TEXT
  5
17AC21874A36BE
330
17AC21874A2FC9
100
AcDbEntity
  8
0
 62
     0
100
AcDbText
 10
2202.525376201819
 20
567.1567448004156
 30
0.0
 40
50.0
  1
elettrico
100
AcDbText
  0
LINE
  5
17AC21874A36BF
330
17AC21874A2FC9
100
AcDbEntity
  8
0
  6
Continuous
 62
     0
100
AcDbLine
 10
2649.157920793891
 20
532.1999999999921
 30
0.0
 11
2033.301394979249
 21
532.1999999999921
 31
0.0
  0
LINE
  5
17AC21874A36C1
330
17AC21874A2FC9
100
AcDbEntity
  8
0
 62
     0
100
AcDbLine
 10
2649.456430102304
 20
732.9505688694157
 30
0.0
 11
2153.849052430052
 21
732.9505688694157
 31
0.0
  0
TEXT
  5
17AC21874A36C2
330
17AC21874A2FC9
100
AcDbEntity
  8
0
 62
     0
100
AcDbText
 10
2202.525376201819
 20
650.4900781337487
 30
0.0
 40
50.0
  1
 Quadro 
100
AcDbText
  0
LINE
  5
17AC21874A36C3
330
17AC21874A2FC9
100
AcDbEntity
  8
0
  6
Continuous
 62
     0
100
AcDbLine
 10
2648.496212826138
 20
1870.187171391152
 30
0.0
 11
2648.496212826138
 21
2067.75404762579
 31
0.0
  0
ARC
  5
17AC21874A36C4
330
17AC21874A2FC9
100
AcDbEntity
  8
0
  6
Continuous
 62
     0
100
AcDbCircle
 10
2645.496212826138
 20
1870.456995386107
 30
0.0
 40
3.000000000000002
100
AcDbArc
 50
270.0
 51
0.0
  0
LINE
  5
17AC21874A36C5
330
17AC21874A2FC9
100
AcDbEntity
  8
0
  6
Continuous
 62
     0
100
AcDbLine
 10
2645.496212826138
 20
1867.456995386107
 30
0.0
 11
2621.496212826138
 21
1867.456995386107
 31
0.0
  0
ARC
  5
17AC21874A36C6
330
17AC21874A2FC9
100
AcDbEntity
  8
0
  6
Continuous
 62
     0
100
AcDbCircle
 10
2621.496212826138
 20
1870.456995386107
 30
0.0
 40
3.000000000000002
100
AcDbArc
 50
180.0
 51
270.0
  0
LINE
  5
17AC21874A36C7
330
17AC21874A2FC9
100
AcDbEntity
  8
0
  6
Continuous
 62
     0
100
AcDbLine
 10
2618.496212826138
 20
1870.456995386107
 30
0.0
 11
2618.496212826138
 21
1894.456995386107
 31
0.0
  0
LINE
  5
17AC21874A36C8
330
17AC21874A2FC9
100
AcDbEntity
  8
0
  6
Continuous
 62
     0
100
AcDbLine
 10
2648.496212826138
 20
2067.735220541712
 30
0.0
 11
2450.592208558586
 21
2067.735220541712
 31
0.0
  0
LINE
  5
17AC21874A36C9
330
17AC21874A2FC9
100
AcDbEntity
  8
0
  6
Continuous
 62
     0
100
AcDbLine
 10
2448.274321615427
 20
2064.735220541712
 30
0.0
 11
2448.274321615427
 21
2040.735220541712
 31
0.0
  0
ARC
  5
17AC21874A36CA
330
17AC21874A2FC9
100
AcDbEntity
  8
0
  6
Continuous
 62
     0
100
AcDbCircle
 10
2451.274321615427
 20
2040.735220541712
 30
0.0
 40
3.000000000000002
100
AcDbArc
 50
180.0
 51
270.0
  0
LINE
  5
17AC21874A36CB
330
17AC21874A2FC9
100
AcDbEntity
  8
0
  6
Continuous
 62
     0
100
AcDbLine
 10
2451.274321615427
 20
2037.735220541712
 30
0.0
 11
2478.274321615427
 21
2037.735220541712
 31
0.0
  0
ARC
  5
17AC21874A36CC
330
17AC21874A2FC9
100
AcDbEntity
  8
0
  6
Continuous
 62
     0
100
AcDbCircle
 10
2451.274321615427
 20
2064.735220541712
 30
0.0
 40
3.000000000000002
100
AcDbArc
 50
90.0
 51
180.0
  0
DIMENSION
  5
17AC21874A36D1
330
17AC21874A2FC9
100
AcDbEntity
  8
QUOTA
100
AcDbDimension
  2
*D8
 10
2657.862755503056
 20
289.8
 30
0.0
 11
1607.772622673868
 21
314.8
 31
0.0
 70
    32
  1
2100 mm
 71
     5
 42
2100.180265658375
  3
BASE
100
AcDbAlignedDimension
 13
557.6824898446812
 23
524.199999999992
 33
0.0
 14
2657.862755503056
 24
524.199999999992
 34
0.0
100
AcDbRotatedDimension
1001
ACAD
1000
DSTYLE
1002
{
1070
    40
1040
10.0
1002
}
  0
DIMENSION
  5
17AC21874A36E7
330
17AC21874A2FC9
100
AcDbEntity
  8
QUOTA
100
AcDbDimension
  2
*D9
 10
3101.600000000001
 20
847.3757281591792
 30
0.0
 11
3076.600000000001
 21
685.7878640795861
 31
0.0
 70
    32
  1
320 mm
 71
     5
 42
323.1757281591873
  3
BASE
100
AcDbAlignedDimension
 13
2657.862755503056
 23
524.199999999992
 33
0.0
 14
2982.082489844682
 24
847.3757281591792
 34
0.0
 50
90.0
100
AcDbRotatedDimension
1001
ACAD
1000
DSTYLE
1002
{
1070
    40
1040
10.0
1002
}
  0
DIMENSION
  5
17AC21874A36FD
330
17AC21874A2FC9
100
AcDbEntity
  8
QUOTA
100
AcDbDimension
  2
*D10
 10
3101.0
 20
2074.810410833901
 30
0.0
 11
3076.0
 21
1461.093069496541
 31
0.0
 70
    32
  1
1230 mm
 71
     5
 42
1227.434682674721
  3
BASE
100
AcDbAlignedDimension
 13
2982.082489844682
 23
847.3757281591792
 33
0.0
 14
2657.957356489753
 24
2074.810410833901
 34
0.0
 50
90.0
100
AcDbRotatedDimension
1001
ACAD
1000
DSTYLE
1002
{
1070
    40
1040
10.0
1002
}
  0
DIMENSION
  5
17AC21874A3713
330
17AC21874A2FC9
100
AcDbEntity
  8
QUOTA
100
AcDbDimension
  2
*D11
 10
3271.800000000001
 20
2074.810410833901
 30
0.0
 11
3246.8
 21
1299.505205416947
 31
0.0
 70
    32
  1
1550 mm
 71
     5
 42
1550.610410833909
  3
BASE
100
AcDbAlignedDimension
 13
3101.600000000001
 23
524.199999999992
 33
0.0
 14
3101.0
 24
2074.810410833901
 34
0.0
 50
90.0
100
AcDbRotatedDimension
1001
ACAD
1000
DSTYLE
1002
{
1070
    40
1040
10.0
1002
}
  0
LINE
  5
17AC21874A3768
330
17AC21874A2FC9
100
AcDbEntity
  8
0
100
AcDbLine
 10
957.0324488584347
 20
1856.112839653254
 30
0.0
 11
957.0324488584347
 21
1211.279346096209
 31
0.0
  0
LINE
  5
17AC21874A3769
330
17AC21874A2FC9
100
AcDbEntity
  8
0
100
AcDbLine
 10
2308.032448858435
 20
1856.112839653254
 30
0.0
 11
2308.032448858435
 21
906.2590107189947
 31
0.0
  0
LINE
  5
17AC21874A376A
330
17AC21874A2FC9
100
AcDbEntity
  8
0
100
AcDbLine
 10
1057.032448858435
 20
679.1128396532545
 30
0.0
 11
2153.849052430052
 21
679.1128396532545
 31
0.0
  0
LINE
  5
17AC21874A376B
330
17AC21874A2FC9
100
AcDbEntity
  8
0
100
AcDbLine
 10
1057.032448858435
 20
1956.112839653254
 30
0.0
 11
2208.032448858435
 21
1956.112839653254
 31
0.0
  0
LINE
  5
17AC21874A3770
330
17AC21874A2FC9
100
AcDbEntity
  8
0
100
AcDbLine
 10
2208.032448858435
 20
1956.112839653254
 30
0.0
 11
2308.032448858435
 21
1856.112839653254
 31
0.0
  0
LINE
  5
17AC21874A3771
330
17AC21874A2FC9
100
AcDbEntity
  8
0
100
AcDbLine
 10
957.0324488584347
 20
1856.112839653254
 30
0.0
 11
1057.032448858435
 21
1956.112839653254
 31
0.0
  0
LINE
  5
17AC21874A3772
330
17AC21874A2FC9
100
AcDbEntity
  8
0
100
AcDbLine
 10
2308.032448858435
 20
779.1128396532545
 30
0.0
 11
2261.870178074596
 21
732.9505688694157
 31
0.0
  0
LINE
  5
17AC21874A3773
330
17AC21874A2FC9
100
AcDbEntity
  8
0
100
AcDbLine
 10
1057.032448858435
 20
679.1128396532545
 30
0.0
 11
1027.450896312671
 21
708.6943921990183
 31
0.0
  0
LINE
  5
17AC21874A3774
330
17AC21874A2FC9
100
AcDbEntity
  8
0
100
AcDbLine
 10
957.0324488584347
 20
1172.421592131268
 30
0.0
 11
957.0324488584347
 21
952.3395277670866
 31
0.0
  0
LINE
  5
17AC21874A3775
330
17AC21874A2FC9
100
AcDbEntity
  8
0
100
AcDbLine
 10
2308.032448858435
 20
785.3933269204413
 30
0.0
 11
2308.032448858435
 21
779.1128396532545
 31
0.0
  0
LINE
  5
17AC21874A38B1
330
17AC21874A2FC9
100
AcDbEntity
  8
ASSE
100
AcDbLine
 10
1661.032448858434
 20
1441.112839653254
 30
0.0
 11
1972.984834375012
 21
1214.466164862739
 31
0.0
  0
LINE
  5
17AC21874A38B2
330
17AC21874A2FC9
100
AcDbEntity
  8
ASSE
100
AcDbLine
 10
1661.032448858434
 20
1441.112839653254
 30
0.0
 11
1541.877240462711
 21
1074.390816405054
 31
0.0
  0
ARC
  5
17AC21874A38B3
330
17AC21874A2FC9
100
AcDbEntity
  8
0
100
AcDbCircle
 10
1661.032448858434
 20
1441.112839653254
 30
0.0
 40
365.0
100
AcDbArc
 50
185.4131325932288
 51
214.4052767021299
  0
LINE
  5
17AC21874A38B4
330
17AC21874A2FC9
100
AcDbEntity
  8
0
100
AcDbLine
 10
1577.714970830164
 20
1073.261054182768
 30
0.0
 11
1646.039136770054
 21
1283.541214887194
 31
0.0
  0
LINE
  5
17AC21874A38B5
330
17AC21874A2FC9
100
AcDbEntity
  8
0
100
AcDbLine
 10
1579.288364830399
 20
1305.122979038814
 30
0.0
 11
1510.995609073536
 21
1094.939488937585
 31
0.0
  0
ARC
  5
17AC21874A38B6
330
17AC21874A2FC9
100
AcDbEntity
  8
COSTRUZIONE
100
AcDbCircle
 10
1903.737547170918
 20
1264.777263965513
 30
0.0
 40
55.0
100
AcDbArc
 50
184.5007444194811
 51
229.9878929536188
  0
LINE
  5
17AC21874A38B7
330
17AC21874A2FC9
100
AcDbEntity
  8
0
100
AcDbLine
 10
1765.106180791591
 20
1321.346417877271
 30
0.0
 11
1943.898936548455
 21
1191.445877120634
 31
0.0
  0
LINE
  5
17AC21874A38B8
330
17AC21874A2FC9
100
AcDbEntity
  8
0
100
AcDbLine
 10
1957.866959015128
 20
1193.658194541459
 30
0.0
 11
1987.346087242576
 21
1234.232733664968
 31
0.0
  0
LINE
  5
17AC21874A38B9
330
17AC21874A2FC9
100
AcDbEntity
  8
ASSE
100
AcDbLine
 10
1661.032448858434
 20
1814.912839653255
 30
0.0
 11
1661.032448858434
 21
1053.312839653254
 31
0.0
  0
CIRCLE
  5
17AC21874A38BA
330
17AC21874A2FC9
100
AcDbEntity
  8
ASSE
100
AcDbCircle
 10
1661.032448858434
 20
1441.112839653254
 30
0.0
 40
300.0
  0
ARC
  5
17AC21874A38BB
330
17AC21874A2FC9
100
AcDbEntity
  8
0
100
AcDbCircle
 10
1661.032448858434
 20
1441.112839653254
 30
0.0
 40
365.0
100
AcDbArc
 50
257.4131325931971
 51
259.3404196874848
  0
LINE
  5
17AC21874A38BD
330
17AC21874A2FC9
100
AcDbEntity
  8
0
100
AcDbLine
 10
1517.416004292739
 20
1082.338753830884
 30
0.0
 11
1565.114235723463
 21
1066.840658963566
 31
0.0
  0
LINE
  5
17AC21874A38BE
330
17AC21874A2FC9
100
AcDbEntity
  8
0
100
AcDbLine
 10
1517.416004292739
 20
1082.338753830884
 30
0.0
 11
1510.995609073536
 21
1094.939488937585
 31
0.0
  0
LINE
  5
17AC21874A38BF
330
17AC21874A2FC9
100
AcDbEntity
  8
0
100
AcDbLine
 10
1577.714970830164
 20
1073.261054182768
 30
0.0
 11
1565.114235723463
 21
1066.840658963566
 31
0.0
  0
ARC
  5
17AC21874A38C0
330
17AC21874A2FC9
100
AcDbEntity
  8
COSTRUZIONE
100
AcDbCircle
 10
1568.327350545951
 20
1155.795884764708
 30
0.0
 40
55.0
100
AcDbArc
 50
112.5007444194608
 51
211.5663004750369
  0
LINE
  5
17AC21874A38C1
330
17AC21874A2FC9
100
AcDbEntity
  8
ASSE
100
AcDbLine
 10
1561.683485166889
 20
1135.348169664362
 30
0.0
 11
1574.971215925012
 21
1176.243599865054
 31
0.0
  0
CIRCLE
  5
17AC21874A38C2
330
17AC21874A2FC9
100
AcDbEntity
  8
COSTRUZIONE
100
AcDbCircle
 10
1568.201797293109
 20
1155.532029427651
 30
0.0
 40
30.0
  0
LINE
  5
17AC21874A38C3
330
17AC21874A2FC9
100
AcDbEntity
  8
0
100
AcDbLine
 10
1957.866959015128
 20
1193.658194541459
 30
0.0
 11
1943.898936548455
 21
1191.445877120634
 31
0.0
  0
LINE
  5
17AC21874A38C4
330
17AC21874A2FC9
100
AcDbEntity
  8
ASSE
100
AcDbLine
 10
1275.438094616725
 20
1441.112839653254
 30
0.0
 11
2026.032448858435
 21
1441.112839653254
 31
0.0
  0
ARC
  5
17AC21874A38C5
330
17AC21874A2FC9
100
AcDbEntity
  8
0
100
AcDbCircle
 10
1661.032448858434
 20
1441.112839653254
 30
0.0
 40
365.0
100
AcDbArc
 50
113.4131325932088
 51
174.3838630889932
  0
LINE
  5
17AC21874A38C6
330
17AC21874A2FC9
100
AcDbEntity
  8
0
100
AcDbLine
 10
1285.438094616725
 20
1406.680016931771
 30
0.0
 11
1506.539740104182
 21
1406.680016931771
 31
0.0
  0
LINE
  5
17AC21874A38C7
330
17AC21874A2FC9
100
AcDbEntity
  8
0
100
AcDbLine
 10
1506.438094616725
 20
1476.832905444153
 30
0.0
 11
1285.438094616725
 21
1476.832905444153
 31
0.0
  0
ARC
  5
17AC21874A38C8
330
17AC21874A2FC9
100
AcDbEntity
  8
COSTRUZIONE
100
AcDbCircle
 10
1361.032448858434
 20
1441.112839653254
 30
0.0
 40
55.0
100
AcDbArc
 50
40.50074441948637
 51
139.5663004750449
  0
ARC
  5
17AC21874A38C9
330
17AC21874A2FC9
100
AcDbEntity
  8
COSTRUZIONE
100
AcDbCircle
 10
1361.032448858434
 20
1441.112839653254
 30
0.0
 40
55.0
100
AcDbArc
 50
219.2500782645583
 51
321.1794655261858
  0
LINE
  5
17AC21874A38CA
330
17AC21874A2FC9
100
AcDbEntity
  8
0
100
AcDbLine
 10
1275.438094616725
 20
1466.832905444153
 30
0.0
 11
1275.438094616725
 21
1416.680016931772
 31
0.0
  0
LINE
  5
17AC21874A38CB
330
17AC21874A2FC9
100
AcDbEntity
  8
0
100
AcDbLine
 10
1285.438094616725
 20
1406.680016931771
 30
0.0
 11
1275.438094616725
 21
1416.680016931772
 31
0.0
  0
LINE
  5
17AC21874A38CC
330
17AC21874A2FC9
100
AcDbEntity
  8
0
100
AcDbLine
 10
1275.438094616725
 20
1466.832905444153
 30
0.0
 11
1285.438094616725
 21
1476.832905444153
 31
0.0
  0
CIRCLE
  5
17AC21874A38CD
330
17AC21874A2FC9
100
AcDbEntity
  8
COSTRUZIONE
100
AcDbCircle
 10
1360.74270943194
 20
1441.150712109304
 30
0.0
 40
30.0
  0
LINE
  5
17AC21874A38CE
330
17AC21874A2FC9
100
AcDbEntity
  8
ASSE
100
AcDbLine
 10
1339.532448858435
 20
1441.112839653254
 30
0.0
 11
1382.532448858434
 21
1441.112839653254
 31
0.0
  0
LINE
  5
17AC21874A38CF
330
17AC21874A2FC9
100
AcDbEntity
  8
ASSE
100
AcDbLine
 10
1661.032448858434
 20
1441.112839653254
 30
0.0
 11
1541.877240462711
 21
1807.834862901454
 31
0.0
  0
ARC
  5
17AC21874A38D0
330
17AC21874A2FC9
100
AcDbEntity
  8
0
100
AcDbCircle
 10
1661.032448858434
 20
1441.112839653254
 30
0.0
 40
365.0
100
AcDbArc
 50
41.41313259322827
 51
102.3838630890167
  0
LINE
  5
17AC21874A38D1
330
17AC21874A2FC9
100
AcDbEntity
  8
ASSE
100
AcDbLine
 10
1561.683485166889
 20
1746.877509642146
 30
0.0
 11
1574.971215925012
 21
1705.982079441455
 31
0.0
  0
ARC
  5
17AC21874A38D2
330
17AC21874A2FC9
100
AcDbEntity
  8
COSTRUZIONE
100
AcDbCircle
 10
1568.327350545951
 20
1726.4297945418
 30
0.0
 40
55.0
100
AcDbArc
 50
147.2500782645563
 51
249.1794655262019
  0
CIRCLE
  5
17AC21874A38D3
330
17AC21874A2FC9
100
AcDbEntity
  8
COSTRUZIONE
100
AcDbCircle
 10
1568.273834985337
 20
1726.717056343934
 30
0.0
 40
30.0
  0
ARC
  5
17AC21874A38D4
330
17AC21874A2FC9
100
AcDbEntity
  8
COSTRUZIONE
100
AcDbCircle
 10
1568.327350545951
 20
1726.4297945418
 30
0.0
 40
55.0
100
AcDbArc
 50
328.5007444194692
 51
67.56630047505931
  0
LINE
  5
17AC21874A38D5
330
17AC21874A2FC9
100
AcDbEntity
  8
0
100
AcDbLine
 10
1512.21984998276
 20
1787.683970353265
 30
0.0
 11
1580.544015922649
 21
1577.403809648838
 31
0.0
  0
LINE
  5
17AC21874A38D6
330
17AC21874A2FC9
100
AcDbEntity
  8
0
100
AcDbLine
 10
1647.231967496252
 20
1599.178915006853
 30
0.0
 11
1578.939211739388
 21
1809.362405108081
 31
0.0
  0
LINE
  5
17AC21874A38D7
330
17AC21874A2FC9
100
AcDbEntity
  8
ASSE
100
AcDbLine
 10
1661.032448858434
 20
1441.112839653254
 30
0.0
 11
1972.984834375012
 21
1667.759514443772
 31
0.0
  0
LINE
  5
17AC21874A38D8
330
17AC21874A2FC9
100
AcDbEntity
  8
0
100
AcDbLine
 10
1778.00467937464
 20
1526.112985011266
 30
0.0
 11
1793.129614090531
 21
1505.295298320007
 31
0.0
  0
CIRCLE
  5
17AC21874A38D9
330
17AC21874A2FC9
100
AcDbEntity
  8
COSTRUZIONE
100
AcDbCircle
 10
1806.655507845925
 20
1546.9141850659
 30
0.0
 40
34.0
  0
LINE
  5
17AC21874A38DA
330
17AC21874A2FC9
100
AcDbEntity
  8
0
100
AcDbLine
 10
1944.655559040773
 20
1689.738400666826
 30
0.0
 11
1765.780570357154
 21
1559.778114191701
 31
0.0
  0
LINE
  5
17AC21874A38DB
330
17AC21874A2FC9
100
AcDbEntity
  8
0
100
AcDbLine
 10
1792.290758671459
 20
1375.948725185943
 30
0.0
 11
1777.74388148465
 21
1355.926666426705
 31
0.0
  0
CIRCLE
  5
17AC21874A38DC
330
17AC21874A2FC9
100
AcDbEntity
  8
COSTRUZIONE
100
AcDbCircle
 10
1806.655507845925
 20
1335.311494240609
 30
0.0
 40
34.0
  0
CIRCLE
  5
17AC21874A38DD
330
17AC21874A2FC9
100
AcDbEntity
  8
ASSE
100
AcDbCircle
 10
1661.032448858434
 20
1441.112839653254
 30
0.0
 40
180.0
  0
CIRCLE
  5
17AC21874A38DE
330
17AC21874A2FC9
100
AcDbEntity
  8
0
100
AcDbCircle
 10
1661.032448858434
 20
1441.112839653254
 30
0.0
 40
140.0
  0
LINE
  5
17AC21874A38DF
330
17AC21874A2FC9
100
AcDbEntity
  8
0
100
AcDbLine
 10
1616.361758385036
 20
1303.591725509101
 30
0.0
 11
1591.8890999371
 21
1311.543374258016
 31
0.0
  0
CIRCLE
  5
17AC21874A38E0
330
17AC21874A2FC9
100
AcDbEntity
  8
COSTRUZIONE
100
AcDbCircle
 10
1605.409389870944
 20
1269.922666720127
 30
0.0
 40
12.5
  0
CIRCLE
  5
17AC21874A38E1
330
17AC21874A2FC9
100
AcDbEntity
  8
COSTRUZIONE
100
AcDbCircle
 10
1605.409389870944
 20
1269.922666720127
 30
0.0
 40
33.99999999999999
  0
LINE
  5
17AC21874A38E2
330
17AC21874A2FC9
100
AcDbEntity
  8
0
100
AcDbLine
 10
1579.288364830399
 20
1305.122979038814
 30
0.0
 11
1591.8890999371
 21
1311.543374258016
 31
0.0
  0
CIRCLE
  5
17AC21874A38E3
330
17AC21874A2FC9
100
AcDbEntity
  8
COSTRUZIONE
100
AcDbCircle
 10
1481.032448858434
 20
1441.112839653254
 30
0.0
 40
34.0
  0
CIRCLE
  5
17AC21874A38E4
330
17AC21874A2FC9
100
AcDbEntity
  8
COSTRUZIONE
100
AcDbCircle
 10
1481.032448858434
 20
1441.112839653254
 30
0.0
 40
12.5
  0
LINE
  5
17AC21874A38E5
330
17AC21874A2FC9
100
AcDbEntity
  8
0
100
AcDbLine
 10
1516.539740104182
 20
1416.680016931771
 30
0.0
 11
1516.539740104182
 21
1441.428642607685
 31
0.0
  0
LINE
  5
17AC21874A38E6
330
17AC21874A2FC9
100
AcDbEntity
  8
0
100
AcDbLine
 10
1506.539740104182
 20
1406.680016931771
 30
0.0
 11
1516.539740104182
 21
1416.680016931771
 31
0.0
  0
LINE
  5
17AC21874A38E7
330
17AC21874A2FC9
100
AcDbEntity
  8
0
100
AcDbLine
 10
1516.438094616725
 20
1441.100829559464
 30
0.0
 11
1516.438094616725
 21
1466.832905444153
 31
0.0
  0
LINE
  5
17AC21874A38E8
330
17AC21874A2FC9
100
AcDbEntity
  8
0
100
AcDbLine
 10
1506.438094616725
 20
1476.832905444153
 30
0.0
 11
1516.438094616725
 21
1466.832905444153
 31
0.0
  0
LINE
  5
17AC21874A38E9
330
17AC21874A2FC9
100
AcDbEntity
  8
0
100
AcDbLine
 10
1639.618741550852
 20
1296.141949993895
 30
0.0
 11
1616.081399832423
 21
1303.789695915177
 31
0.0
  0
LINE
  5
17AC21874A38EA
330
17AC21874A2FC9
100
AcDbEntity
  8
0
100
AcDbLine
 10
1646.039136770054
 20
1283.541214887194
 30
0.0
 11
1639.618741550852
 21
1296.141949993895
 31
0.0
  0
LINE
  5
17AC21874A38EB
330
17AC21874A2FC9
100
AcDbEntity
  8
0
100
AcDbLine
 10
1778.018798086657
 20
1356.132127035204
 30
0.0
 11
1762.893863370766
 21
1335.314440343945
 31
0.0
  0
LINE
  5
17AC21874A38EC
330
17AC21874A2FC9
100
AcDbEntity
  8
0
100
AcDbLine
 10
1765.106180791591
 20
1321.346417877271
 30
0.0
 11
1762.893863370766
 21
1335.314440343945
 31
0.0
  0
CIRCLE
  5
17AC21874A38ED
330
17AC21874A2FC9
100
AcDbEntity
  8
COSTRUZIONE
100
AcDbCircle
 10
1605.409389870944
 20
1612.303012586382
 30
0.0
 40
12.5
  0
LINE
  5
17AC21874A38EE
330
17AC21874A2FC9
100
AcDbEntity
  8
0
100
AcDbLine
 10
1593.14475102935
 20
1570.983414429635
 30
0.0
 11
1616.682092747778
 21
1578.631160350917
 31
0.0
  0
CIRCLE
  5
17AC21874A38EF
330
17AC21874A2FC9
100
AcDbEntity
  8
COSTRUZIONE
100
AcDbCircle
 10
1605.409389870944
 20
1612.303012586382
 30
0.0
 40
34.0
  0
LINE
  5
17AC21874A38F0
330
17AC21874A2FC9
100
AcDbEntity
  8
0
100
AcDbLine
 10
1580.544015922649
 20
1577.403809648838
 30
0.0
 11
1593.14475102935
 21
1570.983414429635
 31
0.0
  0
LINE
  5
17AC21874A38F1
330
17AC21874A2FC9
100
AcDbEntity
  8
0
100
AcDbLine
 10
1647.231967496252
 20
1599.178915006853
 30
0.0
 11
1640.81157227705
 21
1586.578179900152
 31
0.0
  0
LINE
  5
17AC21874A38F2
330
17AC21874A2FC9
100
AcDbEntity
  8
0
100
AcDbLine
 10
1616.338913829115
 20
1578.626531151237
 30
0.0
 11
1640.81157227705
 21
1586.578179900152
 31
0.0
  0
LINE
  5
17AC21874A38F3
330
17AC21874A2FC9
100
AcDbEntity
  8
0
100
AcDbLine
 10
1765.780570357154
 20
1559.778114191701
 30
0.0
 11
1763.56825293633
 21
1545.810091725026
 31
0.0
  0
LINE
  5
17AC21874A38F4
330
17AC21874A2FC9
100
AcDbEntity
  8
0
100
AcDbLine
 10
1763.56825293633
 20
1545.810091725026
 30
0.0
 11
1778.115130123139
 21
1525.788032965787
 31
0.0
  0
ARC
  5
17AC21874A38F5
330
17AC21874A2FC9
100
AcDbEntity
  8
0
100
AcDbCircle
 10
1661.032448858434
 20
1441.112839653254
 30
0.0
 40
365.0
100
AcDbArc
 50
329.4131325932101
 51
30.38386308900063
  0
ARC
  5
17AC21874A38F6
330
17AC21874A2FC9
100
AcDbEntity
  8
COSTRUZIONE
100
AcDbCircle
 10
1903.737547170918
 20
1264.777263965513
 30
0.0
 40
55.0
100
AcDbArc
 50
3.250078264550642
 51
105.1794655261709
  0
LINE
  5
17AC21874A38F7
330
17AC21874A2FC9
100
AcDbEntity
  8
0
100
AcDbLine
 10
1985.13376982175
 20
1248.200756131642
 30
0.0
 11
1806.258781138134
 21
1378.161042606768
 31
0.0
  0
CIRCLE
  5
17AC21874A38F8
330
17AC21874A2FC9
100
AcDbEntity
  8
COSTRUZIONE
100
AcDbCircle
 10
1903.949690419759
 20
1264.576319943049
 30
0.0
 40
30.0
  0
CIRCLE
  5
17AC21874A38F9
330
17AC21874A2FC9
100
AcDbEntity
  8
COSTRUZIONE
100
AcDbCircle
 10
1806.655507845925
 20
1335.311494240609
 30
0.0
 40
12.5
  0
LINE
  5
17AC21874A38FA
330
17AC21874A2FC9
100
AcDbEntity
  8
ASSE
100
AcDbLine
 10
1921.13141254998
 20
1252.139881041224
 30
0.0
 11
1886.343681791857
 21
1277.414646889801
 31
0.0
  0
LINE
  5
17AC21874A38FB
330
17AC21874A2FC9
100
AcDbEntity
  8
0
100
AcDbLine
 10
1806.258781138134
 20
1378.161042606768
 30
0.0
 11
1792.290758671459
 21
1375.948725185943
 31
0.0
  0
LINE
  5
17AC21874A38FC
330
17AC21874A2FC9
100
AcDbEntity
  8
0
100
AcDbLine
 10
1985.13376982175
 20
1248.200756131642
 30
0.0
 11
1987.346087242576
 21
1234.232733664968
 31
0.0
  0
ARC
  5
17AC21874A38FD
330
17AC21874A2FC9
100
AcDbEntity
  8
COSTRUZIONE
100
AcDbCircle
 10
1903.737547170918
 20
1617.448415340996
 30
0.0
 40
55.0
100
AcDbArc
 50
256.5007444195072
 51
355.566300475041
  0
LINE
  5
17AC21874A38FE
330
17AC21874A2FC9
100
AcDbEntity
  8
0
100
AcDbLine
 10
1807.097636557206
 20
1503.082980899182
 30
0.0
 11
1985.890392314068
 21
1632.983521655819
 31
0.0
  0
LINE
  5
17AC21874A38FF
330
17AC21874A2FC9
100
AcDbEntity
  8
0
100
AcDbLine
 10
1988.102709734894
 20
1646.951544122492
 30
0.0
 11
1958.623581507447
 21
1687.526083246001
 31
0.0
  0
LINE
  5
17AC21874A3900
330
17AC21874A2FC9
100
AcDbEntity
  8
ASSE
100
AcDbLine
 10
1921.13141254998
 20
1630.085798265285
 30
0.0
 11
1886.343681791857
 21
1604.811032416709
 31
0.0
  0
CIRCLE
  5
17AC21874A3901
330
17AC21874A2FC9
100
AcDbEntity
  8
COSTRUZIONE
100
AcDbCircle
 10
1903.994212162027
 20
1617.588080442335
 30
0.0
 40
30.0
  0
CIRCLE
  5
17AC21874A3902
330
17AC21874A2FC9
100
AcDbEntity
  8
COSTRUZIONE
100
AcDbCircle
 10
1806.655507845925
 20
1546.9141850659
 30
0.0
 40
12.5
  0
LINE
  5
17AC21874A3903
330
17AC21874A2FC9
100
AcDbEntity
  8
0
100
AcDbLine
 10
1807.097636557206
 20
1503.082980899182
 30
0.0
 11
1793.129614090531
 21
1505.295298320007
 31
0.0
  0
ARC
  5
17AC21874A3904
330
17AC21874A2FC9
100
AcDbEntity
  8
COSTRUZIONE
100
AcDbCircle
 10
1903.737547170918
 20
1617.448415340996
 30
0.0
 40
55.0
100
AcDbArc
 50
75.25007826453002
 51
177.1794655261869
  0
LINE
  5
17AC21874A3905
330
17AC21874A2FC9
100
AcDbEntity
  8
0
100
AcDbLine
 10
1944.655559040773
 20
1689.738400666826
 30
0.0
 11
1958.623581507447
 21
1687.526083246001
 31
0.0
  0
LINE
  5
17AC21874A3906
330
17AC21874A2FC9
100
AcDbEntity
  8
0
100
AcDbLine
 10
1988.102709734894
 20
1646.951544122492
 30
0.0
 11
1985.890392314068
 21
1632.983521655819
 31
0.0
  0
LINE
  5
17AC21874A3907
330
17AC21874A2FC9
100
AcDbEntity
  8
0
100
AcDbLine
 10
1566.338476632687
 20
1815.782800327284
 30
0.0
 11
1518.640245201962
 21
1800.284705459966
 31
0.0
  0
LINE
  5
17AC21874A3908
330
17AC21874A2FC9
100
AcDbEntity
  8
0
100
AcDbLine
 10
1512.21984998276
 20
1787.683970353265
 30
0.0
 11
1518.640245201962
 21
1800.284705459966
 31
0.0
  0
LINE
  5
17AC21874A3909
330
17AC21874A2FC9
100
AcDbEntity
  8
0
100
AcDbLine
 10
1566.338476632687
 20
1815.782800327284
 30
0.0
 11
1578.939211739388
 21
1809.362405108081
 31
0.0
  0
ARC
  5
17AC21874A390A
330
17AC21874A2FC9
100
AcDbEntity
  8
0
100
AcDbCircle
 10
1661.032448858434
 20
1441.112839653254
 30
0.0
 40
365.0
100
AcDbArc
 50
280.9414672135261
 51
284.4313513374942
  0
LINE
  5
17AC21874A390B
330
17AC21874A2FC9
100
AcDbEntity
  8
0
100
AcDbLine
 10
1748.007280970752
 20
1216.736251390097
 30
0.0
 11
1775.044751618985
 21
1178.870693756892
 31
0.0
  0
ARC
  5
17AC21874A390D
330
17AC21874A2FC9
100
AcDbEntity
  8
0
100
AcDbCircle
 10
1939.819427117294
 20
1044.539330186587
 30
0.0
 40
192.4213936920997
100
AcDbArc
 50
152.8267888829139
 51
252.0569202969154
  0
ARC
  5
17AC21874A390E
330
17AC21874A2FC9
100
AcDbEntity
  8
0
100
AcDbCircle
 10
1787.385011667717
 20
1161.96906124715
 30
0.0
 40
35.0
100
AcDbArc
 50
237.6087436457137
 51
47.17265317131257
  0
ARC
  5
17AC21874A390F
330
17AC21874A2FC9
100
AcDbEntity
  8
0
100
AcDbCircle
 10
1939.819427117294
 20
1044.539330186587
 30
0.0
 40
192.4213936920997
100
AcDbArc
 50
104.9413303227268
 51
131.9546079341122
  0
ARC
  5
17AC21874A3910
330
17AC21874A2FC9
100
AcDbEntity
  8
0
100
AcDbCircle
 10
2118.240005024337
 20
1116.59548974097
 30
0.0
 40
35.0
100
AcDbArc
 50
117.2096432497802
 51
286.773552775379
  0
ARC
  5
17AC21874A3911
330
17AC21874A2FC9
100
AcDbEntity
  8
0
100
AcDbCircle
 10
1914.680123760844
 20
853.7671933920272
 30
0.0
 40
35.0
100
AcDbArc
 50
357.7110560085167
 51
167.2749655341157
  0
ARC
  5
17AC21874A3912
330
17AC21874A2FC9
100
AcDbEntity
  8
0
100
AcDbCircle
 10
1939.819427117294
 20
1044.539330186587
 30
0.0
 40
192.4213936920997
100
AcDbArc
 50
272.9291012457172
 51
11.55550753817878
  0
ARC
  5
17AC21874A3913
330
17AC21874A2FC9
100
AcDbEntity
  8
0
100
AcDbCircle
 10
1939.819427117294
 20
1044.539330186587
 30
0.0
 40
192.4213936920997
100
AcDbArc
 50
32.4276884869805
 51
76.31082241371878
  0
ARC
  5
17AC21874A3915
330
17AC21874A2FC9
100
AcDbEntity
  8
0
100
AcDbCircle
 10
1532.504132552259
 20
1161.135917556998
 30
0.0
 40
35.0
100
AcDbArc
 50
131.4757940282327
 51
252.0000000000005
  0
ENDSEC
  0
SECTION
  2
OBJECTS
  0
DICTIONARY
  5
17AC21874A2FBD
330
0
100
AcDbDictionary
281
     1
  3
ACAD_COLOR
350
17AC21874A391A
  3
ACAD_GROUP
350
17AC21874A2FBE
  3
ACAD_LAYOUT
350
17AC21874A353B
  3
ACAD_MATERIAL
350
17AC21874A3919
  3
ACAD_MLINESTYLE
350
17AC21874A2FBF
  3
ACAD_PLOTSETTINGS
350
17AC21874A353C
  3
ACAD_PLOTSTYLENAME
350
17AC21874A3539
  3
ACAD_TABLESTYLE
350
17AC21874A391B
  3
ACDBHEADERROUNDTRIPXREC
350
17AC21874A39D3
  3
AcDbVariableDictionary
350
17AC21874A39CE
  3
AcmDictionary
350
17AC21874A397C
  3
AMG
350
17AC21874A3924
  3
AMGSNAPSETTINGS
350
17AC21874A39BC
  0
DICTIONARY
  5
17AC21874A39C5
330
17AC21874A2FB3
100
AcDbDictionary
280
     1
281
     1
  3
AMLAYER_GROUPCOLORS
360
17AC21874A39C6
  0
DICTIONARY
  5
17AC21874A391A
102
{ACAD_REACTORS
330
17AC21874A2FBD
102
}
330
17AC21874A2FBD
100
AcDbDictionary
281
     1
  0
DICTIONARY
  5
17AC21874A2FBE
102
{ACAD_REACTORS
330
17AC21874A2FBD
102
}
330
17AC21874A2FBD
100
AcDbDictionary
281
     1
  0
DICTIONARY
  5
17AC21874A353B
102
{ACAD_REACTORS
330
17AC21874A2FBD
102
}
330
17AC21874A2FBD
100
AcDbDictionary
281
     1
  3
Layout1
350
17AC21874A353E
  3
Model
350
17AC21874A353D
  0
DICTIONARY
  5
17AC21874A3919
102
{ACAD_REACTORS
330
17AC21874A2FBD
102
}
330
17AC21874A2FBD
100
AcDbDictionary
281
     1
  0
DICTIONARY
  5
17AC21874A2FBF
102
{ACAD_REACTORS
330
17AC21874A2FBD
102
}
330
17AC21874A2FBD
100
AcDbDictionary
281
     1
  3
STANDARD
350
17AC21874A2FCC
  0
DICTIONARY
  5
17AC21874A353C
102
{ACAD_REACTORS
330
17AC21874A2FBD
102
}
330
17AC21874A2FBD
100
AcDbDictionary
281
     1
  0
ACDBDICTIONARYWDFLT
  5
17AC21874A3539
102
{ACAD_REACTORS
330
17AC21874A2FBD
102
}
330
17AC21874A2FBD
100
AcDbDictionary
281
     1
  3
Normal
350
17AC21874A353A
100
AcDbDictionaryWithDefault
340
17AC21874A353A
  0
DICTIONARY
  5
17AC21874A391B
102
{ACAD_REACTORS
330
17AC21874A2FBD
102
}
330
17AC21874A2FBD
100
AcDbDictionary
281
     1
  3
Standard
350
17AC21874A391C
  0
DICTIONARY
  5
17AC21874A39D3
102
{ACAD_REACTORS
330
17AC21874A2FBD
102
}
330
17AC21874A2FBD
100
AcDbDictionary
281
     1
  0
DICTIONARY
  5
17AC21874A39CE
102
{ACAD_REACTORS
330
17AC21874A2FBD
102
}
330
17AC21874A2FBD
100
AcDbDictionary
281
     1
  3
CTABLESTYLE
350
17AC21874A39CF
  3
DIMASSOC
350
17AC21874A39D0
  3
PROJECTNAME
350
17AC21874A39D1
  0
DICTIONARY
  5
17AC21874A397C
102
{ACAD_REACTORS
330
17AC21874A2FBD
102
}
330
17AC21874A2FBD
100
AcDbDictionary
281
     1
  3
AcmStdDictionary
350
17AC21874A3989
  3
AMDTSECTSYM_ARROWCOLOR
350
17AC21874A39A7
  0
DICTIONARY
  5
17AC21874A3924
102
{ACAD_REACTORS
330
17AC21874A2FBD
102
}
330
17AC21874A2FBD
100
AcDbDictionary
281
     1
  0
DICTIONARY
  5
17AC21874A39BC
102
{ACAD_REACTORS
330
17AC21874A2FBD
102
}
330
17AC21874A2FBD
100
AcDbDictionary
281
     1
  0
DICTIONARY
  5
17AC21874A39C6
102
{ACAD_REACTORS
330
17AC21874A39C5
102
}
330
17AC21874A39C5
100
AcDbDictionary
280
     1
281
     1
  0
LAYOUT
  5
17AC21874A353E
102
{ACAD_XDICTIONARY
360
17AC21874A39D6
102
}
102
{ACAD_REACTORS
330
17AC21874A353B
102
}
330
17AC21874A353B
100
AcDbPlotSettings
  1

  2
Canon Bubble-Jet BJC-4200
  4

  6

 40
0.0
 41
0.0
 42
0.0
 43
0.0
 44
0.0
 45
0.0
 46
0.0
 47
0.0
 48
0.0
 49
0.0
140
0.0
141
0.0
142
1.0
143
1.0
 70
   688
 72
     0
 73
     0
 74
     5
  7
monochrome.ctb
 75
    16
147
1.0
148
0.0
149
0.0
100
AcDbLayout
  1
Layout1
 70
     0
 71
     1
 10
0.0
 20
0.0
 11
12.0
 21
9.0
 12
0.0
 22
0.0
 32
0.0
 14
1.000000000000000E+20
 24
1.000000000000000E+20
 34
1.000000000000000E+20
 15
-1.000000000000000E+20
 25
-1.000000000000000E+20
 35
-1.000000000000000E+20
146
0.0
 13
0.0
 23
0.0
 33
0.0
 16
1.0
 26
0.0
 36
0.0
 17
0.0
 27
1.0
 37
0.0
 76
     0
330
17AC21874A2FC6
  0
LAYOUT
  5
17AC21874A353D
102
{ACAD_XDICTIONARY
360
17AC21874A39D4
102
}
102
{ACAD_REACTORS
330
17AC21874A353B
102
}
330
17AC21874A353B
100
AcDbPlotSettings
  1

  2
OKI B4200(PCL)
  4
A4
  6

 40
5.027083396911621
 41
5.619736671447753
 42
5.365753173828125
 43
5.027069091796875
 44
209.9733276367187
 45
296.9259948730469
 46
0.0
 47
0.0
 48
-537.9999999999995
 49
-260.3999999999999
140
3562.000000000001
141
2609.6
142
1.0
143
14.38016303432789
 70
 11952
 72
     1
 73
     1
 74
     4
  7
monochrome.ctb
 75
     0
147
0.0695402407895397
148
537.9999999999995
149
260.3999999999999
100
AcDbLayout
  1
Model
 70
     1
 71
     0
 10
0.0
 20
0.0
 11
12.0
 21
9.0
 12
0.0
 22
0.0
 32
0.0
 14
0.0
 24
0.0
 34
0.0
 15
0.0
 25
0.0
 35
0.0
146
0.0
 13
0.0
 23
0.0
 33
0.0
 16
1.0
 26
0.0
 36
0.0
 17
0.0
 27
1.0
 37
0.0
 76
     0
330
17AC21874A2FC9
  0
MLINESTYLE
  5
17AC21874A2FCC
102
{ACAD_REACTORS
330
17AC21874A2FBF
102
}
330
17AC21874A2FBF
100
AcDbMlineStyle
  2
STANDARD
 70
     0
  3

 62
     0
 51
90.0
 52
90.0
 71
     2
 49
0.5
 62
   256
  6
BYLAYER
 49
-0.5
 62
   256
  6
BYLAYER
  0
ACDBPLACEHOLDER
  5
17AC21874A353A
102
{ACAD_REACTORS
330
17AC21874A3539
102
}
330
17AC21874A3539
  0
TABLESTYLE
  5
17AC21874A391C
102
{ACAD_REACTORS
330
17AC21874A391B
102
}
330
17AC21874A391B
100
AcDbTableStyle
  3
Standard
 70
     0
 71
     0
 40
0.06
 41
0.06
280
     0
281
     0
  7
STANDARD
140
0.18
170
     2
 62
     0
 63
     7
283
     0
274
    -2
284
     1
 64
     0
275
    -2
285
     1
 65
     0
276
    -2
286
     1
 66
     0
277
    -2
287
     1
 67
     0
278
    -2
288
     1
 68
     0
279
    -2
289
     1
 69
     0
  7
STANDARD
140
0.25
170
     5
 62
     0
 63
     7
283
     0
274
    -2
284
     1
 64
     0
275
    -2
285
     1
 65
     0
276
    -2
286
     1
 66
     0
277
    -2
287
     1
 67
     0
278
    -2
288
     1
 68
     0
279
    -2
289
     1
 69
     0
  7
STANDARD
140
0.18
170
     5
 62
     0
 63
     7
283
     0
274
    -2
284
     1
 64
     0
275
    -2
285
     1
 65
     0
276
    -2
286
     1
 66
     0
277
    -2
287
     1
 67
     0
278
    -2
288
     1
 68
     0
279
    -2
289
     1
 69
     0
  0
DICTIONARYVAR
  5
17AC21874A39CF
102
{ACAD_REACTORS
330
17AC21874A39CE
102
}
330
17AC21874A39CE
100
DictionaryVariables
280
     0
  1
STANDARD
  0
DICTIONARYVAR
  5
17AC21874A39D0
102
{ACAD_REACTORS
330
17AC21874A39CE
102
}
330
17AC21874A39CE
100
DictionaryVariables
280
     0
  1
1
  0
DICTIONARYVAR
  5
17AC21874A39D1
102
{ACAD_REACTORS
330
17AC21874A39CE
102
}
330
17AC21874A39CE
100
DictionaryVariables
280
     0
  1

  0
DICTIONARY
  5
17AC21874A3989
102
{ACAD_REACTORS
330
17AC21874A397C
102
}
330
17AC21874A397C
100
AcDbDictionary
281
     1
  0
XRECORD
  5
17AC21874A39A7
102
{ACAD_REACTORS
330
17AC21874A397C
102
}
330
17AC21874A397C
100
AcDbXrecord
280
     1
 90
-1023410169
  0
DICTIONARY
  5
17AC21874A39D6
330
17AC21874A353E
100
AcDbDictionary
280
     1
281
     1
  3
ACAD_XREC_ROUNDTRIP
360
17AC21874A39D7
  0
DICTIONARY
  5
17AC21874A39D4
330
17AC21874A353D
100
AcDbDictionary
280
     1
281
     1
  3
ACAD_XREC_ROUNDTRIP
360
17AC21874A39D5
  0
XRECORD
  5
17AC21874A39D7
102
{ACAD_REACTORS
330
17AC21874A39D6
102
}
330
17AC21874A39D6
100
AcDbXrecord
280
     1
102
SHADEPLOT
 70
     0
102
SHADEPLOTRESLEVEL
 70
     2
102
SHADEPLOTCUSTOMDPI
 70
   300
  0
XRECORD
  5
17AC21874A39D5
102
{ACAD_REACTORS
330
17AC21874A39D4
102
}
330
17AC21874A39D4
100
AcDbXrecord
280
     1
102
SHADEPLOT
 70
     0
102
SHADEPLOTRESLEVEL
 70
     2
102
SHADEPLOTCUSTOMDPI
 70
   300
  0
ENDSEC
  0
EOF
