  0
SECTION
  2
HEADER
  9
$ACADVER
  1
AC1015
  9
$ACADMAINTVER
 70
    20
  9
$DWGCODEPAGE
  3
ANSI_1252
  9
$INSBASE
 10
229.0
 20
50.0
 30
0.0
  9
$EXTMIN
 10
-629.0
 20
-260.3999999999999
 30
0.0
  9
$EXTMAX
 10
3562.000000000001
 20
2609.6
 30
0.0
  9
$LIMMIN
 10
0.0
 20
0.0
  9
$LIMMAX
 10
4200.0
 20
2970.0
  9
$ORTHOMODE
 70
     1
  9
$REGENMODE
 70
     1
  9
$FILLMODE
 70
     1
  9
$QTEXTMODE
 70
     0
  9
$MIRRTEXT
 70
     1
  9
$LTSCALE
 40
10.0
  9
$ATTMODE
 70
     1
  9
$TEXTSIZE
 40
3.0
  9
$TRACEWID
 40
0.05
  9
$TEXTSTYLE
  7
ROMANS
  9
$CLAYER
  8
AM_4
  9
$CELTYPE
  6
BYLAYER
  9
$CECOLOR
 62
   256
  9
$CELTSCALE
 40
1.0
  9
$DISPSILH
 70
     0
  9
$DIMSCALE
 40
10.0
  9
$DIMASZ
 40
3.0
  9
$DIMEXO
 40
2.0
  9
$DIMDLI
 40
10.0
  9
$DIMRND
 40
0.0
  9
$DIMDLE
 40
0.0
  9
$DIMEXE
 40
2.0
  9
$DIMTP
 40
0.1
  9
$DIMTM
 40
0.15
  9
$DIMTXT
 40
3.0
  9
$DIMCEN
 40
0.5
  9
$DIMTSZ
 40
0.0
  9
$DIMTOL
 70
     0
  9
$DIMLIM
 70
     0
  9
$DIMTIH
 70
     0
  9
$DIMTOH
 70
     0
  9
$DIMSE1
 70
     0
  9
$DIMSE2
 70
     0
  9
$DIMTAD
 70
     1
  9
$DIMZIN
 70
     8
  9
$DIMBLK
  1

  9
$DIMASO
 70
     1
  9
$DIMSHO
 70
     1
  9
$DIMPOST
  1

  9
$DIMAPOST
  1

  9
$DIMALT
 70
     0
  9
$DIMALTD
 70
     2
  9
$DIMALTF
 40
25.4
  9
$DIMLFAC
 40
1.0
  9
$DIMTOFL
 70
     1
  9
$DIMTVP
 40
0.0
  9
$DIMTIX
 70
     0
  9
$DIMSOXD
 70
     0
  9
$DIMSAH
 70
     0
  9
$DIMBLK1
  1

  9
$DIMBLK2
  1

  9
$DIMSTYLE
  2
BASE
  9
$DIMCLRD
 70
   256
  9
$DIMCLRE
 70
   256
  9
$DIMCLRT
 70
   254
  9
$DIMTFAC
 40
0.6666666666666666
  9
$DIMGAP
 40
1.0
  9
$DIMJUST
 70
     0
  9
$DIMSD1
 70
     0
  9
$DIMSD2
 70
     0
  9
$DIMTOLJ
 70
     1
  9
$DIMTZIN
 70
     0
  9
$DIMALTZ
 70
     0
  9
$DIMALTTZ
 70
     0
  9
$DIMUPT
 70
     0
  9
$DIMDEC
 70
     4
  9
$DIMTDEC
 70
     4
  9
$DIMALTU
 70
     2
  9
$DIMALTTD
 70
     2
  9
$DIMTXSTY
  7
ROMANS
  9
$DIMAUNIT
 70
     0
  9
$DIMADEC
 70
     0
  9
$DIMALTRND
 40
0.0
  9
$DIMAZIN
 70
     0
  9
$DIMDSEP
 70
    46
  9
$DIMATFIT
 70
     3
  9
$DIMFRAC
 70
     0
  9
$DIMLDRBLK
  1

  9
$DIMLUNIT
 70
     2
  9
$DIMLWD
 70
    -2
  9
$DIMLWE
 70
    -2
  9
$DIMTMOVE
 70
     2
  9
$LUNITS
 70
     2
  9
$LUPREC
 70
     2
  9
$SKETCHINC
 40
0.1
  9
$FILLETRAD
 40
0.0
  9
$AUNITS
 70
     1
  9
$AUPREC
 70
     3
  9
$MENU
  1
C:\promecad\acad
  9
$ELEVATION
 40
0.0
  9
$PELEVATION
 40
0.0
  9
$THICKNESS
 40
0.0
  9
$LIMCHECK
 70
     0
  9
$CHAMFERA
 40
10.0
  9
$CHAMFERB
 40
10.0
  9
$CHAMFERC
 40
0.0
  9
$CHAMFERD
 40
0.0
  9
$SKPOLY
 70
     0
  9
$TDCREATE
 40
2450905.504577257
  9
$TDUCREATE
 40
2450905.421243924
  9
$TDUPDATE
 40
2453830.614166134
  9
$TDUUPDATE
 40
2453830.530832801
  9
$TDINDWG
 40
0.8569197106
  9
$TDUSRTIMER
 40
0.8569197106
  9
$USRTIMER
 70
     1
  9
$ANGBASE
 50
0.0
  9
$ANGDIR
 70
     0
  9
$PDMODE
 70
     0
  9
$PDSIZE
 40
0.0
  9
$PLINEWID
 40
0.0
  9
$SPLFRAME
 70
     0
  9
$SPLINETYPE
 70
     6
  9
$SPLINESEGS
 70
     8
  9
$HANDSEED
  5
17AC21874A3899
  9
$SURFTAB1
 70
     6
  9
$SURFTAB2
 70
     6
  9
$SURFTYPE
 70
     6
  9
$SURFU
 70
     6
  9
$SURFV
 70
     6
  9
$UCSBASE
  2

  9
$UCSNAME
  2

  9
$UCSORG
 10
0.0
 20
0.0
 30
0.0
  9
$UCSXDIR
 10
1.0
 20
0.0
 30
0.0
  9
$UCSYDIR
 10
0.0
 20
1.0
 30
0.0
  9
$UCSORTHOREF
  2

  9
$UCSORTHOVIEW
 70
     0
  9
$UCSORGTOP
 10
0.0
 20
0.0
 30
0.0
  9
$UCSORGBOTTOM
 10
0.0
 20
0.0
 30
0.0
  9
$UCSORGLEFT
 10
0.0
 20
0.0
 30
0.0
  9
$UCSORGRIGHT
 10
0.0
 20
0.0
 30
0.0
  9
$UCSORGFRONT
 10
0.0
 20
0.0
 30
0.0
  9
$UCSORGBACK
 10
0.0
 20
0.0
 30
0.0
  9
$PUCSBASE
  2

  9
$PUCSNAME
  2

  9
$PUCSORG
 10
0.0
 20
0.0
 30
0.0
  9
$PUCSXDIR
 10
1.0
 20
0.0
 30
0.0
  9
$PUCSYDIR
 10
0.0
 20
1.0
 30
0.0
  9
$PUCSORTHOREF
  2

  9
$PUCSORTHOVIEW
 70
     0
  9
$PUCSORGTOP
 10
0.0
 20
0.0
 30
0.0
  9
$PUCSORGBOTTOM
 10
0.0
 20
0.0
 30
0.0
  9
$PUCSORGLEFT
 10
0.0
 20
0.0
 30
0.0
  9
$PUCSORGRIGHT
 10
0.0
 20
0.0
 30
0.0
  9
$PUCSORGFRONT
 10
0.0
 20
0.0
 30
0.0
  9
$PUCSORGBACK
 10
0.0
 20
0.0
 30
0.0
  9
$USERI1
 70
    10
  9
$USERI2
 70
     1
  9
$USERI3
 70
     0
  9
$USERI4
 70
     2
  9
$USERI5
 70
     5
  9
$USERR1
 40
0.0
  9
$USERR2
 40
0.0
  9
$USERR3
 40
0.0
  9
$USERR4
 40
0.0
  9
$USERR5
 40
0.0
  9
$WORLDVIEW
 70
     1
  9
$SHADEDGE
 70
     3
  9
$SHADEDIF
 70
    70
  9
$TILEMODE
 70
     1
  9
$MAXACTVP
 70
    16
  9
$PINSBASE
 10
0.0
 20
0.0
 30
0.0
  9
$PLIMCHECK
 70
     0
  9
$PEXTMIN
 10
1.000000000000000E+20
 20
1.000000000000000E+20
 30
1.000000000000000E+20
  9
$PEXTMAX
 10
-1.000000000000000E+20
 20
-1.000000000000000E+20
 30
-1.000000000000000E+20
  9
$PLIMMIN
 10
0.0
 20
0.0
  9
$PLIMMAX
 10
12.0
 20
9.0
  9
$UNITMODE
 70
     0
  9
$VISRETAIN
 70
     0
  9
$PLINEGEN
 70
     0
  9
$PSLTSCALE
 70
     0
  9
$TREEDEPTH
 70
  3020
  9
$CMLSTYLE
  2
STANDARD
  9
$CMLJUST
 70
     0
  9
$CMLSCALE
 40
1.0
  9
$PROXYGRAPHICS
 70
     1
  9
$MEASUREMENT
 70
     0
  9
$CELWEIGHT
370
    -1
  9
$ENDCAPS
280
     0
  9
$JOINSTYLE
280
     0
  9
$LWDISPLAY
290
     0
  9
$INSUNITS
 70
     0
  9
$HYPERLINKBASE
  1

  9
$STYLESHEET
  1
monochrome.ctb
  9
$XEDIT
290
     1
  9
$CEPSNTYPE
380
     0
  9
$PSTYLEMODE
290
     1
  9
$FINGERPRINTGUID
  2
{62E72084-4E0E-4302-AA3E-2886FD50E840}
  9
$VERSIONGUID
  2
{4570CCF1-1405-41F9-9910-9974FB0824C5}
  9
$EXTNAMES
290
     1
  9
$PSVPSCALE
 40
0.0
  9
$OLESTARTUP
290
     0
  0
ENDSEC
  0
SECTION
  2
CLASSES
  0
CLASS
  1
ACDBDICTIONARYWDFLT
  2
AcDbDictionaryWithDefault
  3
ObjectDBX Classes
 90
        0
280
     0
281
     0
  0
CLASS
  1
ACDBPLACEHOLDER
  2
AcDbPlaceHolder
  3
ObjectDBX Classes
 90
        0
280
     0
281
     0
  0
CLASS
  1
LAYOUT
  2
AcDbLayout
  3
ObjectDBX Classes
 90
        0
280
     0
281
     0
  0
CLASS
  1
TABLESTYLE
  2
AcDbTableStyle
  3
ObjectDBX Classes
 90
     2047
280
     0
281
     0
  0
CLASS
  1
ACME_DOCUMENT
  2
AcMeDbDoc
  3
AcMeServices
 90
        0
280
     0
281
     0
  0
CLASS
  1
AMGSETTINGSOBJ
  2
AmgSettingsObj
  3
"AcadM|Product Description: AutoCAD Mechanical 2000|Company: Autodesk"
 90
        0
280
     0
281
     0
  0
CLASS
  1
ACMESCOPE
  2
AcMeScope
  3
AcMeServices
 90
        0
280
     0
281
     0
  0
CLASS
  1
ACMECOMMANDHISTORY
  2
AcMeCommandHistory
  3
AcMeServices
 90
        0
280
     0
281
     0
  0
CLASS
  1
ACIMSYSVARMAN
  2
AcImSysVarManager
  3
AcMeServices
 90
        0
280
     0
281
     0
  0
CLASS
  1
ACIMINTSYSVAR
  2
AcImIntSysVar
  3
AcMeServices
 90
        0
280
     0
281
     0
  0
CLASS
  1
ACMEDRAWINGMAN
  2
AcMeDrawingMan
  3
AcMeServices
 90
        0
280
     0
281
     0
  0
CLASS
  1
ACMEVIEW
  2
AcMeView
  3
AcMeServices
 90
        0
280
     0
281
     0
  0
CLASS
  1
ACDBENTITYCACHE
  2
AcMeEntityCache
  3
AcMeServices
 90
        0
280
     0
281
     0
  0
CLASS
  1
GSMANAGER
  2
AcMeGSManager
  3
AcMeServices
 90
        0
280
     0
281
     0
  0
CLASS
  1
AMDTINTERNALREACTOR
  2
AmdtInternalReactor
  3
AcMeServices
 90
        0
280
     0
281
     0
  0
CLASS
  1
ACMESTATEMGR
  2
AcMeStateMgr
  3
AcMeServices
 90
        0
280
     0
281
     0
  0
CLASS
  1
ACGREFMASTER
  2
AcGrefMaster
  3
AcAttribServices
 90
        0
280
     0
281
     0
  0
CLASS
  1
AM_DRAWING_MGR
  2
AcDmDwgMgr
  3
AcMechDwgViewMgmt
 90
        0
280
     0
281
     0
  0
CLASS
  1
AM_DWG_DOCUMENT
  2
AcDmDwgDocument
  3
AcMechDwgViewMgmt
 90
        0
280
     0
281
     0
  0
CLASS
  1
AM_DWG_SHEET
  2
AcDmSheet
  3
AcMechDwgViewMgmt
 90
        0
280
     0
281
     0
  0
CLASS
  1
AM_VIEWDIMPARMAP
  2
AcDmViewDimParMap
  3
AcMechDwgViewMgmt
 90
        0
280
     0
281
     0
  0
CLASS
  1
ACIMREALSYSVAR
  2
AcImRealSysVar
  3
AcMeServices
 90
        0
280
     0
281
     0
  0
CLASS
  1
AM_DWGMGR_NAME
  2
AcDmDwgMgrName
  3
AcMechDwgViewMgmt
 90
        0
280
     0
281
     0
  0
CLASS
  1
ACME_DATABASE
  2
AcMeDbDatabase
  3
AcMeServices
 90
        0
280
     0
281
     0
  0
CLASS
  1
ACRFINSADJUSTERMGR
  2
AcRfInsAdjusterMgr
  3
AcMeServices
 90
        0
280
     0
281
     0
  0
CLASS
  1
ACGREFACADMASTER
  2
AcGrefacadMaster
  3
AcGrefServices
 90
        0
280
     0
281
     0
  0
CLASS
  1
AMDTMENUSTATEMGR
  2
AmdtMenuStateMgr
  3
McadcomServices
 90
        0
280
     0
281
     0
  0
CLASS
  1
AMDTMCOMMENUSTATE
  2
AmdtMcomMenuState
  3
McadcomServices
 90
        0
280
     0
281
     0
  0
CLASS
  1
AMIMASTER
  2
AmiMaster
  3
AmiServices
 90
        0
280
     0
281
     0
  0
CLASS
  1
MAPIAMMOUDLE
  2
MApiAmModule
  3
MApiAmServices
 90
        0
280
     0
281
     0
  0
CLASS
  1
AMDTADMENUSTATE
  2
AmdtAdMenuState
  3
DesignerServices
 90
        0
280
     0
281
     0
  0
CLASS
  1
ADAPPL
  2
AcAdAppl
  3
DesignerServices
 90
        0
280
     0
281
     0
  0
CLASS
  1
DEPMGR
  2
AcAdDepMgr
  3
DesignerServices
 90
        0
280
     0
281
     0
  0
CLASS
  1
PARAMMGR
  2
AcAdParamMgr
  3
DesignerServices
 90
        0
280
     0
281
     0
  0
CLASS
  1
PARAMSCOPE
  2
AcAdParamScope
  3
DesignerServices
 90
        0
280
     0
281
     0
  0
CLASS
  1
NAMEDAPPL
  2
AcAdNamedAppl
  3
DesignerServices
 90
        0
280
     0
281
     0
  0
CLASS
  1
AMDTDMMENUSTATE
  2
AmdtDmMenuState
  3
AcMechDwgViewMgmt
 90
        0
280
     0
281
     0
  0
CLASS
  1
AMDTAMMENUSTATE
  2
AmdtAmMenuState
  3
DesignerAssemblies
 90
        0
280
     0
281
     0
  0
CLASS
  1
ACIMSTRSYSVAR
  2
AcImStrSysVar
  3
AcMeServices
 90
        0
280
     0
281
     0
  0
CLASS
  1
ACAMPROJECT
  2
AcAmProject
  3
DesignerAssemblies
 90
        0
280
     0
281
     0
  0
CLASS
  1
ACAMGRCOMPDEF
  2
AcAmGrCompDef
  3
DesignerAssemblies
 90
        0
280
     0
281
     0
  0
CLASS
  1
ACCMCONTEXT
  2
AcCmContext
  3
DesignerAssemblies
 90
        0
280
     0
281
     0
  0
CLASS
  1
ACAMCOMPDEF
  2
AcAmCompDef
  3
DesignerAssemblies
 90
        0
280
     0
281
     0
  0
CLASS
  1
ACAMCOMPDEFMGR
  2
AcAmCompDefMgr
  3
DesignerAssemblies
 90
        0
280
     0
281
     0
  0
CLASS
  1
AMCONTEXTMGR
  2
AcAmContextMgr
  3
DesignerAssemblies
 90
        0
280
     0
281
     0
  0
CLASS
  1
ACAMCONTEXTMODELER
  2
AcAmContextModeler
  3
DesignerAssemblies
 90
        0
280
     0
281
     0
  0
CLASS
  1
ACMDATADICTIONARY
  2
AcmDataDictionary
  3
"AcmSymBB|Product Description: AutoCAD Mechanical 2004 DX|Company: Autodesk"
 90
        0
280
     0
281
     0
  0
CLASS
  1
CATALOGSTATE
  2
AcAmCatalogState
  3
DesignerAssemblies
 90
        0
280
     0
281
     0
  0
CLASS
  1
ACAMGRCOMPDEFSET
  2
AcAmGrCompDefSet
  3
DesignerAssemblies
 90
        0
280
     0
281
     0
  0
CLASS
  1
AMDTBROWSERDBTAB
  2
AmdtBrowserDbTab
  3
McadcomServices
 90
        0
280
     0
281
     0
  0
CLASS
  1
CBROWSERAPPOBJECT
  2
CBrowserAppObject
  3
McadcomServices
 90
        0
280
     0
281
     0
  0
CLASS
  1
DM_PLACEHOLDER
  2
AcDmSelsetPlaceholder
  3
AcMechDwgViewMgmt
 90
        0
280
     0
281
     0
  0
CLASS
  1
ACMSTANDARDANSI
  2
AcmStandardANSI
  3
"Amdt_StdImp|Product Description: AutoCAD Mechanical 2004 DX|Company: Autodesk"
 90
        0
280
     0
281
     0
  0
CLASS
  1
AMGOBJPROPCFG
  2
AmgObjPropCfg
  3
"AmgLay|Product Description: AutoCAD Mechanical 2000|Company: Autodesk"
 90
        1
280
     0
281
     0
  0
CLASS
  1
ACMSURFSTANDARDANSI
  2
AcmSurfTextStdANSI
  3
"Amdt_StdImp|Product Description: AutoCAD Mechanical 2004 DX|Company: Autodesk"
 90
        0
280
     0
281
     0
  0
CLASS
  1
ACMFCFSTANDARDANSI
  2
AcmFCFStdANSI
  3
"Amdt_StdImp|Product Description: AutoCAD Mechanical 2004 DX|Company: Autodesk"
 90
        0
280
     0
281
     0
  0
CLASS
  1
ACMWELDSTANDARDANSI
  2
AcmWeldingStdANSI
  3
"Amdt_StdImp|Product Description: AutoCAD Mechanical 2004 DX|Company: Autodesk"
 90
        0
280
     0
281
     0
  0
CLASS
  1
ACMIDSTANDARDANSI
  2
AcmIdStdANSI
  3
"Amdt_StdImp|Product Description: AutoCAD Mechanical 2004 DX|Company: Autodesk"
 90
        0
280
     0
281
     0
  0
CLASS
  1
ACMDATUMSTANDARDANSI
  2
AcmDatumStdANSI
  3
"Amdt_StdImp|Product Description: AutoCAD Mechanical 2004 DX|Company: Autodesk"
 90
        0
280
     0
281
     0
  0
CLASS
  1
ACMBOMSTANDARDANSI
  2
AcmBOMStdANSI
  3
"Amdt_StdImp|Product Description: AutoCAD Mechanical 2004 DX|Company: Autodesk"
 90
        0
280
     0
281
     0
  0
CLASS
  1
ACMDETAILSTANDARDANSI
  2
AmdtDetailSymStdANSI
  3
"Amdt_StdImp|Product Description: AutoCAD Mechanical 2004 DX|Company: Autodesk"
 90
        0
280
     0
281
     0
  0
CLASS
  1
ACMSECTIONSTANDARDANSI
  2
AmdtSectionSymStdANSI
  3
"Amdt_StdImp|Product Description: AutoCAD Mechanical 2004 DX|Company: Autodesk"
 90
        0
280
     0
281
     0
  0
CLASS
  1
ACMCENTERLINESTANDARDANSI
  2
AmdtCenterLineStdANSI
  3
"Amdt_StdImp|Product Description: AutoCAD Mechanical 2004 DX|Company: Autodesk"
 90
        0
280
     0
281
     0
  0
CLASS
  1
ACMTHREADLINESTANDARDANSI
  2
AmdtThreadLineStdANSI
  3
"Amdt_StdImp|Product Description: AutoCAD Mechanical 2004 DX|Company: Autodesk"
 90
        0
280
     0
281
     0
  0
CLASS
  1
ACMNOTESTANDARDANSI
  2
AmdtNoteStdANSI
  3
"Amdt_StdImp|Product Description: AutoCAD Mechanical 2004 DX|Company: Autodesk"
 90
        0
280
     0
281
     0
  0
CLASS
  1
AMDTNOTETEMPLATEDB
  2
AmdtNoteTemplateDB
  3
AMDT_STDIMP_MODULE_NAME
 90
        0
280
     0
281
     0
  0
CLASS
  1
ACAMGLAYSTD
  2
AcAmgLayStd
  3
"AcAmgLayStd|Product Description: AutoCAD Mechanical 2000|Company: Autodesk"
 90
        0
280
     0
281
     0
  0
CLASS
  1
ACAMGDIMSTD
  2
AcAmgDimStd
  3
"AcAmgDimStd|Product Description: AutoCAD Mechanical 2000|Company: Autodesk"
 90
        0
280
     0
281
     0
  0
CLASS
  1
ACAMGHOLECHARTSTDANSI
  2
AcAmgHoleChartStdANSI
  3
ACMSYMBB_MODULE_NAME
 90
        0
280
     0
281
     0
  0
CLASS
  1
ACAMGTITLESTD
  2
AcAmgTitleStd
  3
"TITLEAPP"
 90
        0
280
     0
281
     0
  0
CLASS
  1
ACAMGFILTERDAT
  2
AcAmgFilterDat
  3
"AcadM|Product Description: AutoCAD Mechanical 2000|Company: Autodesk"
 90
        0
280
     0
281
     0
  0
CLASS
  1
DICTIONARYVAR
  2
AcDbDictionaryVar
  3
ObjectDBX Classes
 90
        0
280
     0
281
     0
  0
ENDSEC
  0
SECTION
  2
TABLES
  0
TABLE
  2
VPORT
  5
17AC21874A2FB9
330
0
100
AcDbSymbolTable
 70
     7
  0
VPORT
  5
17AC21874A3893
330
17AC21874A2FB9
100
AcDbSymbolTableRecord
100
AcDbViewportTableRecord
  2
*Active
 70
     0
 10
0.0
 20
0.0
 11
1.0
 21
1.0
 12
1477.3
 22
1200.1
 13
0.0
 23
0.0
 14
0.2
 24
0.2
 15
0.25
 25
0.25
 16
0.0
 26
0.0
 36
1.0
 17
0.0
 27
0.0
 37
0.0
 40
3232.600000000001
 41
1.516981132075471
 42
50.0
 43
0.0
 44
0.0
 50
0.0
 51
0.0
 71
     0
 72
   100
 73
     1
 74
     0
 75
     1
 76
     0
 77
     0
 78
     0
281
     0
 65
     1
110
0.0
120
0.0
130
0.0
111
1.0
121
0.0
131
0.0
112
0.0
122
1.0
132
0.0
 79
     0
146
0.0
  0
ENDTAB
  0
TABLE
  2
LTYPE
  5
17AC21874A2FB6
330
0
100
AcDbSymbolTable
 70
    22
  0
LTYPE
  5
17AC21874A2FC3
330
17AC21874A2FB6
100
AcDbSymbolTableRecord
100
AcDbLinetypeTableRecord
  2
BYBLOCK
 70
     0
  3

 72
    65
 73
     0
 40
0.0
  0
LTYPE
  5
17AC21874A2FC4
330
17AC21874A2FB6
100
AcDbSymbolTableRecord
100
AcDbLinetypeTableRecord
  2
BYLAYER
 70
     0
  3

 72
    65
 73
     0
 40
0.0
  0
LTYPE
  5
17AC21874A2FC5
330
17AC21874A2FB6
100
AcDbSymbolTableRecord
100
AcDbLinetypeTableRecord
  2
CONTINUOUS
 70
     0
  3
Solid line
 72
    65
 73
     0
 40
0.0
  0
LTYPE
  5
17AC21874A2FD5
330
17AC21874A2FB6
100
AcDbSymbolTableRecord
100
AcDbLinetypeTableRecord
  2
ASSI5
 70
     0
  3
- . - . - . -
 72
    65
 73
     4
 40
10.0
 49
5.0
 74
     0
 49
-2.5
 74
     0
 49
0.0
 74
     0
 49
-2.5
 74
     0
  0
LTYPE
  5
17AC21874A2FD6
330
17AC21874A2FB6
100
AcDbSymbolTableRecord
100
AcDbLinetypeTableRecord
  2
ASSI10
 70
     0
  3
- . - . - . -
 72
    65
 73
     4
 40
20.0
 49
10.0
 74
     0
 49
-5.0
 74
     0
 49
0.0
 74
     0
 49
-5.0
 74
     0
  0
LTYPE
  5
17AC21874A2FD7
330
17AC21874A2FB6
100
AcDbSymbolTableRecord
100
AcDbLinetypeTableRecord
  2
TRATTO
 70
     0
  3
- - - - - - - - -
 72
    65
 73
     2
 40
5.0
 49
2.5
 74
     0
 49
-2.5
 74
     0
  0
LTYPE
  5
17AC21874A2FD8
330
17AC21874A2FB6
100
AcDbSymbolTableRecord
100
AcDbLinetypeTableRecord
  2
TRATTINO
 70
     0
  3
- - - - - - - - -
 72
    65
 73
     2
 40
3.0
 49
2.0
 74
     0
 49
-1.0
 74
     0
  0
LTYPE
  5
17AC21874A2FD9
330
17AC21874A2FB6
100
AcDbSymbolTableRecord
100
AcDbLinetypeTableRecord
  2
TRATTI1
 70
     0
  3
- - - - - - - - - - - - - - - - - - - - - -
 72
    65
 73
     2
 40
4.0
 49
2.5
 74
     0
 49
-1.5
 74
     0
  0
LTYPE
  5
17AC21874A2FDA
330
17AC21874A2FB6
100
AcDbSymbolTableRecord
100
AcDbLinetypeTableRecord
  2
ASSI
 70
     0
  3
assi
 72
    65
 73
     4
 40
17.0
 49
8.0
 74
     0
 49
-4.0
 74
     0
 49
1.0
 74
     0
 49
-4.0
 74
     0
  0
LTYPE
  5
17AC21874A3818
330
17AC21874A2FB6
100
AcDbSymbolTableRecord
100
AcDbLinetypeTableRecord
  2
HIDDEN
 70
     0
  3
Nascosta __ __ __ __ __ __ __ __ __ __ __ __ __ __
 72
    65
 73
     2
 40
0.375
 49
0.25
 74
     0
 49
-0.125
 74
     0
  0
LTYPE
  5
17AC21874A3819
330
17AC21874A2FB6
100
AcDbSymbolTableRecord
100
AcDbLinetypeTableRecord
  2
PHANTOM2
 70
     0
  3
Linea-Lineette (.5x) ___ _ _ ___ _ _ ___ _ _ ___ _ _
 72
    65
 73
     6
 40
1.25
 49
0.625
 74
     0
 49
-0.125
 74
     0
 49
0.125
 74
     0
 49
-0.125
 74
     0
 49
0.125
 74
     0
 49
-0.125
 74
     0
  0
LTYPE
  5
17AC21874A381A
330
17AC21874A2FB6
100
AcDbSymbolTableRecord
100
AcDbLinetypeTableRecord
  2
CENTER
 70
     0
  3
Linea-Lineetta ____ _ ____ _ ____ _ ____ _ ____ _ ____
 72
    65
 73
     4
 40
2.0
 49
1.25
 74
     0
 49
-0.25
 74
     0
 49
0.25
 74
     0
 49
-0.25
 74
     0
  0
LTYPE
  5
17AC21874A384E
330
17AC21874A2FB6
100
AcDbSymbolTableRecord
100
AcDbLinetypeTableRecord
  2
AM_ISO02W050
 70
     0
  3
__ __ __ __ __ __ __ __ __ __ __ __ __ __ __
 72
    65
 73
     2
 40
7.5
 49
6.0
 74
     0
 49
-1.5
 74
     0
  0
LTYPE
  5
17AC21874A384F
330
17AC21874A2FB6
100
AcDbSymbolTableRecord
100
AcDbLinetypeTableRecord
  2
AM_ISO08W050
 70
     0
  3
____ . ____ . ____ . ____ . ____ . ____ . ____
 72
    65
 73
     4
 40
18.0
 49
12.0
 74
     0
 49
-1.5
 74
     0
 49
3.0
 74
     0
 49
-1.5
 74
     0
  0
LTYPE
  5
17AC21874A3850
330
17AC21874A2FB6
100
AcDbSymbolTableRecord
100
AcDbLinetypeTableRecord
  2
AM_ISO09W050
 70
     0
  3
_____ . . _____ . . _____ . . ____ .. ____
 72
    65
 73
     6
 40
22.5
 49
12.0
 74
     0
 49
-1.5
 74
     0
 49
3.0
 74
     0
 49
-1.5
 74
     0
 49
3.0
 74
     0
 49
-1.5
 74
     0
  0
LTYPE
  5
17AC21874A3851
330
17AC21874A2FB6
100
AcDbSymbolTableRecord
100
AcDbLinetypeTableRecord
  2
Amconstr
 70
     0
  3
_______________________
 72
    65
 73
     2
 40
9999.0
 49
9999.0
 74
     0
 49
0.0
 74
     0
  0
LTYPE
  5
17AC21874A3852
330
17AC21874A2FB6
100
AcDbSymbolTableRecord
100
AcDbLinetypeTableRecord
  2
AM_ISO08W050x2
 70
     0
  3
__ . __ . __ . __ . __ . __
 72
    65
 73
     4
 40
9.0
 49
6.0
 74
     0
 49
-0.75
 74
     0
 49
1.5
 74
     0
 49
-0.75
 74
     0
  0
LTYPE
  5
17AC21874A3853
330
17AC21874A2FB6
100
AcDbSymbolTableRecord
100
AcDbLinetypeTableRecord
  2
AM_ISO02W050x2
 70
     0
  3
 _ _ _ _ _ _ _ _ _ _ _ _
 72
    65
 73
     2
 40
3.75
 49
3.0
 74
     0
 49
-0.75
 74
     0
  0
LTYPE
  5
17AC21874A3856
330
17AC21874A2FB6
100
AcDbSymbolTableRecord
100
AcDbLinetypeTableRecord
  2
Amzigzag
 70
     0
  3
/\/-/\/-/\/-/\/-/\/-/\/
 72
    65
 73
     2
 40
11.0001
 49
0.0001
 74
     4
 75
   135
340
17AC21874A3855
 46
0.04
 50
0.0
 44
0.0
 45
0.0
 49
-11.0
 74
     0
  0
LTYPE
  5
17AC21874A3857
330
17AC21874A2FB6
100
AcDbSymbolTableRecord
100
AcDbLinetypeTableRecord
  2
CENTER2
 70
     0
  3
Center (.5x) ___ _ ___ _ ___ _ ___ _ ___ _ ___
 72
    65
 73
     4
 40
1.125
 49
0.75
 74
     0
 49
-0.125
 74
     0
 49
0.125
 74
     0
 49
-0.125
 74
     0
  0
LTYPE
  5
17AC21874A3858
330
17AC21874A2FB6
100
AcDbSymbolTableRecord
100
AcDbLinetypeTableRecord
  2
HIDDEN2
 70
     0
  3
Hidden (.5x) _ _ _ _ _ _ _ _ _ _ _ _ _ _ _ _ _
 72
    65
 73
     2
 40
0.1875
 49
0.125
 74
     0
 49
-0.0625
 74
     0
  0
LTYPE
  5
17AC21874A3859
330
17AC21874A2FB6
100
AcDbSymbolTableRecord
100
AcDbLinetypeTableRecord
  2
Amzigzag2
 70
     0
  3
/\/-/\/-/\/-/\/-/\/-/\/
 72
    65
 73
     2
 40
0.4401
 49
0.0001
 74
     4
 75
   135
340
17AC21874A3855
 46
0.0016
 50
0.0
 44
0.0
 45
0.0
 49
-0.4400000000000001
 74
     0
  0
LTYPE
  5
17AC21874A3867
330
17AC21874A2FB6
100
AcDbSymbolTableRecord
100
AcDbLinetypeTableRecord
  2
ACANSTGB
 70
     0
  3
__ . . __ . .
 72
    65
 73
     6
 40
0.35433070866
 49
0.15748031496
 74
     0
 49
-0.03937007874
 74
     0
 49
0.03937007874
 74
     0
 49
-0.03937007874
 74
     0
 49
0.03937007874
 74
     0
 49
-0.03937007874
 74
     0
  0
LTYPE
  5
17AC21874A3868
330
17AC21874A2FB6
100
AcDbSymbolTableRecord
100
AcDbLinetypeTableRecord
  2
ACANSTGL
 70
     0
  3
_ _ _ _ _
 72
    65
 73
     2
 40
0.11811023622
 49
0.07874015748
 74
     0
 49
-0.03937007874
 74
     0
  0
ENDTAB
  0
TABLE
  2
LAYER
  5
17AC21874A2FB3
102
{ACAD_XDICTIONARY
360
17AC21874A388B
102
}
330
0
100
AcDbSymbolTable
 70
    30
  0
LAYER
  5
17AC21874A2FC0
330
17AC21874A2FB3
100
AcDbSymbolTableRecord
100
AcDbLayerTableRecord
  2
0
 70
     0
 62
     7
  6
CONTINUOUS
370
    -3
390
17AC21874A353A
  0
LAYER
  5
17AC21874A2FE0
330
17AC21874A2FB3
100
AcDbSymbolTableRecord
100
AcDbLayerTableRecord
  2
BOLLINI
 70
     0
 62
     4
  6
CONTINUOUS
370
    -3
390
17AC21874A353A
  0
LAYER
  5
17AC21874A2FE1
330
17AC21874A2FB3
100
AcDbSymbolTableRecord
100
AcDbLayerTableRecord
  2
LINEAFIN
 70
     0
 62
     3
  6
CONTINUOUS
370
    -3
390
17AC21874A353A
  0
LAYER
  5
17AC21874A2FE2
330
17AC21874A2FB3
100
AcDbSymbolTableRecord
100
AcDbLayerTableRecord
  2
FILETTO
 70
     0
 62
     3
  6
CONTINUOUS
370
    -3
390
17AC21874A353A
  0
LAYER
  5
17AC21874A2FE3
330
17AC21874A2FB3
100
AcDbSymbolTableRecord
100
AcDbLayerTableRecord
  2
COSTRUZIONE
 70
     0
 62
     7
  6
CONTINUOUS
370
    -3
390
17AC21874A353A
  0
LAYER
  5
17AC21874A2FE4
330
17AC21874A2FB3
100
AcDbSymbolTableRecord
100
AcDbLayerTableRecord
  2
TESTO
 70
     0
 62
   254
  6
CONTINUOUS
370
    -3
390
17AC21874A353A
  0
LAYER
  5
17AC21874A2FE5
330
17AC21874A2FB3
100
AcDbSymbolTableRecord
100
AcDbLayerTableRecord
  2
FILETTONAS
 70
     0
 62
     3
  6
TRATTINO
370
    -3
390
17AC21874A353A
  0
LAYER
  5
17AC21874A2FE6
330
17AC21874A2FB3
100
AcDbSymbolTableRecord
100
AcDbLayerTableRecord
  2
TOLLERANZE-G
 70
     0
 62
     3
  6
CONTINUOUS
370
    -3
390
17AC21874A353A
  0
LAYER
  5
17AC21874A2FE7
330
17AC21874A2FB3
100
AcDbSymbolTableRecord
100
AcDbLayerTableRecord
  2
BULLONI
 70
     0
 62
    30
  6
CONTINUOUS
370
    -3
390
17AC21874A353A
  0
LAYER
  5
17AC21874A2FE8
330
17AC21874A2FB3
100
AcDbSymbolTableRecord
100
AcDbLayerTableRecord
  2
VITE
 70
     0
 62
    30
  6
CONTINUOUS
370
    -3
390
17AC21874A353A
  0
LAYER
  5
17AC21874A2FE9
330
17AC21874A2FB3
100
AcDbSymbolTableRecord
100
AcDbLayerTableRecord
  2
DADO
 70
     0
 62
    30
  6
CONTINUOUS
370
    -3
390
17AC21874A353A
  0
LAYER
  5
17AC21874A2FEA
330
17AC21874A2FB3
100
AcDbSymbolTableRecord
100
AcDbLayerTableRecord
  2
CUSCINETTO
 70
     0
 62
   240
  6
CONTINUOUS
370
    -3
390
17AC21874A353A
  0
LAYER
  5
17AC21874A2FEB
330
17AC21874A2FB3
100
AcDbSymbolTableRecord
100
AcDbLayerTableRecord
  2
SEDI
 70
     0
 62
     7
  6
CONTINUOUS
370
    -3
390
17AC21874A353A
  0
LAYER
  5
17AC21874A2FEC
330
17AC21874A2FB3
100
AcDbSymbolTableRecord
100
AcDbLayerTableRecord
  2
FLANGIA
 70
     0
 62
     7
  6
CONTINUOUS
370
    -3
390
17AC21874A353A
  0
LAYER
  5
17AC21874A2FED
330
17AC21874A2FB3
100
AcDbSymbolTableRecord
100
AcDbLayerTableRecord
  2
NASCOSTO
 70
     0
 62
     6
  6
TRATTINO
370
    -3
390
17AC21874A353A
  0
LAYER
  5
17AC21874A2FEE
330
17AC21874A2FB3
100
AcDbSymbolTableRecord
100
AcDbLayerTableRecord
  2
SPINA
 70
     0
 62
     7
  6
CONTINUOUS
370
    -3
390
17AC21874A353A
  0
LAYER
  5
17AC21874A2FEF
330
17AC21874A2FB3
100
AcDbSymbolTableRecord
100
AcDbLayerTableRecord
  2
SIMBOLO
 70
     0
 62
     4
  6
CONTINUOUS
370
    -3
390
17AC21874A353A
  0
LAYER
  5
17AC21874A2FF0
330
17AC21874A2FB3
100
AcDbSymbolTableRecord
100
AcDbLayerTableRecord
  2
DISTINTA
 70
     0
 62
     7
  6
CONTINUOUS
370
    -3
390
17AC21874A353A
  0
LAYER
  5
17AC21874A2FF1
330
17AC21874A2FB3
100
AcDbSymbolTableRecord
100
AcDbLayerTableRecord
  2
CARTIGLIO
 70
     0
 62
     9
  6
CONTINUOUS
370
    -3
390
17AC21874A353A
  0
LAYER
  5
17AC21874A2FF2
330
17AC21874A2FB3
100
AcDbSymbolTableRecord
100
AcDbLayerTableRecord
  2
PROFILATO
 70
     0
 62
     7
  6
CONTINUOUS
370
    -3
390
17AC21874A353A
  0
LAYER
  5
17AC21874A2FF3
330
17AC21874A2FB3
100
AcDbSymbolTableRecord
100
AcDbLayerTableRecord
  2
SQUADRATURA
 70
     0
 62
     9
  6
CONTINUOUS
370
    -3
390
17AC21874A353A
  0
LAYER
  5
17AC21874A2FF4
330
17AC21874A2FB3
100
AcDbSymbolTableRecord
100
AcDbLayerTableRecord
  2
ASSE
 70
     0
 62
     1
  6
ASSI
370
    -3
390
17AC21874A353A
  0
LAYER
  5
17AC21874A2FF5
330
17AC21874A2FB3
100
AcDbSymbolTableRecord
100
AcDbLayerTableRecord
  2
SEZIONE
 70
     0
 62
     4
  6
CONTINUOUS
370
    -3
390
17AC21874A353A
  0
LAYER
  5
17AC21874A2FF6
330
17AC21874A2FB3
100
AcDbSymbolTableRecord
100
AcDbLayerTableRecord
  2
QUOTA
 70
     0
 62
     3
  6
CONTINUOUS
370
    -3
390
17AC21874A353A
  0
LAYER
  5
17AC21874A2FF7
330
17AC21874A2FB3
100
AcDbSymbolTableRecord
100
AcDbLayerTableRecord
  2
TRAVE
 70
     0
 62
     7
  6
CONTINUOUS
370
    -3
390
17AC21874A353A
  0
LAYER
  5
17AC21874A2FF8
330
17AC21874A2FB3
100
AcDbSymbolTableRecord
100
AcDbLayerTableRecord
  2
SALDATURA
 70
     0
 62
     2
  6
CONTINUOUS
370
    -3
390
17AC21874A353A
  0
LAYER
  5
17AC21874A2FF9
330
17AC21874A2FB3
100
AcDbSymbolTableRecord
100
AcDbLayerTableRecord
  2
DEFPOINTS
 70
     0
 62
     7
  6
CONTINUOUS
290
     0
370
    -3
390
17AC21874A353A
  0
LAYER
  5
17AC21874A2FFA
330
17AC21874A2FB3
100
AcDbSymbolTableRecord
100
AcDbLayerTableRecord
  2
DATI
 70
     1
 62
   254
  6
CONTINUOUS
370
    -3
390
17AC21874A353A
  0
LAYER
  5
17AC21874A388A
330
17AC21874A2FB3
100
AcDbSymbolTableRecord
100
AcDbLayerTableRecord
  2
AM_0
 70
     0
 62
     7
  6
CONTINUOUS
370
    30
390
17AC21874A353A
  0
LAYER
  5
17AC21874A388D
330
17AC21874A2FB3
100
AcDbSymbolTableRecord
100
AcDbLayerTableRecord
  2
AM_4
 70
     0
 62
     3
  6
CONTINUOUS
370
    15
390
17AC21874A353A
  0
ENDTAB
  0
TABLE
  2
STYLE
  5
17AC21874A2FB4
330
0
100
AcDbSymbolTable
 70
     8
  0
STYLE
  5
17AC21874A2FC1
330
17AC21874A2FB4
100
AcDbSymbolTableRecord
100
AcDbTextStyleTableRecord
  2
STANDARD
 70
     0
 40
0.0
 41
1.0
 50
0.0
 71
     0
 42
0.2
  3
TXT.SHX
  4

  0
STYLE
  5
17AC21874A2FD1
330
17AC21874A2FB4
100
AcDbSymbolTableRecord
100
AcDbTextStyleTableRecord
  2
SANSSERIFBOLD
 70
     0
 40
0.0
 41
1.0
 50
0.0
 71
     0
 42
2.5
  3
sasb____.pfb
  4

  0
STYLE
  5
17AC21874A2FD2
330
17AC21874A2FB4
100
AcDbSymbolTableRecord
100
AcDbTextStyleTableRecord
  2
ROMANS
 70
     0
 40
0.0
 41
0.8
 50
0.0
 71
     0
 42
3.0
  3
romans
  4

  0
STYLE
  5
17AC21874A2FD3
330
17AC21874A2FB4
100
AcDbSymbolTableRecord
100
AcDbTextStyleTableRecord
  2
ROMANC
 70
     0
 40
2.7
 41
0.8
 50
0.0
 71
     0
 42
8.808067653947915
  3
romanc
  4

  0
STYLE
  5
17AC21874A2FD4
330
17AC21874A2FB4
100
AcDbSymbolTableRecord
100
AcDbTextStyleTableRecord
  2
ROMANT
 70
     0
 40
3.5
 41
1.0
 50
0.0
 71
     0
 42
8.808067653947915
  3
romant
  4

  0
STYLE
  5
17AC21874A3855
330
17AC21874A2FB4
100
AcDbSymbolTableRecord
100
AcDbTextStyleTableRecord
  2

 70
     1
 40
0.0
 41
1.0
 50
0.0
 71
     0
 42
3.0
  3
ltypeshp.shx
  4

  0
STYLE
  5
17AC21874A385A
330
17AC21874A2FB4
100
AcDbSymbolTableRecord
100
AcDbTextStyleTableRecord
  2
ACANSTS
 70
     0
 40
1.0
 41
1.0
 50
0.0
 71
     0
 42
3.0
  3
romans.shx
  4

  0
STYLE
  5
17AC21874A3866
330
17AC21874A2FB4
100
AcDbSymbolTableRecord
100
AcDbTextStyleTableRecord
  2
ACANSGDT
 70
     0
 40
0.0
 41
1.0
 50
0.0
 71
     0
 42
3.0
  3
amgdtans.shx
  4

  0
ENDTAB
  0
TABLE
  2
VIEW
  5
17AC21874A2FB7
330
0
100
AcDbSymbolTable
 70
     0
  0
ENDTAB
  0
TABLE
  2
UCS
  5
17AC21874A2FB8
330
0
100
AcDbSymbolTable
 70
     0
  0
ENDTAB
  0
TABLE
  2
APPID
  5
17AC21874A2FBA
330
0
100
AcDbSymbolTable
 70
     9
  0
APPID
  5
17AC21874A2FC2
330
17AC21874A2FBA
100
AcDbSymbolTableRecord
100
AcDbRegAppTableRecord
  2
ACAD
 70
     0
  0
APPID
  5
17AC21874A2FDD
330
17AC21874A2FBA
100
AcDbSymbolTableRecord
100
AcDbRegAppTableRecord
  2
AVE_RENDER
 70
     0
  0
APPID
  5
17AC21874A37EB
330
17AC21874A2FBA
100
AcDbSymbolTableRecord
100
AcDbRegAppTableRecord
  2
MCAD_NO_VIS
 70
     0
  0
APPID
  5
17AC21874A37EC
330
17AC21874A2FBA
100
AcDbSymbolTableRecord
100
AcDbRegAppTableRecord
  2
ACAD_TEMP_GRAPHIC
 70
     0
  0
APPID
  5
17AC21874A381C
330
17AC21874A2FBA
100
AcDbSymbolTableRecord
100
AcDbRegAppTableRecord
  2
AD_DRAW
 70
     0
  0
APPID
  5
17AC21874A381F
330
17AC21874A2FBA
100
AcDbSymbolTableRecord
100
AcDbRegAppTableRecord
  2
ACATTRIBSERVICES
 70
     0
  0
APPID
  5
17AC21874A383D
330
17AC21874A2FBA
100
AcDbSymbolTableRecord
100
AcDbRegAppTableRecord
  2
DESIGNERASSEMBLIES
 70
     0
  0
APPID
  5
17AC21874A3843
330
17AC21874A2FBA
100
AcDbSymbolTableRecord
100
AcDbRegAppTableRecord
  2
ACADM_DIM_EDIT
 70
     0
  0
APPID
  5
17AC21874A3844
330
17AC21874A2FBA
100
AcDbSymbolTableRecord
100
AcDbRegAppTableRecord
  2
AMDT_DM_ADJ
 70
     0
  0
ENDTAB
  0
TABLE
  2
DIMSTYLE
  5
17AC21874A2FBB
330
0
100
AcDbSymbolTable
 70
     8
100
AcDbDimStyleTable
 71
     1
340
17AC21874A2FDF
  0
DIMSTYLE
105
17AC21874A2FDE
330
17AC21874A2FBB
100
AcDbSymbolTableRecord
100
AcDbDimStyleTableRecord
  2
SCALA-1
 70
     0
 41
3.0
 42
2.0
 43
10.0
 44
2.0
 47
0.1
 48
0.15
 73
     0
 74
     0
 77
     1
 78
     8
140
3.0
141
0.5
146
0.6666666666666666
147
1.0
172
     1
176
   256
177
     5
271
     2
272
     2
275
     1
279
     2
284
     8
285
     8
286
     8
340
17AC21874A2FD2
  0
DIMSTYLE
105
17AC21874A2FDF
102
{ACAD_REACTORS
330
17AC21874A3591
330
17AC21874A36D1
330
17AC21874A36E7
330
17AC21874A3713
330
17AC21874A36FD
102
}
330
17AC21874A2FBB
100
AcDbSymbolTableRecord
100
AcDbDimStyleTableRecord
  2
BASE
 70
     0
 41
3.0
 42
2.0
 43
10.0
 44
2.0
 47
0.1
 48
0.15
 73
     0
 74
     0
 77
     1
 78
     8
140
3.0
141
0.5
146
0.6666666666666666
147
1.0
172
     1
176
   256
177
   256
178
   254
279
     2
340
17AC21874A2FD2
  0
DIMSTYLE
105
17AC21874A3871
330
17AC21874A2FBB
100
AcDbSymbolTableRecord
100
AcDbDimStyleTableRecord
  2
AM_ANSI
 70
     0
  4
mm
 41
0.1
 42
0.05
 43
0.5
 44
0.1
 47
0.1
 48
0.1
 78
     7
 79
     2
140
0.12
141
0.0
146
0.71
147
0.06
176
   256
177
   256
178
     2
274
     4
284
     7
340
17AC21874A2FC1
371
    -1
372
    -1
  0
DIMSTYLE
105
17AC21874A3872
330
17AC21874A2FBB
100
AcDbSymbolTableRecord
100
AcDbDimStyleTableRecord
  2
AM_ANSI$3
 70
     0
  4
mm
 41
0.1
 42
0.05
 43
0.5
 44
0.1
 47
0.1
 48
0.1
 78
     7
 79
     2
140
0.12
141
0.0
146
0.71
147
0.06
176
   256
177
   256
178
     2
274
     4
284
     7
288
     1
289
     0
340
17AC21874A2FC1
371
    -1
372
    -1
  0
DIMSTYLE
105
17AC21874A3873
330
17AC21874A2FBB
100
AcDbSymbolTableRecord
100
AcDbDimStyleTableRecord
  2
AM_ANSI$4
 70
     0
  4
mm
 41
0.1
 42
0.05
 43
0.5
 44
0.1
 47
0.1
 48
0.1
 78
     7
 79
     2
140
0.12
141
0.0
146
0.71
147
0.06
176
   256
177
   256
178
     2
274
     4
284
     7
288
     1
289
     0
340
17AC21874A2FC1
371
    -1
372
    -1
  0
DIMSTYLE
105
17AC21874A3874
330
17AC21874A2FBB
100
AcDbSymbolTableRecord
100
AcDbDimStyleTableRecord
  2
AM_ANSI$7
 70
     0
  4
mm
 41
0.1
 42
0.05
 43
0.5
 44
0.1
 47
0.1
 48
0.1
 78
     7
 79
     2
140
0.24
141
0.0
146
0.71
147
0.06
176
   256
177
   256
178
     2
274
     4
284
     7
340
17AC21874A2FC1
371
    -1
372
    -1
  0
DIMSTYLE
105
17AC21874A3875
330
17AC21874A2FBB
100
AcDbSymbolTableRecord
100
AcDbDimStyleTableRecord
  2
AM_ANSI$SF
 70
     0
  4
mm
 41
0.1
 42
0.05
 43
0.5
 44
0.1
 47
0.1
 48
0.1
 75
     1
 76
     1
 78
     7
 79
     2
140
0.12
141
0.0
146
0.71
147
0.06
176
   256
177
   256
178
     2
274
     4
284
     7
340
17AC21874A2FC1
371
    -1
372
    -1
  0
DIMSTYLE
105
17AC21874A387A
330
17AC21874A2FBB
100
AcDbSymbolTableRecord
100
AcDbDimStyleTableRecord
  2
AM_ANSI$SH
 70
     0
  4
mm
 41
0.1
 42
0.05
 43
0.5
 44
0.1
 47
0.1
 48
0.1
 75
     1
 76
     1
 78
     7
 79
     2
140
0.12
141
0.0
146
0.71
147
0.06
173
     1
176
   256
177
   256
178
     2
274
     4
284
     7
340
17AC21874A2FC1
343
17AC21874A3876
371
    -1
372
    -1
  0
ENDTAB
  0
TABLE
  2
BLOCK_RECORD
  5
17AC21874A2FB2
330
0
100
AcDbSymbolTable
 70
    14
  0
BLOCK_RECORD
  5
17AC21874A2FC9
330
17AC21874A2FB2
100
AcDbSymbolTableRecord
100
AcDbBlockTableRecord
  2
*MODEL_SPACE
340
17AC21874A353D
  0
BLOCK_RECORD
  5
17AC21874A2FC6
330
17AC21874A2FB2
100
AcDbSymbolTableRecord
100
AcDbBlockTableRecord
  2
*PAPER_SPACE
340
17AC21874A353E
  0
BLOCK_RECORD
  5
17AC21874A2FCD
330
17AC21874A2FB2
100
AcDbSymbolTableRecord
100
AcDbBlockTableRecord
  2
AVE_RENDER
340
0
102
{BLKREFS
331
151
331
152
331
153
102
}
  0
BLOCK_RECORD
  5
17AC21874A2FCE
330
17AC21874A2FB2
100
AcDbSymbolTableRecord
100
AcDbBlockTableRecord
  2
SCALA1
340
0
102
{BLKREFS
331
D132099FA66
102
}
  0
BLOCK_RECORD
  5
17AC21874A2FCF
330
17AC21874A2FB2
100
AcDbSymbolTableRecord
100
AcDbBlockTableRecord
  2
FR0
340
0
  0
BLOCK_RECORD
  5
17AC21874A2FD0
330
17AC21874A2FB2
100
AcDbSymbolTableRecord
100
AcDbBlockTableRecord
  2
FR1
340
0
  0
BLOCK_RECORD
  5
17AC21874A338A
330
17AC21874A2FB2
100
AcDbSymbolTableRecord
100
AcDbBlockTableRecord
  2
A$C1
340
0
  0
BLOCK_RECORD
  5
17AC21874A3436
330
17AC21874A2FB2
100
AcDbSymbolTableRecord
100
AcDbBlockTableRecord
  2
A$C6
340
0
102
{BLKREFS
331
17AC21874A343C
102
}
  0
BLOCK_RECORD
  5
17AC21874A3592
330
17AC21874A2FB2
100
AcDbSymbolTableRecord
100
AcDbBlockTableRecord
  2
*D6
340
0
  0
BLOCK_RECORD
  5
17AC21874A3665
330
17AC21874A2FB2
100
AcDbSymbolTableRecord
100
AcDbBlockTableRecord
  2
A$C33712568
340
0
  0
BLOCK_RECORD
  5
17AC21874A36D2
330
17AC21874A2FB2
100
AcDbSymbolTableRecord
100
AcDbBlockTableRecord
  2
*D8
340
0
  0
BLOCK_RECORD
  5
17AC21874A36E8
330
17AC21874A2FB2
100
AcDbSymbolTableRecord
100
AcDbBlockTableRecord
  2
*D9
340
0
  0
BLOCK_RECORD
  5
17AC21874A36FE
330
17AC21874A2FB2
100
AcDbSymbolTableRecord
100
AcDbBlockTableRecord
  2
*D10
340
0
  0
BLOCK_RECORD
  5
17AC21874A3714
330
17AC21874A2FB2
100
AcDbSymbolTableRecord
100
AcDbBlockTableRecord
  2
*D11
340
0
  0
BLOCK_RECORD
  5
17AC21874A3876
330
17AC21874A2FB2
100
AcDbSymbolTableRecord
100
AcDbBlockTableRecord
  2
GENAXEH
340
0
  0
ENDTAB
  0
ENDSEC
  0
SECTION
  2
BLOCKS
  0
BLOCK
  5
17AC21874A2FFD
330
17AC21874A2FC9
100
AcDbEntity
  8
0
100
AcDbBlockBegin
  2
*MODEL_SPACE
 70
     0
 10
0.0
 20
0.0
 30
0.0
  3
*MODEL_SPACE
  1

  0
ENDBLK
  5
17AC21874A2FFE
330
17AC21874A2FC9
100
AcDbEntity
  8
0
100
AcDbBlockEnd
  0
BLOCK
  5
17AC21874A2FFB
330
17AC21874A2FC6
100
AcDbEntity
 67
     1
  8
0
100
AcDbBlockBegin
  2
*PAPER_SPACE
 70
     0
 10
0.0
 20
0.0
 30
0.0
  3
*PAPER_SPACE
  1

  0
ENDBLK
  5
17AC21874A2FFC
330
17AC21874A2FC6
100
AcDbEntity
 67
     1
  8
0
100
AcDbBlockEnd
  0
BLOCK
  5
14F
330
17AC21874A2FCD
100
AcDbEntity
  8
0
100
AcDbBlockBegin
  2
AVE_RENDER
 70
     0
 10
0.0
 20
0.0
 30
0.0
  3
AVE_RENDER
  1
AVE_RENDER
  0
ENDBLK
  5
150
330
17AC21874A2FCD
100
AcDbEntity
  8
0
100
AcDbBlockEnd
  0
BLOCK
  5
D132099F947
330
17AC21874A2FCE
100
AcDbEntity
  8
0
100
AcDbBlockBegin
  2
SCALA1
 70
     0
 10
0.0
 20
0.0
 30
0.0
  3
SCALA1
  1

  0
ENDBLK
  5
D132099FA65
330
17AC21874A2FCE
100
AcDbEntity
  8
0
100
AcDbBlockEnd
  0
BLOCK
  5
17AC21874A2E96
330
17AC21874A2FCF
100
AcDbEntity
  8
0
100
AcDbBlockBegin
  2
FR0
 70
     0
 10
0.0
 20
0.0
 30
0.0
  3
FR0
  1

  0
LINE
  5
17AC21874A2E97
330
17AC21874A2FCF
100
AcDbEntity
  8
0
 62
     0
100
AcDbLine
 10
-1.0
 20
0.0
 30
0.0
 11
0.0
 21
0.0
 31
0.0
  0
ENDBLK
  5
17AC21874A2E98
330
17AC21874A2FCF
100
AcDbEntity
  8
0
100
AcDbBlockEnd
  0
BLOCK
  5
17AC21874A2E9A
330
17AC21874A2FD0
100
AcDbEntity
  8
0
100
AcDbBlockBegin
  2
FR1
 70
     0
 10
0.0
 20
0.0
 30
0.0
  3
FR1
  1

  0
SOLID
  5
17AC21874A2E9B
330
17AC21874A2FD0
100
AcDbEntity
  8
0
  6
ByBlock
 62
     0
100
AcDbTrace
 10
-1.0
 20
0.1666666666666572
 30
0.0
 11
-1.0
 21
-0.1666666666666572
 31
0.0
 12
0.0
 22
0.0
 32
0.0
 13
0.0
 23
0.0
 33
0.0
  0
ENDBLK
  5
17AC21874A2E9C
330
17AC21874A2FD0
100
AcDbEntity
  8
0
100
AcDbBlockEnd
  0
BLOCK
  5
17AC21874A33CD
330
17AC21874A338A
100
AcDbEntity
  8
0
100
AcDbBlockBegin
  2
A$C1
 70
     0
 10
0.0
 20
0.0
 30
0.0
  3
A$C1
  1

  0
LINE
  5
17AC21874A338B
330
17AC21874A338A
100
AcDbEntity
  8
0
100
AcDbLine
 10
2689.584587478007
 20
4.447123275997739
 30
0.0
 11
3270.08390126417
 21
4.447123275997739
 31
0.0
  0
LINE
  5
17AC21874A338C
330
17AC21874A338A
100
AcDbEntity
  8
0
100
AcDbLine
 10
2689.584587478007
 20
15.80079711906256
 30
0.0
 11
3270.08390126417
 21
15.80079711906256
 31
0.0
  0
TEXT
  5
17AC21874A338D
330
17AC21874A338A
100
AcDbEntity
  8
TESTO
100
AcDbText
 10
2686.316174806704
 20
24.25589484882659
 30
0.0
 40
50.0
  1
QUADRO ELETTRICO
 41
0.8
  7
ROMANS
100
AcDbText
  0
LINE
  5
17AC21874A338E
330
17AC21874A338A
100
AcDbEntity
  8
SQUADRATURA
100
AcDbLine
 10
2.956728884124579
 20
2174.089712292888
 30
0.0
 11
878.9265661898136
 21
2174.089712292888
 31
0.0
  0
LINE
  5
17AC21874A338F
330
17AC21874A338A
100
AcDbEntity
  8
SQUADRATURA
100
AcDbLine
 10
2.956728884124579
 20
2069.487277653438
 30
0.0
 11
875.2535965395766
 21
2069.487277653438
 31
0.0
  0
LINE
  5
17AC21874A3390
330
17AC21874A338A
100
AcDbEntity
  8
SQUADRATURA
100
AcDbLine
 10
2.956728884124579
 20
1968.054611581344
 30
0.0
 11
871.5806173347644
 21
1968.054611581344
 31
0.0
  0
LINE
  5
17AC21874A3391
330
17AC21874A338A
100
AcDbEntity
  8
SQUADRATURA
100
AcDbLine
 10
2.956728884124579
 20
1853.94287123983
 30
0.0
 11
871.5806173347644
 21
1853.94287123983
 31
0.0
  0
LINE
  5
17AC21874A3392
330
17AC21874A338A
100
AcDbEntity
  8
SQUADRATURA
100
AcDbLine
 10
2.956728884124579
 20
1731.906698415815
 30
0.0
 11
875.2535965395766
 21
1731.906698415815
 31
0.0
  0
LINE
  5
17AC21874A3393
330
17AC21874A338A
100
AcDbEntity
  8
SQUADRATURA
100
AcDbLine
 10
2.956728884124579
 20
1624.134489676954
 30
0.0
 11
875.2535965395766
 21
1624.134489676954
 31
0.0
  0
LINE
  5
17AC21874A3394
330
17AC21874A338A
100
AcDbEntity
  8
SQUADRATURA
100
AcDbLine
 10
2.956728884124579
 20
1502.098322384996
 30
0.0
 11
871.5806173347644
 21
1502.098322384996
 31
0.0
  0
LINE
  5
17AC21874A3395
330
17AC21874A338A
100
AcDbEntity
  8
SQUADRATURA
100
AcDbLine
 10
2.956728884124579
 20
1384.816802412014
 30
0.0
 11
871.5806173347644
 21
1384.816802412014
 31
0.0
  0
LINE
  5
17AC21874A3396
330
17AC21874A338A
100
AcDbEntity
  8
SQUADRATURA
100
AcDbLine
 10
2.956728884124579
 20
1256.441086921233
 30
0.0
 11
875.5607417240733
 21
1256.441086921233
 31
0.0
  0
LINE
  5
17AC21874A3397
330
17AC21874A338A
100
AcDbEntity
  8
SQUADRATURA
100
AcDbLine
 10
2.66103998275151
 20
2422.025253144033
 30
0.0
 11
2.66103998275151
 21
1465.617958464217
 31
0.0
  0
LINE
  5
17AC21874A3398
330
17AC21874A338A
100
AcDbEntity
  8
0
100
AcDbLine
 10
2.66103998275151
 20
1889.284368001104
 30
0.0
 11
363.3570891148551
 21
1889.284368001104
 31
0.0
  0
LINE
  5
17AC21874A3399
330
17AC21874A338A
100
AcDbEntity
  8
0
100
AcDbLine
 10
2.66103998275151
 20
1983.109427342208
 30
0.0
 11
388.3558214777274
 21
1983.109427342208
 31
0.0
  0
LINE
  5
17AC21874A339A
330
17AC21874A338A
100
AcDbEntity
  8
0
100
AcDbLine
 10
2.66103998275151
 20
1876.605288199629
 30
0.0
 11
363.3570891148551
 21
1876.605288199629
 31
0.0
  0
TEXT
  5
17AC21874A339B
330
17AC21874A338A
100
AcDbEntity
  8
TESTO
100
AcDbText
 10
11.78411396713284
 20
1895.686282737734
 30
0.0
 40
40.0
  1
3.500 B/h
 41
0.8
  7
ROMANS
100
AcDbText
  0
LINE
  5
17AC21874A339C
330
17AC21874A338A
100
AcDbEntity
  8
0
100
AcDbLine
 10
2.66103998275151
 20
1646.258012456043
 30
0.0
 11
281.2183826820701
 21
1646.258012456043
 31
0.0
  0
LINE
  5
17AC21874A339D
330
17AC21874A338A
100
AcDbEntity
  8
0
100
AcDbLine
 10
2.66103998275151
 20
1636.748701221922
 30
0.0
 11
281.2183826820701
 21
1636.748701221922
 31
0.0
  0
TEXT
  5
17AC21874A339E
330
17AC21874A338A
100
AcDbEntity
  8
TESTO
100
AcDbText
 10
8.608580996647042
 20
1651.346010430021
 30
0.0
 40
40.0
  1
2500 mm
 41
0.8
  7
ROMANS
100
AcDbText
  0
LINE
  5
17AC21874A339F
330
17AC21874A338A
100
AcDbEntity
  8
0
100
AcDbLine
 10
2.66103998275151
 20
1766.385758695466
 30
0.0
 11
638.3431817186074
 21
1766.385758695466
 31
0.0
  0
LINE
  5
17AC21874A33A0
330
17AC21874A338A
100
AcDbEntity
  8
0
100
AcDbLine
 10
2.66103998275151
 20
1535.492894349992
 30
0.0
 11
602.6307082220804
 21
1535.492894349992
 31
0.0
  0
LINE
  5
17AC21874A33A1
330
17AC21874A338A
100
AcDbEntity
  8
0
100
AcDbLine
 10
2.66103998275151
 20
1415.358044037841
 30
0.0
 11
531.20574292295
 21
1415.358044037841
 31
0.0
  0
LINE
  5
17AC21874A33A2
330
17AC21874A338A
100
AcDbEntity
  8
0
100
AcDbLine
 10
2.66103998275151
 20
1752.121789078256
 30
0.0
 11
638.3431817186074
 21
1752.121789078256
 31
0.0
  0
LINE
  5
17AC21874A33A3
330
17AC21874A338A
100
AcDbEntity
  8
0
100
AcDbLine
 10
2.66103998275151
 20
1522.813814548516
 30
0.0
 11
602.6307082220804
 21
1522.813814548516
 31
0.0
  0
LINE
  5
17AC21874A33A4
330
17AC21874A338A
100
AcDbEntity
  8
0
100
AcDbLine
 10
2.66103998275151
 20
1401.094079952686
 30
0.0
 11
531.20574292295
 21
1401.094079952686
 31
0.0
  0
TEXT
  5
17AC21874A33A5
330
17AC21874A338A
100
AcDbEntity
  8
TESTO
100
AcDbText
 10
8.608580996647042
 20
1771.929518314858
 30
0.0
 40
40.0
  1
LUNGHEZZA NASTRO
 41
0.8
  7
ROMANS
100
AcDbText
  0
TEXT
  5
17AC21874A33A6
330
17AC21874A338A
100
AcDbEntity
  8
TESTO
100
AcDbText
 10
5.433056871014677
 20
1543.455501968378
 30
0.0
 40
40.0
  1
DIMENSIONI NASTRO
 41
0.8
  7
ROMANS
100
AcDbText
  0
TEXT
  5
17AC21874A33A7
330
17AC21874A338A
100
AcDbEntity
  8
TESTO
100
AcDbText
 10
11.78411396713284
 20
1422.871994083541
 30
0.0
 40
40.0
  1
ALTEZZA 100 mm
 41
0.8
  7
ROMANS
100
AcDbText
  0
LINE
  5
17AC21874A33A8
330
17AC21874A338A
100
AcDbEntity
  8
0
100
AcDbLine
 10
2.956728884124579
 20
1288.202865897778
 30
0.0
 11
588.1996161959667
 21
1288.202865897778
 31
0.0
  0
LINE
  5
17AC21874A33A9
330
17AC21874A338A
100
AcDbEntity
  8
0
100
AcDbLine
 10
2.956728884124579
 20
1272.354011996891
 30
0.0
 11
588.1996161959667
 21
1272.354011996891
 31
0.0
  0
TEXT
  5
17AC21874A33AA
330
17AC21874A338A
100
AcDbEntity
  8
TESTO
100
AcDbText
 10
8.608580996647042
 20
1299.115235006457
 30
0.0
 40
40.0
  1
LARGHEZZA 120 mm
 41
0.8
  7
ROMANS
100
AcDbText
  0
LINE
  5
17AC21874A33AB
330
17AC21874A338A
100
AcDbEntity
  8
SQUADRATURA
100
AcDbLine
 10
2.66103998275151
 20
1465.617958464217
 30
0.0
 11
2.66103998275151
 21
1255.807152016753
 31
0.0
  0
LINE
  5
17AC21874A33AC
330
17AC21874A338A
100
AcDbEntity
  8
0
100
AcDbLine
 10
588.1996161959667
 20
1288.202865897778
 30
0.0
 11
685.9920260884662
 21
1288.202865897778
 31
0.0
  0
LINE
  5
17AC21874A33AD
330
17AC21874A338A
100
AcDbEntity
  8
0
100
AcDbLine
 10
588.1996161959667
 20
1272.354011996891
 30
0.0
 11
686.8673748695853
 21
1272.354011996891
 31
0.0
  0
LINE
  5
17AC21874A33AE
330
17AC21874A338A
100
AcDbEntity
  8
0
100
AcDbLine
 10
531.20574292295
 20
1415.358044037841
 30
0.0
 11
606.3351366440599
 21
1415.358044037841
 31
0.0
  0
LINE
  5
17AC21874A33AF
330
17AC21874A338A
100
AcDbEntity
  8
0
100
AcDbLine
 10
531.20574292295
 20
1401.094079952686
 30
0.0
 11
606.3351366440599
 21
1401.094079952686
 31
0.0
  0
LINE
  5
17AC21874A33B0
330
17AC21874A338A
100
AcDbEntity
  8
0
100
AcDbLine
 10
602.6307082220804
 20
1522.813814548516
 30
0.0
 11
643.9752049910379
 21
1522.813814548516
 31
0.0
  0
LINE
  5
17AC21874A33B1
330
17AC21874A338A
100
AcDbEntity
  8
0
100
AcDbLine
 10
388.3558214777274
 20
1983.109427342208
 30
0.0
 11
408.5059406271533
 21
1983.109427342208
 31
0.0
  0
LINE
  5
17AC21874A33B2
330
17AC21874A338A
100
AcDbEntity
  8
0
100
AcDbLine
 10
281.2183826820701
 20
1636.748701221922
 30
0.0
 11
331.4751063709607
 21
1636.748701221922
 31
0.0
  0
LINE
  5
17AC21874A33B3
330
17AC21874A338A
100
AcDbEntity
  8
0
100
AcDbLine
 10
281.2183826820701
 20
1646.258012456043
 30
0.0
 11
331.4751063709607
 21
1646.258012456043
 31
0.0
  0
LINE
  5
17AC21874A33B4
330
17AC21874A338A
100
AcDbEntity
  8
0
100
AcDbLine
 10
363.3570891148551
 20
1876.605288199629
 30
0.0
 11
388.3728832819857
 21
1876.605288199629
 31
0.0
  0
LINE
  5
17AC21874A33B5
330
17AC21874A338A
100
AcDbEntity
  8
0
100
AcDbLine
 10
363.3570891148551
 20
1889.284368001104
 30
0.0
 11
388.3728832819857
 21
1889.284368001104
 31
0.0
  0
LINE
  5
17AC21874A33B6
330
17AC21874A338A
100
AcDbEntity
  8
0
100
AcDbLine
 10
602.6307082220804
 20
1535.492894349992
 30
0.0
 11
643.9752049910379
 21
1535.492894349992
 31
0.0
  0
LINE
  5
17AC21874A33B7
330
17AC21874A338A
100
AcDbEntity
  8
0
100
AcDbLine
 10
638.3431817186074
 20
1752.121789078256
 30
0.0
 11
655.3547568353003
 21
1752.121789078256
 31
0.0
  0
LINE
  5
17AC21874A33B8
330
17AC21874A338A
100
AcDbEntity
  8
0
100
AcDbLine
 10
638.3431817186074
 20
1766.385758695466
 30
0.0
 11
654.4794080541812
 21
1766.385758695466
 31
0.0
  0
LINE
  5
17AC21874A33B9
330
17AC21874A338A
100
AcDbEntity
  8
0
100
AcDbLine
 10
2.66103998275151
 20
2204.335531971647
 30
0.0
 11
313.3596152360706
 21
2204.335531971647
 31
0.0
  0
LINE
  5
17AC21874A33BA
330
17AC21874A338A
100
AcDbEntity
  8
0
100
AcDbLine
 10
2.66103998275151
 20
2191.656446638115
 30
0.0
 11
313.3596152360706
 21
2191.656446638115
 31
0.0
  0
TEXT
  5
17AC21874A33BB
330
17AC21874A338A
100
AcDbEntity
  8
TESTO
100
AcDbText
 10
11.78411396713284
 20
2209.838054545921
 30
0.0
 40
40.0
  1
MODELLO
 41
0.8
  7
ROMANS
100
AcDbText
  0
LINE
  5
17AC21874A33BC
330
17AC21874A338A
100
AcDbEntity
  8
0
100
AcDbLine
 10
2.66103998275151
 20
1995.78851267574
 30
0.0
 11
388.3558214777274
 21
1995.78851267574
 31
0.0
  0
TEXT
  5
17AC21874A33BD
330
17AC21874A338A
100
AcDbEntity
  8
TESTO
100
AcDbText
 10
11.78411396713284
 20
2003.576791199376
 30
0.0
 40
40.0
  1
PRODUZIONE
 41
0.8
  7
ROMANS
100
AcDbText
  0
TEXT
  5
17AC21874A33BE
330
17AC21874A338A
100
AcDbEntity
  8
TESTO
100
AcDbText
 10
8.608580996647042
 20
2108.294048468772
 30
0.0
 40
40.0
  1
AR 5T 3S 3E
 41
0.8
  7
ROMANS
100
AcDbText
  0
LINE
  5
17AC21874A33BF
330
17AC21874A338A
100
AcDbEntity
  8
0
100
AcDbLine
 10
2.66103998275151
 20
2102.040440482041
 30
0.0
 11
452.9992865299146
 21
2102.040440482041
 31
0.0
  0
LINE
  5
17AC21874A33C0
330
17AC21874A338A
100
AcDbEntity
  8
0
100
AcDbLine
 10
2.66103998275151
 20
2087.77647086483
 30
0.0
 11
452.9992865299146
 21
2087.77647086483
 31
0.0
  0
LINE
  5
17AC21874A33C1
330
17AC21874A338A
100
AcDbEntity
  8
0
100
AcDbLine
 10
388.3558214777274
 20
1995.78851267574
 30
0.0
 11
408.5059406271533
 21
1995.78851267574
 31
0.0
  0
LINE
  5
17AC21874A33C2
330
17AC21874A338A
100
AcDbEntity
  8
SQUADRATURA
100
AcDbLine
 10
875.5607417240733
 20
1256.33599773032
 30
0.0
 11
875.5607417240733
 21
2282.846582760809
 31
0.0
  0
LINE
  5
17AC21874A33C3
330
17AC21874A338A
100
AcDbEntity
  8
SQUADRATURA
100
AcDbLine
 10
1303.836067650295
 20
2282.846582760809
 30
0.0
 11
1303.836067650295
 21
2422.025253144033
 31
0.0
  0
LINE
  5
17AC21874A33C4
330
17AC21874A338A
100
AcDbEntity
  8
SQUADRATURA
100
AcDbLine
 10
1303.750441763627
 20
2422.025253144033
 30
0.0
 11
2.66103998275151
 21
2422.025253144033
 31
0.0
  0
LINE
  5
17AC21874A33C5
330
17AC21874A338A
100
AcDbEntity
  8
0
100
AcDbLine
 10
5.363776582777184
 20
2310.307963707688
 30
0.0
 11
1202.853146766325
 21
2310.307963707688
 31
0.0
  0
LINE
  5
17AC21874A33C6
330
17AC21874A338A
100
AcDbEntity
  8
0
100
AcDbLine
 10
5.363776582777184
 20
2299.213768189889
 30
0.0
 11
1202.853146766325
 21
2299.213768189889
 31
0.0
  0
LINE
  5
17AC21874A33C7
330
17AC21874A338A
100
AcDbEntity
  8
SQUADRATURA
100
AcDbLine
 10
691.9119056929567
 20
2282.846582760809
 30
0.0
 11
1303.750441763627
 21
2282.846582760809
 31
0.0
  0
TEXT
  5
17AC21874A33C8
330
17AC21874A338A
100
AcDbEntity
  8
0
100
AcDbText
 10
2.257532745382313
 20
2320.901819545599
 30
0.0
 40
80.0
  1
ETICAP SYSTEM 
 41
0.8
  7
ROMANS
100
AcDbText
  0
LINE
  5
17AC21874A33C9
330
17AC21874A338A
100
AcDbEntity
  8
SQUADRATURA
100
AcDbLine
 10
691.9119056929567
 20
2282.846582760809
 30
0.0
 11
2.66103998275151
 21
2282.846582760809
 31
0.0
  0
TEXT
  5
17AC21874A33CA
330
17AC21874A338A
100
AcDbEntity
  8
TESTO
100
AcDbText
 10
1024.966483274582
 20
2319.619973565014
 30
0.0
 40
48.0
  1
canelli
 41
0.8
  7
ROMANS
100
AcDbText
  0
LINE
  5
17AC21874A33CB
330
17AC21874A338A
100
AcDbEntity
  8
0
100
AcDbLine
 10
1202.853146766325
 20
2310.307963707688
 30
0.0
 11
1288.38908097122
 21
2310.307963707688
 31
0.0
  0
LINE
  5
17AC21874A33CC
330
17AC21874A338A
100
AcDbEntity
  8
0
100
AcDbLine
 10
1202.853146766325
 20
2299.213768189889
 30
0.0
 11
1288.38908097122
 21
2299.213768189889
 31
0.0
  0
ENDBLK
  5
17AC21874A33CE
330
17AC21874A338A
100
AcDbEntity
  8
0
100
AcDbBlockEnd
  0
BLOCK
  5
17AC21874A343A
330
17AC21874A3436
100
AcDbEntity
  8
0
100
AcDbBlockBegin
  2
A$C6
 70
     0
 10
0.0
 20
0.0
 30
0.0
  3
A$C6
  1

  0
LINE
  5
17AC21874A3437
330
17AC21874A3436
100
AcDbEntity
  8
0
100
AcDbLine
 10
1.900637218473519
 20
0.8165157741112096
 30
0.0
 11
1700.64860396784
 21
0.8165157741112096
 31
0.0
  0
LINE
  5
17AC21874A3438
330
17AC21874A3436
100
AcDbEntity
  8
0
100
AcDbLine
 10
1.900637218473519
 20
14.30680798376833
 30
0.0
 11
1700.64860396784
 21
14.30680798376833
 31
0.0
  0
TEXT
  5
17AC21874A3439
330
17AC21874A3436
100
AcDbEntity
  8
TESTO
100
AcDbText
 10
8.733529025279011
 20
25.88597534847286
 30
0.0
 40
25.0
  1
DATI NON INPEGNATIVI con la possibilità di modifica da parte del costruttore
  7
ROMANC
100
AcDbText
  0
ENDBLK
  5
17AC21874A343B
330
17AC21874A3436
100
AcDbEntity
  8
0
100
AcDbBlockEnd
  0
BLOCK
  5
17AC21874A359C
330
17AC21874A3592
100
AcDbEntity
  8
0
100
AcDbBlockBegin
  2
*D6
 70
     1
 10
0.0
 20
0.0
 30
0.0
  3
*D6
  1

  0
LINE
  5
17AC21874A361F
330
17AC21874A3592
100
AcDbEntity
  8
QUOTA
370
    -2
100
AcDbLine
 10
388.7081835144278
 20
765.0119137806828
 30
0.0
 11
388.7081835144277
 21
37.0
 31
0.0
  0
LINE
  5
17AC21874A3620
330
17AC21874A3592
100
AcDbEntity
  8
QUOTA
370
    -2
100
AcDbLine
 10
2890.482489844682
 20
765.3933269204412
 30
0.0
 11
2890.482489844682
 21
37.0
 31
0.0
  0
LINE
  5
17AC21874A3621
330
17AC21874A3592
100
AcDbEntity
  8
QUOTA
370
    -2
100
AcDbLine
 10
418.7081835144277
 20
57.0
 30
0.0
 11
2860.482489844682
 21
57.0
 31
0.0
  0
SOLID
  5
17AC21874A3622
330
17AC21874A3592
100
AcDbEntity
  8
QUOTA
100
AcDbTrace
 10
418.7081835144277
 20
62.0
 30
0.0
 11
418.7081835144277
 21
52.0
 31
0.0
 12
388.7081835144277
 22
57.0
 32
0.0
 13
388.7081835144277
 23
57.0
 33
0.0
  0
SOLID
  5
17AC21874A3623
330
17AC21874A3592
100
AcDbEntity
  8
QUOTA
100
AcDbTrace
 10
2860.482489844682
 20
62.0
 30
0.0
 11
2860.482489844682
 21
52.0
 31
0.0
 12
2890.482489844682
 22
57.0
 32
0.0
 13
2890.482489844682
 23
57.0
 33
0.0
  0
MTEXT
  5
17AC21874A3624
330
17AC21874A3592
100
AcDbEntity
  8
QUOTA
 62
   254
100
AcDbMText
 10
1639.595336679555
 20
82.0
 30
0.0
 40
30.0
 41
0.0
 71
     5
 72
     1
  1
\A1;2500 mm
  7
ROMANS
 73
     1
 44
1.0
1001
ACAD
1000
MTEXTBEGIN
1070
    73
1070
     1
1070
    44
1040
1.0
1070
    74
1070
     0
1000
MTEXTEND
  0
POINT
  5
17AC21874A3625
330
17AC21874A3592
100
AcDbEntity
  8
DEFPOINTS
 62
     0
100
AcDbPoint
 10
388.7081835144278
 20
785.0119137806828
 30
0.0
  0
POINT
  5
17AC21874A3626
330
17AC21874A3592
100
AcDbEntity
  8
DEFPOINTS
 62
     0
100
AcDbPoint
 10
2890.482489844682
 20
785.3933269204413
 30
0.0
  0
POINT
  5
17AC21874A3627
330
17AC21874A3592
100
AcDbEntity
  8
DEFPOINTS
 62
     0
100
AcDbPoint
 10
2890.482489844682
 20
57.0
 30
0.0
  0
ENDBLK
  5
17AC21874A359D
330
17AC21874A3592
100
AcDbEntity
  8
0
100
AcDbBlockEnd
  0
BLOCK
  5
17AC21874A3698
330
17AC21874A3665
100
AcDbEntity
  8
0
100
AcDbBlockBegin
  2
A$C33712568
 70
     0
 10
0.0
 20
0.0
 30
0.0
  3
A$C33712568
  1

  0
LINE
  5
17AC21874A3666
330
17AC21874A3665
100
AcDbEntity
  8
0
 62
     0
100
AcDbLine
 10
-927.4520541625843
 20
1127.811112991753
 30
0.0
 11
929.378654489683
 21
1127.811112991753
 31
0.0
  0
LINE
  5
17AC21874A3667
330
17AC21874A3665
100
AcDbEntity
  8
0
 62
     0
100
AcDbLine
 10
929.378654489683
 20
1097.72604094923
 30
0.0
 11
-927.6121065958632
 21
1097.72604094923
 31
0.0
  0
LINE
  5
17AC21874A3668
330
17AC21874A3665
100
AcDbEntity
  8
0
  6
Continuous
 62
     0
100
AcDbLine
 10
-1131.034134179059
 20
1135.811112991753
 30
0.0
 11
1139.240732466012
 21
1135.811112991753
 31
0.0
  0
LINE
  5
17AC21874A3669
330
17AC21874A3665
100
AcDbEntity
  8
0
 62
     0
100
AcDbLine
 10
-925.1313484679485
 20
-939.0793836587327
 30
0.0
 11
514.2461603606061
 21
-939.0793836587327
 31
0.0
  0
LINE
  5
17AC21874A366A
330
17AC21874A3665
100
AcDbEntity
  8
0
 62
     0
100
AcDbLine
 10
-925.7943797355183
 20
-909.2139455684264
 30
0.0
 11
635.1673050510544
 21
-909.2139455684264
 31
0.0
  0
LINE
  5
17AC21874A366B
330
17AC21874A3665
100
AcDbEntity
  8
0
  6
Continuous
 62
     0
100
AcDbLine
 10
1139.146131479316
 20
-947.0935170773854
 30
0.0
 11
-1131.034134179059
 21
-947.0935170773854
 31
0.0
  0
LINE
  5
17AC21874A366C
330
17AC21874A3665
100
AcDbEntity
  8
0
 62
     0
100
AcDbLine
 10
-1131.034134179059
 20
1136.105332226983
 30
0.0
 11
-1131.034134179059
 21
-947.0935170773854
 31
0.0
  0
LINE
  5
17AC21874A366D
330
17AC21874A3665
100
AcDbEntity
  8
0
 62
     0
100
AcDbLine
 10
-1093.850013968978
 20
927.463258186688
 30
0.0
 11
-1093.969996473097
 21
-741.6488218522345
 31
0.0
  0
LINE
  5
17AC21874A366E
330
17AC21874A3665
100
AcDbEntity
  8
0
 62
     0
100
AcDbLine
 10
-1123.969996473097
 20
-741.6488218522345
 30
0.0
 11
-1123.874242685699
 21
647.9423357231471
 31
0.0
  0
LINE
  5
17AC21874A366F
330
17AC21874A3665
100
AcDbEntity
  8
0
  6
Continuous
 62
     0
100
AcDbLine
 10
-1123.969996473097
 20
-740.5070026479688
 30
0.0
 11
-1123.969996473097
 21
-939.0935170773856
 31
0.0
  0
LINE
  5
17AC21874A3670
330
17AC21874A3665
100
AcDbEntity
  8
0
  6
Continuous
 62
     0
100
AcDbLine
 10
-925.6329109633316
 20
-939.0935170773856
 30
0.0
 11
-1124.083487665126
 21
-939.0935170773856
 31
0.0
  0
LINE
  5
17AC21874A3671
330
17AC21874A3665
100
AcDbEntity
  8
0
  6
Continuous
 62
     0
100
AcDbLine
 10
-922.9475810068889
 20
-912.0935170773854
 30
0.0
 11
-922.9475810068889
 21
-936.0935170773855
 31
0.0
  0
LINE
  5
17AC21874A3672
330
17AC21874A3665
100
AcDbEntity
  8
0
  6
Continuous
 62
     0
100
AcDbLine
 10
-949.9475810068888
 20
-909.0935170773855
 30
0.0
 11
-925.9475810068888
 21
-909.0935170773855
 31
0.0
  0
ARC
  5
17AC21874A3673
330
17AC21874A3665
100
AcDbEntity
  8
0
  6
Continuous
 62
     0
100
AcDbCircle
 10
-925.9475810068888
 20
-912.0935170773854
 30
0.0
 40
3.000000000000002
100
AcDbArc
 50
0.0
 51
90.0
  0
ARC
  5
17AC21874A3674
330
17AC21874A3665
100
AcDbEntity
  8
0
  6
Continuous
 62
     0
100
AcDbCircle
 10
-925.9475810068888
 20
-936.0935170773855
 30
0.0
 40
3.000000000000002
100
AcDbArc
 50
270.0
 51
0.0
  0
ARC
  5
17AC21874A3675
330
17AC21874A3665
100
AcDbEntity
  8
0
  6
Continuous
 62
     0
100
AcDbCircle
 10
-1096.969996473097
 20
-741.6488218522345
 30
0.0
 40
3.000000000000002
100
AcDbArc
 50
0.0
 51
90.0
  0
LINE
  5
17AC21874A3676
330
17AC21874A3665
100
AcDbEntity
  8
0
  6
Continuous
 62
     0
100
AcDbLine
 10
-1093.969996473097
 20
-741.6488218522345
 30
0.0
 11
-1093.969996473097
 21
-768.6488218522344
 31
0.0
  0
ARC
  5
17AC21874A3677
330
17AC21874A3665
100
AcDbEntity
  8
0
  6
Continuous
 62
     0
100
AcDbCircle
 10
-1120.969996473097
 20
-741.6488218522345
 30
0.0
 40
3.000000000000002
100
AcDbArc
 50
90.0
 51
180.0
  0
LINE
  5
17AC21874A3678
330
17AC21874A3665
100
AcDbEntity
  8
0
  6
Continuous
 62
     0
100
AcDbLine
 10
-1096.969996473097
 20
-738.6488218522345
 30
0.0
 11
-1120.969996473097
 21
-738.6488218522345
 31
0.0
  0
LINE
  5
17AC21874A3679
330
17AC21874A3665
100
AcDbEntity
  8
0
  6
Continuous
 62
     0
100
AcDbLine
 10
-1123.969996473097
 20
647.1005886978273
 30
0.0
 11
-1123.969996473097
 21
1127.905189999135
 31
0.0
  0
ARC
  5
17AC21874A367A
330
17AC21874A3665
100
AcDbEntity
  8
0
  6
Continuous
 62
     0
100
AcDbCircle
 10
-1096.969996473097
 20
930.4944136802651
 30
0.0
 40
3.000000000000002
100
AcDbArc
 50
270.0
 51
0.0
  0
ARC
  5
17AC21874A367B
330
17AC21874A3665
100
AcDbEntity
  8
0
  6
Continuous
 62
     0
100
AcDbCircle
 10
-1120.969996473097
 20
930.4944136802651
 30
0.0
 40
3.000000000000002
100
AcDbArc
 50
180.0
 51
270.0
  0
LINE
  5
17AC21874A367C
330
17AC21874A3665
100
AcDbEntity
  8
0
  6
Continuous
 62
     0
100
AcDbLine
 10
-1096.969996473097
 20
927.494413680265
 30
0.0
 11
-1120.969996473097
 21
927.494413680265
 31
0.0
  0
LINE
  5
17AC21874A367D
330
17AC21874A3665
100
AcDbEntity
  8
0
  6
Continuous
 62
     0
100
AcDbLine
 10
-1093.969996473097
 20
930.4944136802651
 30
0.0
 11
-1093.969996473097
 21
957.4944136802651
 31
0.0
  0
LINE
  5
17AC21874A367E
330
17AC21874A3665
100
AcDbEntity
  8
0
  6
Continuous
 62
     0
100
AcDbLine
 10
-924.4520541625844
 20
1100.811112991753
 30
0.0
 11
-924.4520541625844
 21
1124.811112991753
 31
0.0
  0
LINE
  5
17AC21874A367F
330
17AC21874A3665
100
AcDbEntity
  8
0
  6
Continuous
 62
     0
100
AcDbLine
 10
-954.4520541625843
 20
1097.811112991753
 30
0.0
 11
-927.4520541625843
 21
1097.811112991753
 31
0.0
  0
ARC
  5
17AC21874A3680
330
17AC21874A3665
100
AcDbEntity
  8
0
  6
Continuous
 62
     0
100
AcDbCircle
 10
-927.4520541625843
 20
1100.811112991753
 30
0.0
 40
3.000000000000002
100
AcDbArc
 50
270.0
 51
0.0
  0
LINE
  5
17AC21874A3681
330
17AC21874A3665
100
AcDbEntity
  8
0
  6
Continuous
 62
     0
100
AcDbLine
 10
-1124.035039239636
 20
1127.811112991753
 30
0.0
 11
-927.1128530240348
 21
1127.811112991753
 31
0.0
  0
ARC
  5
17AC21874A3682
330
17AC21874A3665
100
AcDbEntity
  8
0
  6
Continuous
 62
     0
100
AcDbCircle
 10
-927.4520541625843
 20
1124.811112991753
 30
0.0
 40
3.000000000000002
100
AcDbArc
 50
0.0
 51
90.0
  0
LINE
  5
17AC21874A3683
330
17AC21874A3665
100
AcDbEntity
  8
0
  6
Continuous
 62
     0
100
AcDbLine
 10
1138.705895978706
 20
1135.811112991753
 30
0.0
 11
1139.146131479316
 21
-947.0935170773854
 31
0.0
  0
LINE
  5
17AC21874A3684
330
17AC21874A3665
100
AcDbEntity
  8
0
 62
     0
100
AcDbLine
 10
1130.705895978706
 20
926.933500700894
 30
0.0
 11
1130.739806078563
 21
-738.3429482079618
 31
0.0
  0
LINE
  5
17AC21874A3685
330
17AC21874A3665
100
AcDbEntity
  8
0
 62
     0
100
AcDbLine
 10
1100.63902578638
 20
-738.3429482079618
 30
0.0
 11
1100.63902578638
 21
928.149451793477
 31
0.0
  0
LINE
  5
17AC21874A3686
330
17AC21874A3665
100
AcDbEntity
  8
ASSE
 62
     0
100
AcDbLine
 10
0.0
 20
439.320071798249
 30
0.0
 11
0.0
 21
-435.4174263639524
 31
0.0
  0
LINE
  5
17AC21874A3687
330
17AC21874A3665
100
AcDbEntity
  8
0
  6
Continuous
 62
     0
100
AcDbLine
 10
1130.739806078563
 20
-738.3429482079618
 30
0.0
 11
1130.705895978706
 21
-939.1488732648658
 31
0.0
  0
LINE
  5
17AC21874A3688
330
17AC21874A3665
100
AcDbEntity
  8
0
 62
     0
100
AcDbLine
 10
635.1324284063121
 20
-738.3429482079618
 30
0.0
 11
635.1324284063121
 21
-938.9284495002984
 31
0.0
  0
TEXT
  5
17AC21874A3689
330
17AC21874A3665
100
AcDbEntity
  8
0
 62
     0
100
AcDbText
 10
683.8087521780781
 20
-904.1367722769619
 30
0.0
 40
50.0
  1
elettrico
100
AcDbText
  0
LINE
  5
17AC21874A368A
330
17AC21874A3665
100
AcDbEntity
  8
0
  6
Continuous
 62
     0
100
AcDbLine
 10
1130.44129677015
 20
-939.0935170773856
 30
0.0
 11
514.5847709555091
 21
-939.0935170773856
 31
0.0
  0
LINE
  5
17AC21874A368B
330
17AC21874A3665
100
AcDbEntity
  8
ASSE
 62
     0
100
AcDbLine
 10
433.3612615641832
 20
0.0
 30
0.0
 11
-438.8957841030951
 21
0.0
 31
0.0
  0
LINE
  5
17AC21874A368C
330
17AC21874A3665
100
AcDbEntity
  8
0
 62
     0
100
AcDbLine
 10
1130.739806078563
 20
-738.3429482079618
 30
0.0
 11
635.1324284063121
 21
-738.3429482079618
 31
0.0
  0
TEXT
  5
17AC21874A368D
330
17AC21874A3665
100
AcDbEntity
  8
0
 62
     0
100
AcDbText
 10
683.8087521780781
 20
-820.8034389436289
 30
0.0
 40
50.0
  1
 Quadro 
100
AcDbText
  0
LINE
  5
17AC21874A368E
330
17AC21874A3665
100
AcDbEntity
  8
0
  6
Continuous
 62
     0
100
AcDbLine
 10
1129.779588802397
 20
931.1878735490045
 30
0.0
 11
1129.779588802397
 21
1128.754749783642
 31
0.0
  0
ARC
  5
17AC21874A368F
330
17AC21874A3665
100
AcDbEntity
  8
0
  6
Continuous
 62
     0
100
AcDbCircle
 10
1126.779588802397
 20
931.4576975439594
 30
0.0
 40
3.000000000000002
100
AcDbArc
 50
270.0
 51
0.0
  0
LINE
  5
17AC21874A3690
330
17AC21874A3665
100
AcDbEntity
  8
0
  6
Continuous
 62
     0
100
AcDbLine
 10
1126.779588802397
 20
928.4576975439595
 30
0.0
 11
1102.779588802397
 21
928.4576975439595
 31
0.0
  0
ARC
  5
17AC21874A3691
330
17AC21874A3665
100
AcDbEntity
  8
0
  6
Continuous
 62
     0
100
AcDbCircle
 10
1102.779588802397
 20
931.4576975439594
 30
0.0
 40
3.000000000000002
100
AcDbArc
 50
180.0
 51
270.0
  0
LINE
  5
17AC21874A3692
330
17AC21874A3665
100
AcDbEntity
  8
0
  6
Continuous
 62
     0
100
AcDbLine
 10
1099.779588802397
 20
931.4576975439594
 30
0.0
 11
1099.779588802397
 21
955.4576975439594
 31
0.0
  0
LINE
  5
17AC21874A3693
330
17AC21874A3665
100
AcDbEntity
  8
0
  6
Continuous
 62
     0
100
AcDbLine
 10
1129.779588802397
 20
1128.735922699564
 30
0.0
 11
931.875584534846
 21
1128.735922699564
 31
0.0
  0
LINE
  5
17AC21874A3694
330
17AC21874A3665
100
AcDbEntity
  8
0
  6
Continuous
 62
     0
100
AcDbLine
 10
929.5576975916866
 20
1125.735922699564
 30
0.0
 11
929.5576975916866
 21
1101.735922699564
 31
0.0
  0
ARC
  5
17AC21874A3695
330
17AC21874A3665
100
AcDbEntity
  8
0
  6
Continuous
 62
     0
100
AcDbCircle
 10
932.5576975916865
 20
1101.735922699564
 30
0.0
 40
3.000000000000002
100
AcDbArc
 50
180.0
 51
270.0
  0
LINE
  5
17AC21874A3696
330
17AC21874A3665
100
AcDbEntity
  8
0
  6
Continuous
 62
     0
100
AcDbLine
 10
932.5576975916865
 20
1098.735922699564
 30
0.0
 11
959.5576975916864
 21
1098.735922699564
 31
0.0
  0
ARC
  5
17AC21874A3697
330
17AC21874A3665
100
AcDbEntity
  8
0
  6
Continuous
 62
     0
100
AcDbCircle
 10
932.5576975916865
 20
1125.735922699564
 30
0.0
 40
3.000000000000002
100
AcDbArc
 50
90.0
 51
180.0
  0
ENDBLK
  5
17AC21874A3699
330
17AC21874A3665
100
AcDbEntity
  8
0
100
AcDbBlockEnd
  0
BLOCK
  5
17AC21874A36DC
330
17AC21874A36D2
100
AcDbEntity
  8
0
100
AcDbBlockBegin
  2
*D8
 70
     1
 10
0.0
 20
0.0
 30
0.0
  3
*D8
  1

  0
LINE
  5
17AC21874A3729
330
17AC21874A36D2
100
AcDbEntity
  8
QUOTA
370
    -2
100
AcDbLine
 10
557.6824898446812
 20
504.199999999992
 30
0.0
 11
557.6824898446812
 21
269.8
 31
0.0
  0
LINE
  5
17AC21874A372A
330
17AC21874A36D2
100
AcDbEntity
  8
QUOTA
370
    -2
100
AcDbLine
 10
2657.862755503056
 20
504.199999999992
 30
0.0
 11
2657.862755503056
 21
269.8
 31
0.0
  0
LINE
  5
17AC21874A372B
330
17AC21874A36D2
100
AcDbEntity
  8
QUOTA
370
    -2
100
AcDbLine
 10
587.6824898446812
 20
289.8
 30
0.0
 11
2627.862755503056
 21
289.8
 31
0.0
  0
SOLID
  5
17AC21874A372C
330
17AC21874A36D2
100
AcDbEntity
  8
QUOTA
100
AcDbTrace
 10
587.6824898446812
 20
294.8
 30
0.0
 11
587.6824898446812
 21
284.8
 31
0.0
 12
557.6824898446812
 22
289.8
 32
0.0
 13
557.6824898446812
 23
289.8
 33
0.0
  0
SOLID
  5
17AC21874A372D
330
17AC21874A36D2
100
AcDbEntity
  8
QUOTA
100
AcDbTrace
 10
2627.862755503056
 20
294.8
 30
0.0
 11
2627.862755503056
 21
284.8
 31
0.0
 12
2657.862755503056
 22
289.8
 32
0.0
 13
2657.862755503056
 23
289.8
 33
0.0
  0
MTEXT
  5
17AC21874A372E
330
17AC21874A36D2
100
AcDbEntity
  8
QUOTA
 62
   254
100
AcDbMText
 10
1607.772622673868
 20
314.8
 30
0.0
 40
30.0
 41
0.0
 71
     5
 72
     1
  1
\A1;2100 mm
  7
ROMANS
 73
     1
 44
1.0
1001
ACAD
1000
MTEXTBEGIN
1070
    73
1070
     1
1070
    44
1040
1.0
1070
    74
1070
     0
1000
MTEXTEND
  0
POINT
  5
17AC21874A372F
330
17AC21874A36D2
100
AcDbEntity
  8
DEFPOINTS
 62
     0
100
AcDbPoint
 10
557.6824898446812
 20
524.199999999992
 30
0.0
  0
POINT
  5
17AC21874A3730
330
17AC21874A36D2
100
AcDbEntity
  8
DEFPOINTS
 62
     0
100
AcDbPoint
 10
2657.862755503056
 20
524.199999999992
 30
0.0
  0
POINT
  5
17AC21874A3731
330
17AC21874A36D2
100
AcDbEntity
  8
DEFPOINTS
 62
     0
100
AcDbPoint
 10
2657.862755503056
 20
289.8
 30
0.0
  0
ENDBLK
  5
17AC21874A36DD
330
17AC21874A36D2
100
AcDbEntity
  8
0
100
AcDbBlockEnd
  0
BLOCK
  5
17AC21874A36F2
330
17AC21874A36E8
100
AcDbEntity
  8
0
100
AcDbBlockBegin
  2
*D9
 70
     1
 10
0.0
 20
0.0
 30
0.0
  3
*D9
  1

  0
LINE
  5
17AC21874A373B
330
17AC21874A36E8
100
AcDbEntity
  8
QUOTA
370
    -2
100
AcDbLine
 10
2677.862755503057
 20
524.199999999992
 30
0.0
 11
3121.600000000001
 21
524.199999999992
 31
0.0
  0
LINE
  5
17AC21874A373C
330
17AC21874A36E8
100
AcDbEntity
  8
QUOTA
370
    -2
100
AcDbLine
 10
3002.082489844682
 20
847.3757281591792
 30
0.0
 11
3121.600000000001
 21
847.3757281591792
 31
0.0
  0
LINE
  5
17AC21874A373D
330
17AC21874A36E8
100
AcDbEntity
  8
QUOTA
370
    -2
100
AcDbLine
 10
3101.600000000001
 20
554.1999999999919
 30
0.0
 11
3101.600000000001
 21
817.3757281591793
 31
0.0
  0
SOLID
  5
17AC21874A373E
330
17AC21874A36E8
100
AcDbEntity
  8
QUOTA
100
AcDbTrace
 10
3096.6
 20
554.1999999999919
 30
0.0
 11
3106.600000000001
 21
554.1999999999919
 31
0.0
 12
3101.600000000001
 22
524.199999999992
 32
0.0
 13
3101.600000000001
 23
524.199999999992
 33
0.0
  0
SOLID
  5
17AC21874A373F
330
17AC21874A36E8
100
AcDbEntity
  8
QUOTA
100
AcDbTrace
 10
3096.6
 20
817.3757281591793
 30
0.0
 11
3106.600000000001
 21
817.3757281591793
 31
0.0
 12
3101.600000000001
 22
847.3757281591792
 32
0.0
 13
3101.600000000001
 23
847.3757281591792
 33
0.0
  0
MTEXT
  5
17AC21874A3740
330
17AC21874A36E8
100
AcDbEntity
  8
QUOTA
 62
   254
100
AcDbMText
 10
3076.600000000001
 20
685.7878640795861
 30
0.0
 40
30.0
 41
0.0
 71
     5
 72
     1
  1
\A1;320 mm
  7
ROMANS
 11
0.0000000000000001
 21
1.0
 31
0.0
 73
     1
 44
1.0
1001
ACAD
1000
MTEXTBEGIN
1070
    73
1070
     1
1070
    44
1040
1.0
1070
    74
1070
     0
1000
MTEXTEND
  0
POINT
  5
17AC21874A3741
330
17AC21874A36E8
100
AcDbEntity
  8
DEFPOINTS
 62
     0
100
AcDbPoint
 10
2657.862755503056
 20
524.199999999992
 30
0.0
  0
POINT
  5
17AC21874A3742
330
17AC21874A36E8
100
AcDbEntity
  8
DEFPOINTS
 62
     0
100
AcDbPoint
 10
2982.082489844682
 20
847.3757281591792
 30
0.0
  0
POINT
  5
17AC21874A3743
330
17AC21874A36E8
100
AcDbEntity
  8
DEFPOINTS
 62
     0
100
AcDbPoint
 10
3101.600000000001
 20
847.3757281591792
 30
0.0
  0
ENDBLK
  5
17AC21874A36F3
330
17AC21874A36E8
100
AcDbEntity
  8
0
100
AcDbBlockEnd
  0
BLOCK
  5
17AC21874A3708
330
17AC21874A36FE
100
AcDbEntity
  8
0
100
AcDbBlockBegin
  2
*D10
 70
     1
 10
0.0
 20
0.0
 30
0.0
  3
*D10
  1

  0
LINE
  5
17AC21874A374D
330
17AC21874A36FE
100
AcDbEntity
  8
QUOTA
370
    -2
100
AcDbLine
 10
3002.082489844682
 20
847.3757281591792
 30
0.0
 11
3121.0
 21
847.3757281591792
 31
0.0
  0
LINE
  5
17AC21874A374E
330
17AC21874A36FE
100
AcDbEntity
  8
QUOTA
370
    -2
100
AcDbLine
 10
2677.957356489753
 20
2074.810410833901
 30
0.0
 11
3121.0
 21
2074.810410833901
 31
0.0
  0
LINE
  5
17AC21874A374F
330
17AC21874A36FE
100
AcDbEntity
  8
QUOTA
370
    -2
100
AcDbLine
 10
3100.999999999999
 20
877.3757281591793
 30
0.0
 11
3101.0
 21
2044.810410833901
 31
0.0
  0
SOLID
  5
17AC21874A3750
330
17AC21874A36FE
100
AcDbEntity
  8
QUOTA
100
AcDbTrace
 10
3096.0
 20
877.3757281591793
 30
0.0
 11
3106.0
 21
877.3757281591793
 31
0.0
 12
3100.999999999999
 22
847.3757281591792
 32
0.0
 13
3100.999999999999
 23
847.3757281591792
 33
0.0
  0
SOLID
  5
17AC21874A3751
330
17AC21874A36FE
100
AcDbEntity
  8
QUOTA
100
AcDbTrace
 10
3096.0
 20
2044.810410833901
 30
0.0
 11
3106.0
 21
2044.810410833901
 31
0.0
 12
3101.0
 22
2074.810410833901
 32
0.0
 13
3101.0
 23
2074.810410833901
 33
0.0
  0
MTEXT
  5
17AC21874A3752
330
17AC21874A36FE
100
AcDbEntity
  8
QUOTA
 62
   254
100
AcDbMText
 10
3076.0
 20
1461.093069496541
 30
0.0
 40
30.0
 41
0.0
 71
     5
 72
     1
  1
\A1;1230 mm
  7
ROMANS
 11
0.0000000000000001
 21
1.0
 31
0.0
 73
     1
 44
1.0
1001
ACAD
1000
MTEXTBEGIN
1070
    73
1070
     1
1070
    44
1040
1.0
1070
    74
1070
     0
1000
MTEXTEND
  0
POINT
  5
17AC21874A3753
330
17AC21874A36FE
100
AcDbEntity
  8
DEFPOINTS
 62
     0
100
AcDbPoint
 10
2982.082489844682
 20
847.3757281591792
 30
0.0
  0
POINT
  5
17AC21874A3754
330
17AC21874A36FE
100
AcDbEntity
  8
DEFPOINTS
 62
     0
100
AcDbPoint
 10
2657.957356489753
 20
2074.810410833901
 30
0.0
  0
POINT
  5
17AC21874A3755
330
17AC21874A36FE
100
AcDbEntity
  8
DEFPOINTS
 62
     0
100
AcDbPoint
 10
3101.0
 20
2074.810410833901
 30
0.0
  0
ENDBLK
  5
17AC21874A3709
330
17AC21874A36FE
100
AcDbEntity
  8
0
100
AcDbBlockEnd
  0
BLOCK
  5
17AC21874A371E
330
17AC21874A3714
100
AcDbEntity
  8
0
100
AcDbBlockBegin
  2
*D11
 70
     1
 10
0.0
 20
0.0
 30
0.0
  3
*D11
  1

  0
LINE
  5
17AC21874A3744
330
17AC21874A3714
100
AcDbEntity
  8
QUOTA
370
    -2
100
AcDbLine
 10
3121.600000000001
 20
524.199999999992
 30
0.0
 11
3291.8
 21
524.199999999992
 31
0.0
  0
LINE
  5
17AC21874A3745
330
17AC21874A3714
100
AcDbEntity
  8
QUOTA
370
    -2
100
AcDbLine
 10
3121.0
 20
2074.810410833901
 30
0.0
 11
3291.8
 21
2074.810410833901
 31
0.0
  0
LINE
  5
17AC21874A3746
330
17AC21874A3714
100
AcDbEntity
  8
QUOTA
370
    -2
100
AcDbLine
 10
3271.8
 20
554.1999999999919
 30
0.0
 11
3271.800000000001
 21
2044.810410833901
 31
0.0
  0
SOLID
  5
17AC21874A3747
330
17AC21874A3714
100
AcDbEntity
  8
QUOTA
100
AcDbTrace
 10
3266.8
 20
554.1999999999919
 30
0.0
 11
3276.8
 21
554.1999999999919
 31
0.0
 12
3271.8
 22
524.199999999992
 32
0.0
 13
3271.8
 23
524.199999999992
 33
0.0
  0
SOLID
  5
17AC21874A3748
330
17AC21874A3714
100
AcDbEntity
  8
QUOTA
100
AcDbTrace
 10
3266.8
 20
2044.810410833901
 30
0.0
 11
3276.8
 21
2044.810410833901
 31
0.0
 12
3271.800000000001
 22
2074.810410833901
 32
0.0
 13
3271.800000000001
 23
2074.810410833901
 33
0.0
  0
MTEXT
  5
17AC21874A3749
330
17AC21874A3714
100
AcDbEntity
  8
QUOTA
 62
   254
100
AcDbMText
 10
3246.8
 20
1299.505205416947
 30
0.0
 40
30.0
 41
0.0
 71
     5
 72
     1
  1
\A1;1550 mm
  7
ROMANS
 11
0.0000000000000001
 21
1.0
 31
0.0
 73
     1
 44
1.0
1001
ACAD
1000
MTEXTBEGIN
1070
    73
1070
     1
1070
    44
1040
1.0
1070
    74
1070
     0
1000
MTEXTEND
  0
POINT
  5
17AC21874A374A
330
17AC21874A3714
100
AcDbEntity
  8
DEFPOINTS
 62
     0
100
AcDbPoint
 10
3101.600000000001
 20
524.199999999992
 30
0.0
  0
POINT
  5
17AC21874A374B
330
17AC21874A3714
100
AcDbEntity
  8
DEFPOINTS
 62
     0
100
AcDbPoint
 10
3101.0
 20
2074.810410833901
 30
0.0
  0
POINT
  5
17AC21874A374C
330
17AC21874A3714
100
AcDbEntity
  8
DEFPOINTS
 62
     0
100
AcDbPoint
 10
3271.800000000001
 20
2074.810410833901
 30
0.0
  0
ENDBLK
  5
17AC21874A371F
330
17AC21874A3714
100
AcDbEntity
  8
0
100
AcDbBlockEnd
  0
BLOCK
  5
17AC21874A3878
330
17AC21874A3876
100
AcDbEntity
  8
0
100
AcDbBlockBegin
  2
GENAXEH
 70
     0
 10
0.0
 20
0.0
 30
0.0
  3
GENAXEH
  1

  0
LINE
  5
17AC21874A3877
330
17AC21874A3876
100
AcDbEntity
  8
0
100
AcDbLine
 10
-1.0
 20
0.0
 30
0.0
 11
1.0
 21
0.0
 31
0.0
  0
ENDBLK
  5
17AC21874A3879
330
17AC21874A3876
100
AcDbEntity
  8
0
100
AcDbBlockEnd
  0
ENDSEC
  0
SECTION
  2
ENTITIES
  0
INSERT
  5
151
330
17AC21874A2FC9
100
AcDbEntity
  8
LINEAFIN
100
AcDbBlockReference
  2
AVE_RENDER
 10
0.0
 20
0.0
 30
0.0
1001
AVE_RENDER
1002
{
1070
     2
1000
Pref
1070
    30
1070
    20
1070
     0
1070
     0
1000

1070
    10
1070
     0
1070
    30
1040
1.0
1070
     1
1040
0.3
1040
0.7
1040
0.0
1040
10.0
1010
-1.0
1020
-1.0
1030
-1.0
1040
0.3
1070
    49
1002
}
  0
INSERT
  5
152
330
17AC21874A2FC9
100
AcDbEntity
  8
LINEAFIN
100
AcDbBlockReference
  2
AVE_RENDER
 10
0.0
 20
0.0
 30
0.0
1001
AVE_RENDER
1002
{
1070
     0
1000
Full Opt
1070
     0
1070
     1
1070
     1
1070
     1
1070
     0
1070
     0
1070
     0
1070
     1
1070
     1
1040
0.0001
1040
0.0001
1002
}
  0
INSERT
  5
153
330
17AC21874A2FC9
100
AcDbEntity
  8
LINEAFIN
100
AcDbBlockReference
  2
AVE_RENDER
 10
0.0
 20
0.0
 30
0.0
1001
AVE_RENDER
1002
{
1070
     0
1000
Quick Opt
1070
     0
1070
     1
1070
     1
1070
     1
1070
     0
1070
     0
1070
     1
1002
}
  0
INSERT
  5
D132099FA66
330
17AC21874A2FC9
100
AcDbEntity
  8
BOLLINI
100
AcDbBlockReference
  2
SCALA1
 10
228.4815022492328
 20
131.7646532168282
 30
0.0
  0
LINE
  5
17AC21874A3055
330
17AC21874A2FC9
100
AcDbEntity
  8
0
100
AcDbLine
 10
388.6
 20
906.2590107189949
 30
0.0
 11
557.6824898446817
 21
906.189606651425
 31
0.0
  0
LINE
  5
17AC21874A3057
330
17AC21874A2FC9
100
AcDbEntity
  8
ASSE
100
AcDbLine
 10
372.0921293551961
 20
847.3757281591792
 30
0.0
 11
937.5803016641937
 21
847.3757281591792
 31
0.0
  0
LINE
  5
17AC21874A306C
330
17AC21874A2FC9
100
AcDbEntity
  8
ASSE
100
AcDbLine
 10
1980.054147338456
 20
1441.112839653254
 30
0.0
 11
1937.054147338456
 21
1441.112839653254
 31
0.0
  0
LINE
  5
17AC21874A306D
330
17AC21874A2FC9
100
AcDbEntity
  8
ASSE
100
AcDbLine
 10
1819.735921172131
 20
1719.685198428965
 30
0.0
 11
1798.186445232804
 21
1682.47471486935
 31
0.0
  0
ARC
  5
17AC21874A3076
330
17AC21874A2FC9
100
AcDbEntity
  8
0
100
AcDbCircle
 10
1658.554147338456
 20
1437.669378142489
 30
0.0
 40
140.0
100
AcDbArc
 50
270.6452267300031
 51
89.13240495185167
  0
CIRCLE
  5
17AC21874A307A
330
17AC21874A2FC9
100
AcDbEntity
  8
COSTRUZIONE
100
AcDbCircle
 10
1838.554147338456
 20
1441.112839653254
 30
0.0
 40
12.5
  0
LINE
  5
17AC21874A307C
330
17AC21874A2FC9
100
AcDbEntity
  8
ASSE
100
AcDbLine
 10
1755.58864395739
 20
1608.919107832903
 30
0.0
 11
1741.556427066665
 21
1584.689025515015
 31
0.0
  0
CIRCLE
  5
17AC21874A307D
330
17AC21874A2FC9
100
AcDbEntity
  8
COSTRUZIONE
100
AcDbCircle
 10
1748.823110813648
 20
1597.23674671535
 30
0.0
 40
12.5
  0
ARC
  5
17AC21874A3084
330
17AC21874A2FC9
100
AcDbEntity
  8
0
100
AcDbCircle
 10
1658.765684557903
 20
1441.193352620645
 30
0.0
 40
364.7815786469605
100
AcDbArc
 50
5.63104432648671
 51
24.28498711434801
  0
ARC
  5
17AC21874A3085
330
17AC21874A2FC9
100
AcDbEntity
  8
ASSE
100
AcDbCircle
 10
1658.554147338456
 20
1441.112839653254
 30
0.0
 40
180.0
100
AcDbArc
 50
270.484670318922
 51
89.40522035566434
  0
CIRCLE
  5
17AC21874A3086
330
17AC21874A2FC9
100
AcDbEntity
  8
COSTRUZIONE
100
AcDbCircle
 10
1838.554147338456
 20
1441.112839653254
 30
0.0
 40
34.0
  0
LINE
  5
17AC21874A3088
330
17AC21874A2FC9
100
AcDbEntity
  8
ASSE
100
AcDbLine
 10
1766.613957228673
 20
1627.957029654101
 30
0.0
 11
1731.032264398621
 21
1566.516463776598
 31
0.0
  0
CIRCLE
  5
17AC21874A3089
330
17AC21874A2FC9
100
AcDbEntity
  8
COSTRUZIONE
100
AcDbCircle
 10
1748.823110813648
 20
1597.23674671535
 30
0.0
 40
34.0
  0
ARC
  5
17AC21874A3091
330
17AC21874A2FC9
100
AcDbEntity
  8
COSTRUZIONE
100
AcDbCircle
 10
1958.554147338456
 20
1441.112839653254
 30
0.0
 40
55.0
100
AcDbArc
 50
40.43369952497068
 51
139.4992555805043
  0
LINE
  5
17AC21874A3093
330
17AC21874A2FC9
100
AcDbEntity
  8
ASSE
100
AcDbLine
 10
1837.276192285537
 20
1749.972801326326
 30
0.0
 11
1780.646174119398
 21
1652.18711197199
 31
0.0
  0
ARC
  5
17AC21874A3094
330
17AC21874A2FC9
100
AcDbEntity
  8
COSTRUZIONE
100
AcDbCircle
 10
1808.961183202468
 20
1701.079956649158
 30
0.0
 40
55.0
100
AcDbArc
 50
98.84311727020785
 51
201.2287829955043
  0
ARC
  5
17AC21874A30AA
330
17AC21874A2FC9
100
AcDbEntity
  8
ASSE
100
AcDbCircle
 10
1658.843886764951
 20
1441.150712109304
 30
0.0
 40
300.0
100
AcDbArc
 50
270.2785100095699
 51
89.68255240707092
  0
CIRCLE
  5
17AC21874A30AC
330
17AC21874A2FC9
100
AcDbEntity
  8
COSTRUZIONE
100
AcDbCircle
 10
1958.843886764951
 20
1441.150712109304
 30
0.0
 40
30.0
  0
LINE
  5
17AC21874A30AE
330
17AC21874A2FC9
100
AcDbEntity
  8
ASSE
100
AcDbLine
 10
1825.038678169252
 20
1728.315216768721
 30
0.0
 11
1793.466190165121
 21
1673.797531553471
 31
0.0
  0
CIRCLE
  5
17AC21874A30AF
330
17AC21874A2FC9
100
AcDbEntity
  8
COSTRUZIONE
100
AcDbCircle
 10
1809.252434167187
 20
1701.056374161096
 30
0.0
 40
30.0
  0
ARC
  5
17AC21874A30C2
330
17AC21874A2FC9
100
AcDbEntity
  8
COSTRUZIONE
100
AcDbCircle
 10
1958.554147338456
 20
1441.112839653254
 30
0.0
 40
55.0
100
AcDbArc
 50
218.8205344738233
 51
320.7499217354443
  0
LINE
  5
17AC21874A30C4
330
17AC21874A2FC9
100
AcDbEntity
  8
0
100
AcDbLine
 10
1705.864763403148
 20
1591.665571536645
 30
0.0
 11
1709.52805642642
 21
1578.006132154825
 31
0.0
  0
LINE
  5
17AC21874A30C5
330
17AC21874A2FC9
100
AcDbEntity
  8
0
100
AcDbLine
 10
1705.864763403148
 20
1591.665571536645
 30
0.0
 11
1816.322180665105
 21
1783.081764612931
 31
0.0
  0
LINE
  5
17AC21874A30C6
330
17AC21874A2FC9
100
AcDbEntity
  8
0
100
AcDbLine
 10
1731.815549665321
 20
1565.145052322194
 30
0.0
 11
1709.52805642642
 21
1578.006132154825
 31
0.0
  0
LINE
  5
17AC21874A30C7
330
17AC21874A2FC9
100
AcDbEntity
  8
0
100
AcDbLine
 10
1752.916506620079
 20
1552.851312582168
 30
0.0
 11
1731.480815621195
 21
1565.220856803636
 31
0.0
  0
LINE
  5
17AC21874A30C8
330
17AC21874A2FC9
100
AcDbEntity
  8
0
100
AcDbLine
 10
1766.5759460019
 20
1556.514605605441
 30
0.0
 11
1752.916506620079
 21
1552.851312582168
 31
0.0
  0
LINE
  5
17AC21874A30C9
330
17AC21874A2FC9
100
AcDbEntity
  8
0
100
AcDbLine
 10
1877.084166422323
 20
1748.018837560697
 30
0.0
 11
1766.5759460019
 21
1556.514605605441
 31
0.0
  0
LINE
  5
17AC21874A30CA
330
17AC21874A2FC9
100
AcDbEntity
  8
0
100
AcDbLine
 10
1877.084166422323
 20
1748.018837560697
 30
0.0
 11
1873.42087339905
 21
1761.678276942518
 31
0.0
  0
LINE
  5
17AC21874A30CB
330
17AC21874A2FC9
100
AcDbEntity
  8
0
100
AcDbLine
 10
1829.981620046926
 20
1786.745057636204
 30
0.0
 11
1873.42087339905
 21
1761.678276942518
 31
0.0
  0
LINE
  5
17AC21874A30CC
330
17AC21874A2FC9
100
AcDbEntity
  8
0
100
AcDbLine
 10
1829.981620046926
 20
1786.745057636204
 30
0.0
 11
1816.322180665105
 21
1783.081764612931
 31
0.0
  0
LINE
  5
17AC21874A30CD
330
17AC21874A2FC9
100
AcDbEntity
  8
0
100
AcDbLine
 10
1813.148501580166
 20
1476.832905444153
 30
0.0
 11
2034.148501580166
 21
1476.832905444153
 31
0.0
  0
LINE
  5
17AC21874A30CE
330
17AC21874A2FC9
100
AcDbEntity
  8
0
100
AcDbLine
 10
2044.148501580167
 20
1466.832905444153
 30
0.0
 11
2044.148501580167
 21
1416.680016931772
 31
0.0
  0
LINE
  5
17AC21874A30CF
330
17AC21874A2FC9
100
AcDbEntity
  8
0
100
AcDbLine
 10
2044.148501580167
 20
1466.832905444153
 30
0.0
 11
2034.148501580166
 21
1476.832905444153
 31
0.0
  0
LINE
  5
17AC21874A30D0
330
17AC21874A2FC9
100
AcDbEntity
  8
0
100
AcDbLine
 10
2034.148501580166
 20
1406.680016931771
 30
0.0
 11
1813.046856092709
 21
1406.680016931771
 31
0.0
  0
LINE
  5
17AC21874A30D1
330
17AC21874A2FC9
100
AcDbEntity
  8
0
100
AcDbLine
 10
2034.148501580166
 20
1406.680016931771
 30
0.0
 11
2044.148501580167
 21
1416.680016931772
 31
0.0
  0
LINE
  5
17AC21874A30D2
330
17AC21874A2FC9
100
AcDbEntity
  8
0
100
AcDbLine
 10
1813.148501580166
 20
1476.832905444153
 30
0.0
 11
1803.148501580166
 21
1466.832905444153
 31
0.0
  0
LINE
  5
17AC21874A30D3
330
17AC21874A2FC9
100
AcDbEntity
  8
0
100
AcDbLine
 10
1803.148501580166
 20
1441.100829559464
 30
0.0
 11
1803.148501580166
 21
1466.832905444153
 31
0.0
  0
LINE
  5
17AC21874A30D4
330
17AC21874A2FC9
100
AcDbEntity
  8
0
100
AcDbLine
 10
1803.046856092709
 20
1416.680016931771
 30
0.0
 11
1803.046856092709
 21
1441.428642607685
 31
0.0
  0
LINE
  5
17AC21874A30D5
330
17AC21874A2FC9
100
AcDbEntity
  8
0
100
AcDbLine
 10
1813.046856092709
 20
1406.680016931771
 30
0.0
 11
1803.046856092709
 21
1416.680016931771
 31
0.0
  0
LINE
  5
17AC21874A30E1
330
17AC21874A2FC9
100
AcDbEntity
  8
0
100
AcDbLine
 10
1705.864763403148
 20
1591.665571536645
 30
0.0
 11
1709.52805642642
 21
1578.006132154825
 31
0.0
  0
LINE
  5
17AC21874A30E2
330
17AC21874A2FC9
100
AcDbEntity
  8
0
100
AcDbLine
 10
1731.815549665321
 20
1565.145052322194
 30
0.0
 11
1709.52805642642
 21
1578.006132154825
 31
0.0
  0
LINE
  5
17AC21874A30E3
330
17AC21874A2FC9
100
AcDbEntity
  8
0
100
AcDbLine
 10
1752.916506620079
 20
1552.851312582168
 30
0.0
 11
1731.480815621195
 21
1565.220856803636
 31
0.0
  0
LINE
  5
17AC21874A30E4
330
17AC21874A2FC9
100
AcDbEntity
  8
0
100
AcDbLine
 10
1766.5759460019
 20
1556.514605605441
 30
0.0
 11
1752.916506620079
 21
1552.851312582168
 31
0.0
  0
LINE
  5
17AC21874A30E7
330
17AC21874A2FC9
100
AcDbEntity
  8
0
100
AcDbLine
 10
1877.084166422323
 20
1748.018837560697
 30
0.0
 11
1873.42087339905
 21
1761.678276942518
 31
0.0
  0
LINE
  5
17AC21874A30E8
330
17AC21874A2FC9
100
AcDbEntity
  8
0
100
AcDbLine
 10
1829.981620046926
 20
1786.745057636204
 30
0.0
 11
1873.42087339905
 21
1761.678276942518
 31
0.0
  0
LINE
  5
17AC21874A30E9
330
17AC21874A2FC9
100
AcDbEntity
  8
0
100
AcDbLine
 10
1829.981620046926
 20
1786.745057636204
 30
0.0
 11
1816.322180665105
 21
1783.081764612931
 31
0.0
  0
ARC
  5
17AC21874A30F8
330
17AC21874A2FC9
100
AcDbEntity
  8
COSTRUZIONE
100
AcDbCircle
 10
1808.961183202468
 20
1701.079956649158
 30
0.0
 40
55.0
100
AcDbArc
 50
280.2067247493985
 51
19.71410261505305
  0
LINE
  5
17AC21874A3108
330
17AC21874A2FC9
100
AcDbEntity
  8
0
100
AcDbLine
 10
2059.352922052017
 20
906.2590107189949
 30
0.0
 11
2619.224707530508
 21
906.2590107189949
 31
0.0
  0
CIRCLE
  5
17AC21874A3112
330
17AC21874A2FC9
100
AcDbEntity
  8
0
100
AcDbCircle
 10
1940.687956579408
 20
1043.635679743156
 30
0.0
 40
40.0
  0
LINE
  5
17AC21874A3114
330
17AC21874A2FC9
100
AcDbEntity
  8
ASSE
100
AcDbLine
 10
1967.206669358975
 20
1239.202553852365
 30
0.0
 11
1911.596815098052
 21
843.9384596260254
 31
0.0
  0
LINE
  5
17AC21874A3115
330
17AC21874A2FC9
100
AcDbEntity
  8
ASSE
100
AcDbLine
 10
1744.921772335437
 20
1070.978097923924
 30
0.0
 11
2139.465924368888
 21
1015.469532601226
 31
0.0
  0
LINE
  5
17AC21874A3116
330
17AC21874A2FC9
100
AcDbEntity
  8
ASSE
100
AcDbLine
 10
1939.401742228513
 20
1041.570506739195
 30
0.0
 11
1906.827911299259
 21
794.1161022096235
 31
0.0
  0
ARC
  5
17AC21874A311D
330
17AC21874A2FC9
100
AcDbEntity
  8
0
100
AcDbCircle
 10
2118.359569845232
 20
1116.462642470023
 30
0.0
 40
35.0
100
AcDbArc
 50
116.9653074890324
 51
286.741244775389
  0
ARC
  5
17AC21874A311F
330
17AC21874A2FC9
100
AcDbEntity
  8
0
100
AcDbCircle
 10
1915.493691788898
 20
856.2473171233463
 30
0.0
 40
35.0
100
AcDbArc
 50
354.5719963857349
 51
168.075098085815
  0
ARC
  5
17AC21874A3125
330
17AC21874A2FC9
100
AcDbEntity
  8
0
100
AcDbCircle
 10
1941.046168025717
 20
1045.245942022611
 30
0.0
 40
191.183764837527
100
AcDbArc
 50
273.2146219336708
 51
310.3163268801644
  0
ARC
  5
17AC21874A3127
330
17AC21874A2FC9
100
AcDbEntity
  8
0
100
AcDbCircle
 10
1658.554147338456
 20
1441.112839653254
 30
0.0
 40
365.0
100
AcDbArc
 50
335.9543734027685
 51
354.586700965554
  0
LINE
  5
17AC21874A312E
330
17AC21874A2FC9
100
AcDbEntity
  8
ASSE
100
AcDbLine
 10
1856.082489844682
 20
847.3757281591792
 30
0.0
 11
2982.082489844682
 21
847.3757281591792
 31
0.0
  0
LINE
  5
17AC21874A315C
330
17AC21874A2FC9
100
AcDbEntity
  8
0
100
AcDbLine
 10
1371.320717391673
 20
703.161090652226
 30
0.0
 11
1306.198021676392
 21
703.161090652226
 31
0.0
  0
LINE
  5
17AC21874A315D
330
17AC21874A2FC9
100
AcDbEntity
  8
0
100
AcDbLine
 10
821.3207173916732
 20
703.161090652226
 30
0.0
 11
821.3207173916732
 21
803.161090652226
 31
0.0
  0
LINE
  5
17AC21874A315E
330
17AC21874A2FC9
100
AcDbEntity
  8
0
100
AcDbLine
 10
821.3207173916732
 20
803.161090652226
 30
0.0
 11
938.4143082054476
 21
803.161090652226
 31
0.0
  0
LINE
  5
17AC21874A3162
330
17AC21874A2FC9
100
AcDbEntity
  8
0
100
AcDbLine
 10
821.1128414486671
 20
785.3933269204413
 30
0.0
 11
815.6535189793636
 21
785.3933269204413
 31
0.0
  0
LINE
  5
17AC21874A3172
330
17AC21874A2FC9
100
AcDbEntity
  8
0
100
AcDbLine
 10
993.085982444593
 20
1033.026480053194
 30
0.0
 11
993.085982444593
 21
963.0264800531945
 31
0.0
  0
LINE
  5
17AC21874A3173
330
17AC21874A2FC9
100
AcDbEntity
  8
0
100
AcDbLine
 10
993.085982444593
 20
963.0264800531945
 30
0.0
 11
1443.085982444593
 21
963.0264800531945
 31
0.0
  0
LINE
  5
17AC21874A3174
330
17AC21874A2FC9
100
AcDbEntity
  8
0
100
AcDbLine
 10
1443.085982444593
 20
963.0264800531945
 30
0.0
 11
1443.085982444593
 21
1033.026480053194
 31
0.0
  0
LINE
  5
17AC21874A3175
330
17AC21874A2FC9
100
AcDbEntity
  8
0
100
AcDbLine
 10
1443.085982444593
 20
1033.026480053194
 30
0.0
 11
993.085982444593
 21
1033.026480053194
 31
0.0
  0
LINE
  5
17AC21874A3176
330
17AC21874A2FC9
100
AcDbEntity
  8
0
100
AcDbLine
 10
992.93139678122
 20
1032.627408590371
 30
0.0
 11
992.93139678122
 21
1122.627408590371
 31
0.0
  0
LINE
  5
17AC21874A3177
330
17AC21874A2FC9
100
AcDbEntity
  8
0
100
AcDbLine
 10
992.93139678122
 20
1122.627408590371
 30
0.0
 11
1142.93139678122
 21
1122.627408590371
 31
0.0
  0
LINE
  5
17AC21874A3178
330
17AC21874A2FC9
100
AcDbEntity
  8
0
100
AcDbLine
 10
1142.93139678122
 20
1122.627408590371
 30
0.0
 11
1142.93139678122
 21
1031.810644763896
 31
0.0
  0
LINE
  5
17AC21874A317E
330
17AC21874A2FC9
100
AcDbEntity
  8
0
100
AcDbLine
 10
1000.28754719169
 20
952.3395277670866
 30
0.0
 11
1198.086415864426
 21
952.3395277670866
 31
0.0
  0
LINE
  5
17AC21874A317F
330
17AC21874A2FC9
100
AcDbEntity
  8
0
100
AcDbLine
 10
1198.086415864426
 20
952.3395277670866
 30
0.0
 11
1198.086415864426
 21
752.3395277670865
 31
0.0
  0
LINE
  5
17AC21874A3180
330
17AC21874A2FC9
100
AcDbEntity
  8
0
100
AcDbLine
 10
1198.086415864426
 20
752.3395277670865
 30
0.0
 11
1148.228022402182
 21
752.3395277670865
 31
0.0
  0
LINE
  5
17AC21874A3181
330
17AC21874A2FC9
100
AcDbEntity
  8
0
100
AcDbLine
 10
1148.228022402182
 20
752.3395277670865
 30
0.0
 11
1148.228022402182
 21
952.0945019383775
 31
0.0
  0
LINE
  5
17AC21874A3183
330
17AC21874A2FC9
100
AcDbEntity
  8
ASSE
100
AcDbLine
 10
1172.748545127505
 20
968.4297784678824
 30
0.0
 11
1172.748545127505
 21
739.7359070548096
 31
0.0
  0
LINE
  5
17AC21874A3184
330
17AC21874A2FC9
100
AcDbEntity
  8
0
100
AcDbLine
 10
1148.228022402182
 20
751.9873644519389
 30
0.0
 11
1000.28754719169
 21
751.9873644519389
 31
0.0
  0
LINE
  5
17AC21874A3186
330
17AC21874A2FC9
100
AcDbEntity
  8
0
100
AcDbLine
 10
1000.28754719169
 20
952.3395277670866
 30
0.0
 11
938.1688969433049
 21
952.3395277670866
 31
0.0
  0
LINE
  5
17AC21874A3187
330
17AC21874A2FC9
100
AcDbEntity
  8
0
100
AcDbLine
 10
938.1688969433049
 20
952.3395277670866
 30
0.0
 11
938.1688969433049
 21
751.9873644519389
 31
0.0
  0
LINE
  5
17AC21874A3188
330
17AC21874A2FC9
100
AcDbEntity
  8
0
100
AcDbLine
 10
938.1688969433049
 20
751.9873644519389
 30
0.0
 11
1000.28754719169
 21
751.9873644519389
 31
0.0
  0
LINE
  5
17AC21874A3189
330
17AC21874A2FC9
100
AcDbEntity
  8
0
100
AcDbLine
 10
1187.966697761575
 20
963.1245200733797
 30
0.0
 11
1187.966697761575
 21
952.1967841235804
 31
0.0
  0
LINE
  5
17AC21874A318A
330
17AC21874A2FC9
100
AcDbEntity
  8
0
100
AcDbLine
 10
1157.462147440078
 20
963.1245200733797
 30
0.0
 11
1157.462147440078
 21
952.1967841235804
 31
0.0
  0
LINE
  5
17AC21874A318D
330
17AC21874A2FC9
100
AcDbEntity
  8
0
100
AcDbLine
 10
1257.896907839646
 20
938.3933249842225
 30
0.0
 11
1198.038948207947
 21
938.3933249842225
 31
0.0
  0
LINE
  5
17AC21874A318E
330
17AC21874A2FC9
100
AcDbEntity
  8
0
100
AcDbLine
 10
1198.038948207947
 20
938.3933249842225
 30
0.0
 11
1198.038948207947
 21
778.3933249842225
 31
0.0
  0
LINE
  5
17AC21874A318F
330
17AC21874A2FC9
100
AcDbEntity
  8
0
100
AcDbLine
 10
1198.038948207947
 20
778.3933249842225
 30
0.0
 11
1257.896907839646
 21
778.3933249842225
 31
0.0
  0
LINE
  5
17AC21874A3190
330
17AC21874A2FC9
100
AcDbEntity
  8
0
100
AcDbLine
 10
1257.896907839646
 20
938.3933249842225
 30
0.0
 11
1317.754867471346
 21
938.3933249842225
 31
0.0
  0
LINE
  5
17AC21874A3191
330
17AC21874A2FC9
100
AcDbEntity
  8
0
100
AcDbLine
 10
1317.754867471346
 20
778.3933249842225
 30
0.0
 11
1257.896907839646
 21
778.3933249842225
 31
0.0
  0
LINE
  5
17AC21874A3192
330
17AC21874A2FC9
100
AcDbEntity
  8
0
100
AcDbLine
 10
1317.754867471346
 20
938.3933249842225
 30
0.0
 11
1317.754867471346
 21
777.3529923306246
 31
0.0
  0
LINE
  5
17AC21874A3199
330
17AC21874A2FC9
100
AcDbEntity
  8
0
100
AcDbLine
 10
1438.621900286924
 20
938.3933249842225
 30
0.0
 11
1438.621900286924
 21
777.3529923306246
 31
0.0
  0
LINE
  5
17AC21874A319A
330
17AC21874A2FC9
100
AcDbEntity
  8
0
100
AcDbLine
 10
1378.763940655225
 20
938.3933249842225
 30
0.0
 11
1438.621900286924
 21
938.3933249842225
 31
0.0
  0
LINE
  5
17AC21874A319B
330
17AC21874A2FC9
100
AcDbEntity
  8
0
100
AcDbLine
 10
1378.763940655225
 20
938.3933249842225
 30
0.0
 11
1318.905981023525
 21
938.3933249842225
 31
0.0
  0
LINE
  5
17AC21874A319C
330
17AC21874A2FC9
100
AcDbEntity
  8
0
100
AcDbLine
 10
1318.905981023525
 20
778.3933249842225
 30
0.0
 11
1378.763940655225
 21
778.3933249842225
 31
0.0
  0
LINE
  5
17AC21874A319D
330
17AC21874A2FC9
100
AcDbEntity
  8
0
100
AcDbLine
 10
1438.621900286924
 20
778.3933249842225
 30
0.0
 11
1378.763940655225
 21
778.3933249842225
 31
0.0
  0
LINE
  5
17AC21874A319E
330
17AC21874A2FC9
100
AcDbEntity
  8
0
100
AcDbLine
 10
1279.082594294927
 20
963.056331949911
 30
0.0
 11
1279.082594294927
 21
938.5000162181354
 31
0.0
  0
LINE
  5
17AC21874A319F
330
17AC21874A2FC9
100
AcDbEntity
  8
0
100
AcDbLine
 10
1236.550732011307
 20
963.056331949911
 30
0.0
 11
1236.550732011307
 21
938.5000162181354
 31
0.0
  0
LINE
  5
17AC21874A31A0
330
17AC21874A2FC9
100
AcDbEntity
  8
0
100
AcDbLine
 10
1399.920300775883
 20
963.056331949911
 30
0.0
 11
1399.920300775883
 21
938.5000162181354
 31
0.0
  0
LINE
  5
17AC21874A31A1
330
17AC21874A2FC9
100
AcDbEntity
  8
0
100
AcDbLine
 10
1357.388438492262
 20
963.056331949911
 30
0.0
 11
1357.388438492262
 21
938.5000162181354
 31
0.0
  0
LINE
  5
17AC21874A31A2
330
17AC21874A2FC9
100
AcDbEntity
  8
ASSE
100
AcDbLine
 10
1258.100224278778
 20
1014.955166871237
 30
0.0
 11
1258.100224278778
 21
763.4418406551999
 31
0.0
  0
LINE
  5
17AC21874A31A3
330
17AC21874A2FC9
100
AcDbEntity
  8
ASSE
100
AcDbLine
 10
1378.134568590615
 20
1014.671837086103
 30
0.0
 11
1378.134568590615
 21
762.4973693136939
 31
0.0
  0
LINE
  5
17AC21874A31A6
330
17AC21874A2FC9
100
AcDbEntity
  8
0
100
AcDbLine
 10
948.0496932881449
 20
940.0988468152377
 30
0.0
 11
948.0496932881449
 21
764.2195094412277
 31
0.0
  0
LINE
  5
17AC21874A31A7
330
17AC21874A2FC9
100
AcDbEntity
  8
0
100
AcDbLine
 10
947.8365007207163
 20
940.0988468152378
 30
0.0
 11
1148.614335535484
 21
940.0988468152377
 31
0.0
  0
LINE
  5
17AC21874A31A8
330
17AC21874A2FC9
100
AcDbEntity
  8
0
100
AcDbLine
 10
947.8365007207163
 20
764.2195094412275
 30
0.0
 11
1148.614335535484
 21
764.2195094412277
 31
0.0
  0
LINE
  5
17AC21874A31B5
330
17AC21874A2FC9
100
AcDbEntity
  8
0
100
AcDbLine
 10
994.2949431986514
 20
1369.435806841614
 30
0.0
 11
994.2949431986514
 21
1211.765730000433
 31
0.0
  0
LINE
  5
17AC21874A31B6
330
17AC21874A2FC9
100
AcDbEntity
  8
0
100
AcDbLine
 10
994.2949431986514
 20
1211.765730000433
 30
0.0
 11
1173.116085379308
 21
1211.765730000433
 31
0.0
  0
LINE
  5
17AC21874A31B7
330
17AC21874A2FC9
100
AcDbEntity
  8
0
100
AcDbLine
 10
1173.116085379308
 20
1211.765730000433
 30
0.0
 11
1173.116085379308
 21
1369.435806841614
 31
0.0
  0
LINE
  5
17AC21874A31B8
330
17AC21874A2FC9
100
AcDbEntity
  8
0
100
AcDbLine
 10
1173.116085379308
 20
1369.435806841614
 30
0.0
 11
994.2949431986514
 21
1369.435806841614
 31
0.0
  0
LINE
  5
17AC21874A31BF
330
17AC21874A2FC9
100
AcDbEntity
  8
0
100
AcDbLine
 10
1175.268623695775
 20
1211.279346096209
 30
0.0
 11
1203.266303283226
 21
1211.279346096209
 31
0.0
  0
LINE
  5
17AC21874A31C0
330
17AC21874A2FC9
100
AcDbEntity
  8
0
100
AcDbLine
 10
1203.266303283226
 20
1211.279346096209
 30
0.0
 11
1203.266303283226
 21
1172.421592131268
 31
0.0
  0
LINE
  5
17AC21874A31C1
330
17AC21874A2FC9
100
AcDbEntity
  8
0
100
AcDbLine
 10
1203.266303283226
 20
1172.421592131268
 30
0.0
 11
927.9557629318521
 21
1172.421592131268
 31
0.0
  0
LINE
  5
17AC21874A31C3
330
17AC21874A2FC9
100
AcDbEntity
  8
0
100
AcDbLine
 10
927.9557629318521
 20
1211.279346096209
 30
0.0
 11
994.839118783028
 21
1211.279346096209
 31
0.0
  0
LINE
  5
17AC21874A31C4
330
17AC21874A2FC9
100
AcDbEntity
  8
0
100
AcDbLine
 10
1133.27209516156
 20
1122.683672366919
 30
0.0
 11
1133.27209516156
 21
1172.421592131268
 31
0.0
  0
LINE
  5
17AC21874A31C5
330
17AC21874A2FC9
100
AcDbEntity
  8
0
100
AcDbLine
 10
1091.275575780383
 20
1122.683672366919
 30
0.0
 11
1091.275575780383
 21
1172.421592131268
 31
0.0
  0
LINE
  5
17AC21874A31C6
330
17AC21874A2FC9
100
AcDbEntity
  8
ASSE
100
AcDbLine
 10
994.839118783028
 20
1287.440534352354
 30
0.0
 11
1184.601180507247
 21
1287.440534352354
 31
0.0
  0
CIRCLE
  5
17AC21874A31C7
330
17AC21874A2FC9
100
AcDbEntity
  8
0
100
AcDbCircle
 10
1083.498440527637
 20
1287.440534352354
 30
0.0
 40
12.44341823499963
  0
CIRCLE
  5
17AC21874A31C8
330
17AC21874A2FC9
100
AcDbEntity
  8
0
100
AcDbCircle
 10
1083.498440527637
 20
1285.886225742732
 30
0.0
 40
74.66049110392123
  0
CIRCLE
  5
17AC21874A31C9
330
17AC21874A2FC9
100
AcDbEntity
  8
0
100
AcDbCircle
 10
1083.498440527637
 20
1287.440534352354
 30
0.0
 40
57.55078988666719
  0
LINE
  5
17AC21874A31CC
330
17AC21874A2FC9
100
AcDbEntity
  8
ASSE
100
AcDbLine
 10
1084.280384587201
 20
1379.536926373028
 30
0.0
 11
1084.280384587201
 21
1200.805382579934
 31
0.0
  0
LINE
  5
17AC21874A31D7
330
17AC21874A2FC9
100
AcDbEntity
  8
0
100
AcDbLine
 10
1371.238880076484
 20
703.4561133599331
 30
0.0
 11
1322.102757316019
 21
778.3049618647753
 31
0.0
  0
LINE
  5
17AC21874A31D8
330
17AC21874A2FC9
100
AcDbEntity
  8
0
100
AcDbLine
 10
1305.865720621933
 20
703.4561133599331
 30
0.0
 11
1257.097037216299
 21
778.0607491933758
 31
0.0
  0
LINE
  5
17AC21874A31D9
330
17AC21874A2FC9
100
AcDbEntity
  8
0
100
AcDbLine
 10
1241.289799953897
 20
702.6594530253191
 30
0.0
 11
1198.184727784975
 21
769.663641320637
 31
0.0
  0
LINE
  5
17AC21874A31DA
330
17AC21874A2FC9
100
AcDbEntity
  8
0
100
AcDbLine
 10
1175.916640499345
 20
703.4561133599331
 30
0.0
 11
1145.166954752159
 21
751.4680024359781
 31
0.0
  0
LINE
  5
17AC21874A31DB
330
17AC21874A2FC9
100
AcDbEntity
  8
0
100
AcDbLine
 10
1111.340710678271
 20
703.4561133599331
 30
0.0
 11
1079.631850671691
 21
751.7580860341652
 31
0.0
  0
LINE
  5
17AC21874A31DC
330
17AC21874A2FC9
100
AcDbEntity
  8
0
100
AcDbLine
 10
1046.764790010235
 20
703.4561133599331
 30
0.0
 11
1014.856835366808
 21
751.6725244865983
 31
0.0
  0
LINE
  5
17AC21874A31DD
330
17AC21874A2FC9
100
AcDbEntity
  8
0
100
AcDbLine
 10
981.3916305556837
 20
703.4561133599331
 30
0.0
 11
949.408715722434
 21
751.7857975362503
 31
0.0
  0
LINE
  5
17AC21874A31DE
330
17AC21874A2FC9
100
AcDbEntity
  8
0
100
AcDbLine
 10
916.0184711011321
 20
702.6594530253191
 30
0.0
 11
851.4425412800571
 21
803.0387713598353
 31
0.0
  0
LINE
  5
17AC21874A31DF
330
17AC21874A2FC9
100
AcDbEntity
  8
0
100
AcDbLine
 10
938.0420703356838
 20
768.9620425580056
 30
0.0
 11
916.0184711011321
 21
802.2421110252212
 31
0.0
  0
LINE
  5
17AC21874A31E6
330
17AC21874A2FC9
100
AcDbEntity
  8
0
100
AcDbLine
 10
851.3539490226245
 20
702.8824391425319
 30
0.0
 11
821.242842051242
 21
746.0543117352231
 31
0.0
  0
ARC
  5
17AC21874A31E7
330
17AC21874A2FC9
100
AcDbEntity
  8
0
100
AcDbCircle
 10
1273.846516374172
 20
631.6036814021322
 30
0.0
 40
78.20266587666522
100
AcDbArc
 50
65.85437521970432
 51
114.1456247802957
  0
ARC
  5
17AC21874A31E8
330
17AC21874A2FC9
100
AcDbEntity
  8
0
100
AcDbCircle
 10
1144.279529834244
 20
631.6036814021322
 30
0.0
 40
78.20266587666522
100
AcDbArc
 50
65.85437521970432
 51
114.1456247802957
  0
ARC
  5
17AC21874A31E9
330
17AC21874A2FC9
100
AcDbEntity
  8
0
100
AcDbCircle
 10
1014.310148272768
 20
631.6036814021322
 30
0.0
 40
78.20266587666522
100
AcDbArc
 50
65.85437521970432
 51
114.1456247802957
  0
ARC
  5
17AC21874A31EA
330
17AC21874A2FC9
100
AcDbEntity
  8
0
100
AcDbCircle
 10
883.5360041273185
 20
631.6036814021322
 30
0.0
 40
78.20266587666522
100
AcDbArc
 50
65.85437521970432
 51
114.1456247802957
  0
LINE
  5
17AC21874A31EB
330
17AC21874A2FC9
100
AcDbEntity
  8
0
100
AcDbLine
 10
851.7076132684103
 20
703.161090652226
 30
0.0
 11
821.3207173916732
 21
703.161090652226
 31
0.0
  0
LINE
  5
17AC21874A31ED
330
17AC21874A2FC9
100
AcDbEntity
  8
0
100
AcDbLine
 10
982.0793715453534
 20
703.161090652226
 30
0.0
 11
916.0887298229068
 21
703.161090652226
 31
0.0
  0
LINE
  5
17AC21874A31EE
330
17AC21874A2FC9
100
AcDbEntity
  8
0
100
AcDbLine
 10
1112.249909428929
 20
703.161090652226
 30
0.0
 11
1046.862864815317
 21
703.161090652226
 31
0.0
  0
LINE
  5
17AC21874A31EF
330
17AC21874A2FC9
100
AcDbEntity
  8
0
100
AcDbLine
 10
1241.414528406427
 20
703.161090652226
 30
0.0
 11
1176.228649267956
 21
703.161090652226
 31
0.0
  0
LINE
  5
17AC21874A31F1
330
17AC21874A2FC9
100
AcDbEntity
  8
0
100
AcDbLine
 10
1371.140256089106
 20
703.0876231032202
 30
0.0
 11
1371.140256089106
 21
778.4154900889884
 31
0.0
  0
LINE
  5
17AC21874A31F4
330
17AC21874A2FC9
100
AcDbEntity
  8
0
100
AcDbLine
 10
388.7081835144278
 20
905.9611094980969
 30
0.0
 11
388.7081835144278
 21
785.0119137806828
 31
0.0
  0
LINE
  5
17AC21874A31F5
330
17AC21874A2FC9
100
AcDbEntity
  8
0
100
AcDbLine
 10
815.6535189793636
 20
800.708913660063
 30
0.0
 11
815.6535189793636
 21
695.4327395697514
 31
0.0
  0
LINE
  5
17AC21874A31F6
330
17AC21874A2FC9
100
AcDbEntity
  8
0
100
AcDbLine
 10
815.6535189793636
 20
695.4327395697514
 30
0.0
 11
706.605145971264
 21
695.4327395697514
 31
0.0
  0
LINE
  5
17AC21874A31F7
330
17AC21874A2FC9
100
AcDbEntity
  8
0
100
AcDbLine
 10
706.605145971264
 20
695.4327395697514
 30
0.0
 11
706.605145971264
 21
800.708913660063
 31
0.0
  0
LINE
  5
17AC21874A31F8
330
17AC21874A2FC9
100
AcDbEntity
  8
0
100
AcDbLine
 10
706.605145971264
 20
800.708913660063
 30
0.0
 11
815.6535189793636
 21
800.708913660063
 31
0.0
  0
LINE
  5
17AC21874A31F9
330
17AC21874A2FC9
100
AcDbEntity
  8
0
100
AcDbLine
 10
706.605145971264
 20
785.3933269204413
 30
0.0
 11
594.7466275506431
 21
785.3933269204413
 31
0.0
  0
LINE
  5
17AC21874A31FB
330
17AC21874A2FC9
100
AcDbEntity
  8
0
100
AcDbLine
 10
2890.816009590987
 20
907.9259519907786
 30
0.0
 11
2890.816009590987
 21
787.1854807499562
 31
0.0
  0
ARC
  5
17AC21874A3298
330
17AC21874A2FC9
100
AcDbEntity
  8
0
100
AcDbCircle
 10
1658.554147338456
 20
1441.112839653254
 30
0.0
 40
365.0
100
AcDbArc
 50
77.464701817003
 51
84.29216965308603
  0
LINE
  5
17AC21874A32A1
330
17AC21874A2FC9
100
AcDbEntity
  8
0
100
AcDbLine
 10
594.7466275506431
 20
906.1743927642853
 30
0.0
 11
937.7771571731749
 21
906.0335874444776
 31
0.0
  0
LINE
  5
17AC21874A32A2
330
17AC21874A2FC9
100
AcDbEntity
  8
0
100
AcDbLine
 10
557.6824898446817
 20
785.3933269204413
 30
0.0
 11
388.6
 21
785.3933269204413
 31
0.0
  0
LWPOLYLINE
  5
17AC21874A32A5
330
17AC21874A2FC9
100
AcDbEntity
  8
0
  6
Continuous
 62
     0
100
AcDbPolyline
 90
        4
 70
     1
 43
0.0
 10
-537.9999999999995
 20
-260.3999999999999
 10
3562.000000000001
 20
-260.3999999999999
 10
3562.000000000001
 20
2609.6
 10
-537.9999999999995
 20
2609.6
  0
LWPOLYLINE
  5
17AC21874A32AB
330
17AC21874A2FC9
100
AcDbEntity
  8
0
  6
Continuous
 62
     0
100
AcDbPolyline
 90
        4
 70
     1
 43
0.0
 10
-487.9999999999995
 20
-210.3999999999999
 10
3512.0
 20
-210.3999999999999
 10
3512.0
 20
2559.6
 10
-487.9999999999995
 20
2559.6
  0
LINE
  5
17AC21874A33D3
330
17AC21874A2FC9
100
AcDbEntity
  8
0
  6
Continuous
 62
     0
100
AcDbLine
 10
-452.4432711158759
 20
2288.889712292887
 30
0.0
 11
420.1607417240729
 21
2288.889712292887
 31
0.0
  0
LINE
  5
17AC21874A33D4
330
17AC21874A2FC9
100
AcDbEntity
  8
0
  6
Continuous
 62
     0
100
AcDbLine
 10
-452.4432711158759
 20
2184.287277653437
 30
0.0
 11
419.8535965395761
 21
2184.287277653437
 31
0.0
  0
LINE
  5
17AC21874A33D5
330
17AC21874A2FC9
100
AcDbEntity
  8
0
  6
Continuous
 62
     0
100
AcDbLine
 10
-452.4432711158759
 20
2082.854611581343
 30
0.0
 11
416.180617334764
 21
2082.854611581343
 31
0.0
  0
LINE
  5
17AC21874A33D6
330
17AC21874A2FC9
100
AcDbEntity
  8
0
  6
Continuous
 62
     0
100
AcDbLine
 10
-452.4432711158759
 20
1968.742871239829
 30
0.0
 11
416.180617334764
 21
1968.742871239829
 31
0.0
  0
LINE
  5
17AC21874A33D7
330
17AC21874A2FC9
100
AcDbEntity
  8
0
  6
Continuous
 62
     0
100
AcDbLine
 10
-452.4432711158759
 20
1846.706698415815
 30
0.0
 11
419.8535965395761
 21
1846.706698415815
 31
0.0
  0
LINE
  5
17AC21874A33D8
330
17AC21874A2FC9
100
AcDbEntity
  8
0
  6
Continuous
 62
     0
100
AcDbLine
 10
-452.4432711158759
 20
1738.934489676954
 30
0.0
 11
419.8535965395761
 21
1738.934489676954
 31
0.0
  0
LINE
  5
17AC21874A33D9
330
17AC21874A2FC9
100
AcDbEntity
  8
0
  6
Continuous
 62
     0
100
AcDbLine
 10
-452.4432711158759
 20
1616.898322384995
 30
0.0
 11
416.180617334764
 21
1616.898322384995
 31
0.0
  0
LINE
  5
17AC21874A33DA
330
17AC21874A2FC9
100
AcDbEntity
  8
0
  6
Continuous
 62
     0
100
AcDbLine
 10
-452.4432711158759
 20
1499.616802412013
 30
0.0
 11
416.180617334764
 21
1499.616802412013
 31
0.0
  0
LINE
  5
17AC21874A33DB
330
17AC21874A2FC9
100
AcDbEntity
  8
0
  6
Continuous
 62
     0
100
AcDbLine
 10
-452.4432711158759
 20
1371.241086921232
 30
0.0
 11
420.1607417240729
 21
1371.241086921232
 31
0.0
  0
LINE
  5
17AC21874A33DC
330
17AC21874A2FC9
100
AcDbEntity
  8
0
  6
Continuous
 62
     0
100
AcDbLine
 10
-452.7389600172489
 20
2536.825253144033
 30
0.0
 11
-452.7389600172489
 21
1580.417958464217
 31
0.0
  0
LINE
  5
17AC21874A33DD
330
17AC21874A2FC9
100
AcDbEntity
  8
0
  6
Continuous
 62
     0
100
AcDbLine
 10
-452.7389600172489
 20
2004.084368001104
 30
0.0
 11
-92.04291088514542
 21
2004.084368001104
 31
0.0
  0
LINE
  5
17AC21874A33DE
330
17AC21874A2FC9
100
AcDbEntity
  8
AM_4
100
AcDbLine
 10
-452.7389600172489
 20
2097.909427342208
 30
0.0
 11
-67.04417852227305
 21
2097.909427342208
 31
0.0
  0
LINE
  5
17AC21874A33DF
330
17AC21874A2FC9
100
AcDbEntity
  8
0
  6
Continuous
 62
     0
100
AcDbLine
 10
-452.7389600172489
 20
1991.405288199629
 30
0.0
 11
-92.04291088514542
 21
1991.405288199629
 31
0.0
  0
TEXT
  5
17AC21874A33E0
330
17AC21874A2FC9
100
AcDbEntity
  8
0
  6
Continuous
 62
     0
100
AcDbText
 10
-443.6158860328676
 20
2010.486282737735
 30
0.0
 40
40.0
  1
12.000 B/h
 41
0.8
  7
ROMANS
100
AcDbText
  0
LINE
  5
17AC21874A33E1
330
17AC21874A2FC9
100
AcDbEntity
  8
AM_4
100
AcDbLine
 10
-452.7389600172489
 20
1761.058012456043
 30
0.0
 11
-174.1816173179303
 21
1761.058012456043
 31
0.0
  0
LINE
  5
17AC21874A33E2
330
17AC21874A2FC9
100
AcDbEntity
  8
AM_4
100
AcDbLine
 10
-452.7389600172489
 20
1751.548701221922
 30
0.0
 11
-174.1816173179303
 21
1751.548701221922
 31
0.0
  0
TEXT
  5
17AC21874A33E3
330
17AC21874A2FC9
100
AcDbEntity
  8
0
  6
Continuous
 62
     0
100
AcDbText
 10
-446.7914190033534
 20
1766.146010430021
 30
0.0
 40
40.0
  1
2500 mm
 41
0.8
  7
ROMANS
100
AcDbText
  0
LINE
  5
17AC21874A33E4
330
17AC21874A2FC9
100
AcDbEntity
  8
AM_4
100
AcDbLine
 10
-452.7389600172489
 20
1881.185758695466
 30
0.0
 11
182.9431817186069
 21
1881.185758695466
 31
0.0
  0
LINE
  5
17AC21874A33E5
330
17AC21874A2FC9
100
AcDbEntity
  8
AM_4
100
AcDbLine
 10
-452.7389600172489
 20
1650.292894349992
 30
0.0
 11
147.2307082220799
 21
1650.292894349992
 31
0.0
  0
LINE
  5
17AC21874A33E6
330
17AC21874A2FC9
100
AcDbEntity
  8
AM_4
100
AcDbLine
 10
-452.7389600172489
 20
1530.15804403784
 30
0.0
 11
75.80574292294949
 21
1530.15804403784
 31
0.0
  0
LINE
  5
17AC21874A33E7
330
17AC21874A2FC9
100
AcDbEntity
  8
AM_4
100
AcDbLine
 10
-452.7389600172489
 20
1866.921789078256
 30
0.0
 11
182.9431817186069
 21
1866.921789078256
 31
0.0
  0
LINE
  5
17AC21874A33E8
330
17AC21874A2FC9
100
AcDbEntity
  8
AM_4
100
AcDbLine
 10
-452.7389600172489
 20
1637.613814548515
 30
0.0
 11
147.2307082220799
 21
1637.613814548515
 31
0.0
  0
LINE
  5
17AC21874A33E9
330
17AC21874A2FC9
100
AcDbEntity
  8
AM_4
100
AcDbLine
 10
-452.7389600172489
 20
1515.894079952686
 30
0.0
 11
75.80574292294949
 21
1515.894079952686
 31
0.0
  0
TEXT
  5
17AC21874A33EA
330
17AC21874A2FC9
100
AcDbEntity
  8
0
  6
Continuous
 62
     0
100
AcDbText
 10
-446.7914190033534
 20
1886.729518314858
 30
0.0
 40
40.0
  1
LUNGHEZZA NASTRO
 41
0.8
  7
ROMANS
100
AcDbText
  0
TEXT
  5
17AC21874A33EB
330
17AC21874A2FC9
100
AcDbEntity
  8
0
  6
Continuous
 62
     0
100
AcDbText
 10
-449.9669431289857
 20
1658.255501968378
 30
0.0
 40
40.0
  1
DIMENSIONI NASTRO
 41
0.8
  7
ROMANS
100
AcDbText
  0
TEXT
  5
17AC21874A33EC
330
17AC21874A2FC9
100
AcDbEntity
  8
0
  6
Continuous
 62
     0
100
AcDbText
 10
-443.6158860328676
 20
1537.671994083541
 30
0.0
 40
40.0
  1
ALTEZZA 100 mm
 41
0.8
  7
ROMANS
100
AcDbText
  0
LINE
  5
17AC21874A33ED
330
17AC21874A2FC9
100
AcDbEntity
  8
AM_4
100
AcDbLine
 10
-452.4432711158759
 20
1403.002865897778
 30
0.0
 11
132.7996161959661
 21
1403.002865897778
 31
0.0
  0
LINE
  5
17AC21874A33EE
330
17AC21874A2FC9
100
AcDbEntity
  8
AM_4
100
AcDbLine
 10
-452.4432711158759
 20
1387.154011996891
 30
0.0
 11
132.7996161959661
 21
1387.154011996891
 31
0.0
  0
TEXT
  5
17AC21874A33EF
330
17AC21874A2FC9
100
AcDbEntity
  8
0
  6
Continuous
 62
     0
100
AcDbText
 10
-446.7914190033534
 20
1413.915235006457
 30
0.0
 40
40.0
  1
LARGHEZZA 120 mm
 41
0.8
  7
ROMANS
100
AcDbText
  0
LINE
  5
17AC21874A33F0
330
17AC21874A2FC9
100
AcDbEntity
  8
0
  6
Continuous
 62
     0
100
AcDbLine
 10
-452.7389600172489
 20
1580.417958464217
 30
0.0
 11
-452.7389600172489
 21
1370.607152016752
 31
0.0
  0
LINE
  5
17AC21874A33F1
330
17AC21874A2FC9
100
AcDbEntity
  8
AM_4
100
AcDbLine
 10
132.7996161959661
 20
1403.002865897778
 30
0.0
 11
379.6
 21
1403.002865897778
 31
0.0
  0
LINE
  5
17AC21874A33F2
330
17AC21874A2FC9
100
AcDbEntity
  8
AM_4
100
AcDbLine
 10
132.7996161959661
 20
1387.154011996891
 30
0.0
 11
379.6000000000001
 21
1387.154011996891
 31
0.0
  0
LINE
  5
17AC21874A33F3
330
17AC21874A2FC9
100
AcDbEntity
  8
AM_4
100
AcDbLine
 10
75.80574292294949
 20
1530.15804403784
 30
0.0
 11
379.6000000000001
 21
1530.158044037841
 31
0.0
  0
LINE
  5
17AC21874A33F4
330
17AC21874A2FC9
100
AcDbEntity
  8
AM_4
100
AcDbLine
 10
75.80574292294949
 20
1515.894079952686
 30
0.0
 11
379.6000000000001
 21
1515.894079952686
 31
0.0
  0
LINE
  5
17AC21874A33F5
330
17AC21874A2FC9
100
AcDbEntity
  8
AM_4
100
AcDbLine
 10
147.2307082220799
 20
1637.613814548515
 30
0.0
 11
379.6
 21
1637.613814548515
 31
0.0
  0
LINE
  5
17AC21874A33F6
330
17AC21874A2FC9
100
AcDbEntity
  8
AM_4
100
AcDbLine
 10
-67.04417852227305
 20
2097.909427342208
 30
0.0
 11
379.6
 21
2097.909427342207
 31
0.0
  0
LINE
  5
17AC21874A33F7
330
17AC21874A2FC9
100
AcDbEntity
  8
AM_4
100
AcDbLine
 10
-174.1816173179303
 20
1751.548701221922
 30
0.0
 11
379.6000000000001
 21
1751.548701221922
 31
0.0
  0
LINE
  5
17AC21874A33F8
330
17AC21874A2FC9
100
AcDbEntity
  8
AM_4
100
AcDbLine
 10
-174.1816173179303
 20
1761.058012456043
 30
0.0
 11
379.6000000000001
 21
1761.058012456043
 31
0.0
  0
LINE
  5
17AC21874A33F9
330
17AC21874A2FC9
100
AcDbEntity
  8
AM_4
100
AcDbLine
 10
-92.04291088514542
 20
1991.405288199629
 30
0.0
 11
379.6
 21
1991.405288199629
 31
0.0
  0
LINE
  5
17AC21874A33FA
330
17AC21874A2FC9
100
AcDbEntity
  8
AM_4
100
AcDbLine
 10
-92.04291088514542
 20
2004.084368001104
 30
0.0
 11
379.6
 21
2004.084368001104
 31
0.0
  0
LINE
  5
17AC21874A33FB
330
17AC21874A2FC9
100
AcDbEntity
  8
AM_4
100
AcDbLine
 10
147.2307082220799
 20
1650.292894349992
 30
0.0
 11
379.6
 21
1650.292894349992
 31
0.0
  0
LINE
  5
17AC21874A33FC
330
17AC21874A2FC9
100
AcDbEntity
  8
AM_4
100
AcDbLine
 10
182.9431817186069
 20
1866.921789078256
 30
0.0
 11
379.6
 21
1866.921789078256
 31
0.0
  0
LINE
  5
17AC21874A33FD
330
17AC21874A2FC9
100
AcDbEntity
  8
AM_4
100
AcDbLine
 10
182.9431817186069
 20
1881.185758695466
 30
0.0
 11
379.6
 21
1881.185758695466
 31
0.0
  0
LINE
  5
17AC21874A33FE
330
17AC21874A2FC9
100
AcDbEntity
  8
AM_4
100
AcDbLine
 10
-452.7389600172489
 20
2319.135531971647
 30
0.0
 11
379.6000000000001
 21
2319.135531971647
 31
0.0
  0
LINE
  5
17AC21874A33FF
330
17AC21874A2FC9
100
AcDbEntity
  8
AM_4
100
AcDbLine
 10
-452.7389600172489
 20
2306.456446638115
 30
0.0
 11
379.6000000000001
 21
2306.456446638115
 31
0.0
  0
TEXT
  5
17AC21874A3400
330
17AC21874A2FC9
100
AcDbEntity
  8
0
  6
Continuous
 62
     0
100
AcDbText
 10
-443.6158860328676
 20
2324.63805454592
 30
0.0
 40
40.0
  1
MODELLO
 41
0.8
  7
ROMANS
100
AcDbText
  0
LINE
  5
17AC21874A3401
330
17AC21874A2FC9
100
AcDbEntity
  8
AM_4
100
AcDbLine
 10
-452.7389600172489
 20
2110.58851267574
 30
0.0
 11
-67.04417852227305
 21
2110.58851267574
 31
0.0
  0
TEXT
  5
17AC21874A3402
330
17AC21874A2FC9
100
AcDbEntity
  8
0
  6
Continuous
 62
     0
100
AcDbText
 10
-443.6158860328676
 20
2118.376791199376
 30
0.0
 40
40.0
  1
PRODUZIONE
 41
0.8
  7
ROMANS
100
AcDbText
  0
TEXT
  5
17AC21874A3403
330
17AC21874A2FC9
100
AcDbEntity
  8
0
  6
Continuous
 62
     0
100
AcDbText
 10
-446.7914190033534
 20
2223.094048468772
 30
0.0
 40
40.0
  1
XR SU 12P
 41
0.8
  7
ROMANS
100
AcDbText
  0
LINE
  5
17AC21874A3404
330
17AC21874A2FC9
100
AcDbEntity
  8
AM_4
100
AcDbLine
 10
-452.7389600172489
 20
2216.84044048204
 30
0.0
 11
379.6000000000001
 21
2216.84044048204
 31
0.0
  0
LINE
  5
17AC21874A3405
330
17AC21874A2FC9
100
AcDbEntity
  8
AM_4
100
AcDbLine
 10
-452.7389600172489
 20
2202.57647086483
 30
0.0
 11
379.6
 21
2202.576470864829
 31
0.0
  0
LINE
  5
17AC21874A3406
330
17AC21874A2FC9
100
AcDbEntity
  8
AM_4
100
AcDbLine
 10
-67.04417852227305
 20
2110.58851267574
 30
0.0
 11
379.6
 21
2110.58851267574
 31
0.0
  0
LINE
  5
17AC21874A3407
330
17AC21874A2FC9
100
AcDbEntity
  8
0
  6
Continuous
 62
     0
100
AcDbLine
 10
420.1607417240729
 20
1371.13599773032
 30
0.0
 11
420.1607417240729
 21
2397.646582760808
 31
0.0
  0
LINE
  5
17AC21874A3408
330
17AC21874A2FC9
100
AcDbEntity
  8
0
  6
Continuous
 62
     0
100
AcDbLine
 10
848.4360676502944
 20
2397.646582760808
 30
0.0
 11
848.4360676502944
 21
2536.825253144033
 31
0.0
  0
LINE
  5
17AC21874A3409
330
17AC21874A2FC9
100
AcDbEntity
  8
0
  6
Continuous
 62
     0
100
AcDbLine
 10
848.3504417636268
 20
2536.825253144033
 30
0.0
 11
-452.7389600172489
 21
2536.825253144033
 31
0.0
  0
LINE
  5
17AC21874A340A
330
17AC21874A2FC9
100
AcDbEntity
  8
AM_4
100
AcDbLine
 10
-450.0362234172233
 20
2425.107963707688
 30
0.0
 11
747.4531467663243
 21
2425.107963707688
 31
0.0
  0
LINE
  5
17AC21874A340B
330
17AC21874A2FC9
100
AcDbEntity
  8
AM_4
100
AcDbLine
 10
-450.0362234172233
 20
2414.013768189889
 30
0.0
 11
747.4531467663243
 21
2414.013768189889
 31
0.0
  0
LINE
  5
17AC21874A340C
330
17AC21874A2FC9
100
AcDbEntity
  8
0
  6
Continuous
 62
     0
100
AcDbLine
 10
236.5119056929562
 20
2397.646582760808
 30
0.0
 11
848.3504417636268
 21
2397.646582760808
 31
0.0
  0
TEXT
  5
17AC21874A340D
330
17AC21874A2FC9
100
AcDbEntity
  8
0
  6
Continuous
 62
     0
100
AcDbText
 10
-453.1424672546181
 20
2435.701819545599
 30
0.0
 40
80.0
  1
ETICAP SYSTEM 
 41
0.8
  7
ROMANS
100
AcDbText
  0
LINE
  5
17AC21874A340E
330
17AC21874A2FC9
100
AcDbEntity
  8
0
  6
Continuous
 62
     0
100
AcDbLine
 10
236.5119056929562
 20
2397.646582760808
 30
0.0
 11
-452.7389600172489
 21
2397.646582760808
 31
0.0
  0
TEXT
  5
17AC21874A340F
330
17AC21874A2FC9
100
AcDbEntity
  8
0
  6
Continuous
 62
     0
100
AcDbText
 10
569.5664832745812
 20
2434.419973565014
 30
0.0
 40
48.0
  1
canelli
 41
0.8
  7
ROMANS
100
AcDbText
  0
LINE
  5
17AC21874A3410
330
17AC21874A2FC9
100
AcDbEntity
  8
AM_4
100
AcDbLine
 10
747.4531467663243
 20
2425.107963707688
 30
0.0
 11
832.9890809712194
 21
2425.107963707688
 31
0.0
  0
LINE
  5
17AC21874A3411
330
17AC21874A2FC9
100
AcDbEntity
  8
AM_4
100
AcDbLine
 10
747.4531467663243
 20
2414.013768189889
 30
0.0
 11
832.9890809712194
 21
2414.013768189889
 31
0.0
  0
INSERT
  5
17AC21874A343C
330
17AC21874A2FC9
100
AcDbEntity
  8
0
100
AcDbBlockReference
  2
A$C6
 10
-446.6
 20
-178.2
 30
0.0
  0
ARC
  5
17AC21874A3468
330
17AC21874A2FC9
100
AcDbEntity
  8
0
100
AcDbCircle
 10
1658.765684557903
 20
1441.193352620645
 30
0.0
 40
364.7815786469605
100
AcDbArc
 50
65.38637038491777
 51
77.69883535067609
  0
LINE
  5
17AC21874A346A
330
17AC21874A2FC9
100
AcDbEntity
  8
0
100
AcDbLine
 10
1877.084166422323
 20
1134.781162439287
 30
0.0
 11
1766.5759460019
 21
1326.285394394543
 31
0.0
  0
LINE
  5
17AC21874A346B
330
17AC21874A2FC9
100
AcDbEntity
  8
0
100
AcDbLine
 10
1705.864763403148
 20
1291.134428463339
 30
0.0
 11
1816.322180665105
 21
1099.718235387053
 31
0.0
  0
LINE
  5
17AC21874A346C
330
17AC21874A2FC9
100
AcDbEntity
  8
ASSE
100
AcDbLine
 10
1837.276192285537
 20
1132.827198673658
 30
0.0
 11
1780.646174119398
 21
1230.612888027994
 31
0.0
  0
LINE
  5
17AC21874A346E
330
17AC21874A2FC9
100
AcDbEntity
  8
0
100
AcDbLine
 10
1731.815549665321
 20
1317.654947677791
 30
0.0
 11
1709.52805642642
 21
1304.79386784516
 31
0.0
  0
LINE
  5
17AC21874A346F
330
17AC21874A2FC9
100
AcDbEntity
  8
0
100
AcDbLine
 10
1731.815549665321
 20
1317.654947677791
 30
0.0
 11
1709.52805642642
 21
1304.79386784516
 31
0.0
  0
CIRCLE
  5
17AC21874A3470
330
17AC21874A2FC9
100
AcDbEntity
  8
COSTRUZIONE
100
AcDbCircle
 10
1748.823110813648
 20
1285.563253284634
 30
0.0
 40
34.0
  0
LINE
  5
17AC21874A3471
330
17AC21874A2FC9
100
AcDbEntity
  8
0
100
AcDbLine
 10
1705.864763403148
 20
1291.134428463339
 30
0.0
 11
1709.52805642642
 21
1304.79386784516
 31
0.0
  0
LINE
  5
17AC21874A3472
330
17AC21874A2FC9
100
AcDbEntity
  8
0
100
AcDbLine
 10
1705.864763403148
 20
1291.134428463339
 30
0.0
 11
1709.52805642642
 21
1304.79386784516
 31
0.0
  0
LINE
  5
17AC21874A3473
330
17AC21874A2FC9
100
AcDbEntity
  8
ASSE
100
AcDbLine
 10
1766.613957228673
 20
1254.842970345882
 30
0.0
 11
1731.032264398621
 21
1316.283536223386
 31
0.0
  0
CIRCLE
  5
17AC21874A3474
330
17AC21874A2FC9
100
AcDbEntity
  8
COSTRUZIONE
100
AcDbCircle
 10
1748.823110813648
 20
1285.563253284634
 30
0.0
 40
12.5
  0
LINE
  5
17AC21874A3475
330
17AC21874A2FC9
100
AcDbEntity
  8
ASSE
100
AcDbLine
 10
1755.58864395739
 20
1273.880892167081
 30
0.0
 11
1741.556427066665
 21
1298.110974484969
 31
0.0
  0
LINE
  5
17AC21874A3476
330
17AC21874A2FC9
100
AcDbEntity
  8
0
100
AcDbLine
 10
1766.5759460019
 20
1326.285394394543
 30
0.0
 11
1752.916506620079
 21
1329.948687417816
 31
0.0
  0
LINE
  5
17AC21874A3477
330
17AC21874A2FC9
100
AcDbEntity
  8
0
100
AcDbLine
 10
1766.5759460019
 20
1326.285394394543
 30
0.0
 11
1752.916506620079
 21
1329.948687417816
 31
0.0
  0
LINE
  5
17AC21874A3478
330
17AC21874A2FC9
100
AcDbEntity
  8
0
100
AcDbLine
 10
1752.916506620079
 20
1329.948687417816
 30
0.0
 11
1731.480815621195
 21
1317.579143196348
 31
0.0
  0
LINE
  5
17AC21874A3479
330
17AC21874A2FC9
100
AcDbEntity
  8
0
100
AcDbLine
 10
1752.916506620079
 20
1329.948687417816
 30
0.0
 11
1731.480815621195
 21
1317.579143196348
 31
0.0
  0
LINE
  5
17AC21874A347B
330
17AC21874A2FC9
100
AcDbEntity
  8
0
100
AcDbLine
 10
1829.981620046926
 20
1096.054942363781
 30
0.0
 11
1816.322180665105
 21
1099.718235387053
 31
0.0
  0
LINE
  5
17AC21874A347C
330
17AC21874A2FC9
100
AcDbEntity
  8
0
100
AcDbLine
 10
1829.981620046926
 20
1096.054942363781
 30
0.0
 11
1816.322180665105
 21
1099.718235387053
 31
0.0
  0
LINE
  5
17AC21874A347D
330
17AC21874A2FC9
100
AcDbEntity
  8
0
100
AcDbLine
 10
1829.981620046926
 20
1096.054942363781
 30
0.0
 11
1873.42087339905
 21
1121.121723057466
 31
0.0
  0
LINE
  5
17AC21874A347E
330
17AC21874A2FC9
100
AcDbEntity
  8
0
100
AcDbLine
 10
1829.981620046926
 20
1096.054942363781
 30
0.0
 11
1873.42087339905
 21
1121.121723057466
 31
0.0
  0
CIRCLE
  5
17AC21874A347F
330
17AC21874A2FC9
100
AcDbEntity
  8
COSTRUZIONE
100
AcDbCircle
 10
1809.252434167187
 20
1181.743625838889
 30
0.0
 40
30.0
  0
LINE
  5
17AC21874A3481
330
17AC21874A2FC9
100
AcDbEntity
  8
ASSE
100
AcDbLine
 10
1819.735921172131
 20
1163.114801571019
 30
0.0
 11
1798.186445232804
 21
1200.325285130634
 31
0.0
  0
LINE
  5
17AC21874A3483
330
17AC21874A2FC9
100
AcDbEntity
  8
0
100
AcDbLine
 10
1877.084166422323
 20
1134.781162439287
 30
0.0
 11
1873.42087339905
 21
1121.121723057466
 31
0.0
  0
LINE
  5
17AC21874A3484
330
17AC21874A2FC9
100
AcDbEntity
  8
0
100
AcDbLine
 10
1877.084166422323
 20
1134.781162439287
 30
0.0
 11
1873.42087339905
 21
1121.121723057466
 31
0.0
  0
LINE
  5
17AC21874A3488
330
17AC21874A2FC9
100
AcDbEntity
  8
ASSE
100
AcDbLine
 10
1267.606114241308
 20
1441.112839653254
 30
0.0
 11
2099.848343297151
 21
1441.112839653254
 31
0.0
  0
LINE
  5
17AC21874A3489
330
17AC21874A2FC9
100
AcDbEntity
  8
ASSE
100
AcDbLine
 10
1661.032448858434
 20
1857.805997799895
 30
0.0
 11
1661.032448858434
 21
607.799999999992
 31
0.0
  0
CIRCLE
  5
17AC21874A348B
330
17AC21874A2FC9
100
AcDbEntity
  8
COSTRUZIONE
100
AcDbCircle
 10
1572.141868875716
 20
1597.23674671535
 30
0.0
 40
34.0
  0
LINE
  5
17AC21874A348C
330
17AC21874A2FC9
100
AcDbEntity
  8
0
100
AcDbLine
 10
1589.149430024042
 20
1565.145052322194
 30
0.0
 11
1611.436923262943
 21
1578.006132154825
 31
0.0
  0
LINE
  5
17AC21874A348D
330
17AC21874A2FC9
100
AcDbEntity
  8
0
100
AcDbLine
 10
1589.149430024042
 20
1565.145052322194
 30
0.0
 11
1611.436923262943
 21
1578.006132154825
 31
0.0
  0
LINE
  5
17AC21874A348E
330
17AC21874A2FC9
100
AcDbEntity
  8
0
100
AcDbLine
 10
1443.88081326704
 20
1748.018837560697
 30
0.0
 11
1554.389033687463
 21
1556.514605605441
 31
0.0
  0
ARC
  5
17AC21874A348F
330
17AC21874A2FC9
100
AcDbEntity
  8
0
100
AcDbCircle
 10
1662.199295131461
 20
1441.193352620645
 30
0.0
 40
364.7815786469605
100
AcDbArc
 50
125.745724760068
 51
144.6698383127243
  0
ARC
  5
17AC21874A3490
330
17AC21874A2FC9
100
AcDbEntity
  8
ASSE
100
AcDbCircle
 10
1662.410832350907
 20
1441.112839653254
 30
0.0
 40
180.0
100
AcDbArc
 50
90.59477964433565
 51
269.515329681078
  0
ARC
  5
17AC21874A3491
330
17AC21874A2FC9
100
AcDbEntity
  8
ASSE
100
AcDbCircle
 10
1662.121092924412
 20
1441.150712109304
 30
0.0
 40
300.0
100
AcDbArc
 50
90.31744759292905
 51
269.7214899904301
  0
ARC
  5
17AC21874A3492
330
17AC21874A2FC9
100
AcDbEntity
  8
0
100
AcDbCircle
 10
1662.410832350907
 20
1437.669378142489
 30
0.0
 40
140.0
100
AcDbArc
 50
90.86759504814834
 51
269.3547732699969
  0
LINE
  5
17AC21874A3493
330
17AC21874A2FC9
100
AcDbEntity
  8
0
100
AcDbLine
 10
1507.816478109197
 20
1476.832905444153
 30
0.0
 11
1286.816478109197
 21
1476.832905444153
 31
0.0
  0
ARC
  5
17AC21874A3494
330
17AC21874A2FC9
100
AcDbEntity
  8
COSTRUZIONE
100
AcDbCircle
 10
1512.003796486895
 20
1181.720043350826
 30
0.0
 40
55.0
100
AcDbArc
 50
100.2067247493984
 51
141.6528361206857
  0
LINE
  5
17AC21874A3495
330
17AC21874A2FC9
100
AcDbEntity
  8
0
100
AcDbLine
 10
1490.983359642437
 20
1096.054942363781
 30
0.0
 11
1447.544106290314
 21
1121.121723057466
 31
0.0
  0
LINE
  5
17AC21874A3496
330
17AC21874A2FC9
100
AcDbEntity
  8
0
100
AcDbLine
 10
1490.983359642437
 20
1096.054942363781
 30
0.0
 11
1447.544106290314
 21
1121.121723057466
 31
0.0
  0
LINE
  5
17AC21874A3497
330
17AC21874A2FC9
100
AcDbEntity
  8
0
100
AcDbLine
 10
1443.88081326704
 20
1134.781162439287
 30
0.0
 11
1554.389033687463
 21
1326.285394394543
 31
0.0
  0
LINE
  5
17AC21874A3498
330
17AC21874A2FC9
100
AcDbEntity
  8
0
100
AcDbLine
 10
1286.816478109197
 20
1406.680016931771
 30
0.0
 11
1507.918123596654
 21
1406.680016931771
 31
0.0
  0
CIRCLE
  5
17AC21874A3499
330
17AC21874A2FC9
100
AcDbEntity
  8
COSTRUZIONE
100
AcDbCircle
 10
1482.410832350907
 20
1441.112839653254
 30
0.0
 40
34.0
  0
LINE
  5
17AC21874A349A
330
17AC21874A2FC9
100
AcDbEntity
  8
ASSE
100
AcDbLine
 10
1554.35102246069
 20
1254.842970345882
 30
0.0
 11
1589.932715290743
 21
1316.283536223386
 31
0.0
  0
LINE
  5
17AC21874A349B
330
17AC21874A2FC9
100
AcDbEntity
  8
0
100
AcDbLine
 10
1589.149430024042
 20
1317.654947677791
 30
0.0
 11
1611.436923262943
 21
1304.79386784516
 31
0.0
  0
LINE
  5
17AC21874A349C
330
17AC21874A2FC9
100
AcDbEntity
  8
0
100
AcDbLine
 10
1589.149430024042
 20
1317.654947677791
 30
0.0
 11
1611.436923262943
 21
1304.79386784516
 31
0.0
  0
CIRCLE
  5
17AC21874A349D
330
17AC21874A2FC9
100
AcDbEntity
  8
COSTRUZIONE
100
AcDbCircle
 10
1572.141868875716
 20
1285.563253284634
 30
0.0
 40
34.0
  0
LINE
  5
17AC21874A349F
330
17AC21874A2FC9
100
AcDbEntity
  8
ASSE
100
AcDbLine
 10
1501.229058517232
 20
1163.114801571019
 30
0.0
 11
1522.778534456559
 21
1200.325285130634
 31
0.0
  0
LINE
  5
17AC21874A34A0
330
17AC21874A2FC9
100
AcDbEntity
  8
0
100
AcDbLine
 10
1615.100216286216
 20
1291.134428463339
 30
0.0
 11
1504.642799024258
 21
1099.718235387053
 31
0.0
  0
LINE
  5
17AC21874A34A1
330
17AC21874A2FC9
100
AcDbEntity
  8
ASSE
100
AcDbLine
 10
1483.688787403826
 20
1132.827198673658
 30
0.0
 11
1540.318805569965
 21
1230.612888027994
 31
0.0
  0
CIRCLE
  5
17AC21874A34A2
330
17AC21874A2FC9
100
AcDbEntity
  8
COSTRUZIONE
100
AcDbCircle
 10
1511.712545522177
 20
1181.743625838889
 30
0.0
 40
30.0
  0
LINE
  5
17AC21874A34A3
330
17AC21874A2FC9
100
AcDbEntity
  8
ASSE
100
AcDbLine
 10
1495.926301520112
 20
1154.484783231264
 30
0.0
 11
1527.498789524243
 21
1209.002468446513
 31
0.0
  0
LINE
  5
17AC21874A34A5
330
17AC21874A2FC9
100
AcDbEntity
  8
0
100
AcDbLine
 10
1490.983359642437
 20
1096.054942363781
 30
0.0
 11
1504.642799024258
 21
1099.718235387053
 31
0.0
  0
LINE
  5
17AC21874A34A6
330
17AC21874A2FC9
100
AcDbEntity
  8
0
100
AcDbLine
 10
1490.983359642437
 20
1096.054942363781
 30
0.0
 11
1504.642799024258
 21
1099.718235387053
 31
0.0
  0
LINE
  5
17AC21874A34A8
330
17AC21874A2FC9
100
AcDbEntity
  8
0
100
AcDbLine
 10
1615.100216286216
 20
1291.134428463339
 30
0.0
 11
1611.436923262943
 21
1304.79386784516
 31
0.0
  0
LINE
  5
17AC21874A34A9
330
17AC21874A2FC9
100
AcDbEntity
  8
0
100
AcDbLine
 10
1615.100216286216
 20
1291.134428463339
 30
0.0
 11
1611.436923262943
 21
1304.79386784516
 31
0.0
  0
CIRCLE
  5
17AC21874A34AA
330
17AC21874A2FC9
100
AcDbEntity
  8
COSTRUZIONE
100
AcDbCircle
 10
1572.141868875716
 20
1285.563253284634
 30
0.0
 40
12.5
  0
LINE
  5
17AC21874A34AB
330
17AC21874A2FC9
100
AcDbEntity
  8
ASSE
100
AcDbLine
 10
1565.376335731974
 20
1273.880892167081
 30
0.0
 11
1579.408552622699
 21
1298.110974484969
 31
0.0
  0
CIRCLE
  5
17AC21874A34AC
330
17AC21874A2FC9
100
AcDbEntity
  8
COSTRUZIONE
100
AcDbCircle
 10
1482.410832350907
 20
1441.112839653254
 30
0.0
 40
12.5
  0
LINE
  5
17AC21874A34AD
330
17AC21874A2FC9
100
AcDbEntity
  8
0
100
AcDbLine
 10
1517.918123596654
 20
1416.680016931771
 30
0.0
 11
1517.918123596654
 21
1441.428642607685
 31
0.0
  0
LINE
  5
17AC21874A34AE
330
17AC21874A2FC9
100
AcDbEntity
  8
0
100
AcDbLine
 10
1568.048473069285
 20
1329.948687417816
 30
0.0
 11
1589.484164068169
 21
1317.579143196348
 31
0.0
  0
LINE
  5
17AC21874A34AF
330
17AC21874A2FC9
100
AcDbEntity
  8
0
100
AcDbLine
 10
1568.048473069285
 20
1329.948687417816
 30
0.0
 11
1589.484164068169
 21
1317.579143196348
 31
0.0
  0
LINE
  5
17AC21874A34B0
330
17AC21874A2FC9
100
AcDbEntity
  8
0
100
AcDbLine
 10
1554.389033687463
 20
1326.285394394543
 30
0.0
 11
1568.048473069285
 21
1329.948687417816
 31
0.0
  0
LINE
  5
17AC21874A34B1
330
17AC21874A2FC9
100
AcDbEntity
  8
0
100
AcDbLine
 10
1554.389033687463
 20
1326.285394394543
 30
0.0
 11
1568.048473069285
 21
1329.948687417816
 31
0.0
  0
LINE
  5
17AC21874A34B2
330
17AC21874A2FC9
100
AcDbEntity
  8
0
100
AcDbLine
 10
1507.918123596654
 20
1406.680016931771
 30
0.0
 11
1517.918123596654
 21
1416.680016931771
 31
0.0
  0
LINE
  5
17AC21874A34B3
330
17AC21874A2FC9
100
AcDbEntity
  8
0
100
AcDbLine
 10
1568.048473069285
 20
1552.851312582168
 30
0.0
 11
1589.484164068169
 21
1565.220856803636
 31
0.0
  0
LINE
  5
17AC21874A34B4
330
17AC21874A2FC9
100
AcDbEntity
  8
0
100
AcDbLine
 10
1568.048473069285
 20
1552.851312582168
 30
0.0
 11
1589.484164068169
 21
1565.220856803636
 31
0.0
  0
LINE
  5
17AC21874A34B5
330
17AC21874A2FC9
100
AcDbEntity
  8
0
100
AcDbLine
 10
1554.389033687463
 20
1556.514605605441
 30
0.0
 11
1568.048473069285
 21
1552.851312582168
 31
0.0
  0
LINE
  5
17AC21874A34B6
330
17AC21874A2FC9
100
AcDbEntity
  8
0
100
AcDbLine
 10
1554.389033687463
 20
1556.514605605441
 30
0.0
 11
1568.048473069285
 21
1552.851312582168
 31
0.0
  0
LINE
  5
17AC21874A34B7
330
17AC21874A2FC9
100
AcDbEntity
  8
0
100
AcDbLine
 10
1517.816478109197
 20
1441.100829559464
 30
0.0
 11
1517.816478109197
 21
1466.832905444153
 31
0.0
  0
LINE
  5
17AC21874A34B8
330
17AC21874A2FC9
100
AcDbEntity
  8
0
100
AcDbLine
 10
1507.816478109197
 20
1476.832905444153
 30
0.0
 11
1517.816478109197
 21
1466.832905444153
 31
0.0
  0
ARC
  5
17AC21874A34B9
330
17AC21874A2FC9
100
AcDbEntity
  8
0
100
AcDbCircle
 10
1662.410832350907
 20
1441.112839653254
 30
0.0
 40
365.0
100
AcDbArc
 50
185.413299034446
 51
204.0456265972302
  0
ARC
  5
17AC21874A34BA
330
17AC21874A2FC9
100
AcDbEntity
  8
0
100
AcDbCircle
 10
1650.409912333111
 20
1430.640899711122
 30
0.0
 40
349.5936349217168
100
AcDbArc
 50
203.3643825703244
 51
203.8419640422028
  0
LINE
  5
17AC21874A34BB
330
17AC21874A2FC9
100
AcDbEntity
  8
0
100
AcDbLine
 10
1443.88081326704
 20
1134.781162439287
 30
0.0
 11
1447.544106290314
 21
1121.121723057466
 31
0.0
  0
LINE
  5
17AC21874A34BC
330
17AC21874A2FC9
100
AcDbEntity
  8
0
100
AcDbLine
 10
1443.88081326704
 20
1134.781162439287
 30
0.0
 11
1447.544106290314
 21
1121.121723057466
 31
0.0
  0
LINE
  5
17AC21874A34BD
330
17AC21874A2FC9
100
AcDbEntity
  8
0
100
AcDbLine
 10
1276.816478109197
 20
1466.832905444153
 30
0.0
 11
1276.816478109197
 21
1416.680016931772
 31
0.0
  0
CIRCLE
  5
17AC21874A34BE
330
17AC21874A2FC9
100
AcDbEntity
  8
COSTRUZIONE
100
AcDbCircle
 10
1362.121092924412
 20
1441.150712109304
 30
0.0
 40
30.0
  0
ARC
  5
17AC21874A34BF
330
17AC21874A2FC9
100
AcDbEntity
  8
COSTRUZIONE
100
AcDbCircle
 10
1362.410832350907
 20
1441.112839653254
 30
0.0
 40
55.0
100
AcDbArc
 50
219.2500782645557
 51
321.1794655261766
  0
LINE
  5
17AC21874A34C0
330
17AC21874A2FC9
100
AcDbEntity
  8
0
100
AcDbLine
 10
1286.816478109197
 20
1406.680016931771
 30
0.0
 11
1276.816478109197
 21
1416.680016931772
 31
0.0
  0
LINE
  5
17AC21874A34C1
330
17AC21874A2FC9
100
AcDbEntity
  8
ASSE
100
AcDbLine
 10
1340.910832350907
 20
1441.112839653254
 30
0.0
 11
1383.910832350907
 21
1441.112839653254
 31
0.0
  0
ARC
  5
17AC21874A34C2
330
17AC21874A2FC9
100
AcDbEntity
  8
COSTRUZIONE
100
AcDbCircle
 10
1362.410832350907
 20
1441.112839653254
 30
0.0
 40
55.0
100
AcDbArc
 50
40.50074441949564
 51
139.5663004750293
  0
LINE
  5
17AC21874A34C3
330
17AC21874A2FC9
100
AcDbEntity
  8
0
100
AcDbLine
 10
1276.816478109197
 20
1466.832905444153
 30
0.0
 11
1286.816478109197
 21
1476.832905444153
 31
0.0
  0
LINE
  5
17AC21874A34C4
330
17AC21874A2FC9
100
AcDbEntity
  8
0
100
AcDbLine
 10
1490.983359642437
 20
1786.745057636204
 30
0.0
 11
1447.544106290314
 21
1761.678276942518
 31
0.0
  0
LINE
  5
17AC21874A34C5
330
17AC21874A2FC9
100
AcDbEntity
  8
0
100
AcDbLine
 10
1490.983359642437
 20
1786.745057636204
 30
0.0
 11
1447.544106290314
 21
1761.678276942518
 31
0.0
  0
ARC
  5
17AC21874A34C6
330
17AC21874A2FC9
100
AcDbEntity
  8
COSTRUZIONE
100
AcDbCircle
 10
1512.003796486895
 20
1701.079956649158
 30
0.0
 40
55.0
100
AcDbArc
 50
160.2858973849469
 51
259.7932752506015
  0
ARC
  5
17AC21874A34C8
330
17AC21874A2FC9
100
AcDbEntity
  8
COSTRUZIONE
100
AcDbCircle
 10
1512.003796486895
 20
1701.079956649158
 30
0.0
 40
55.0
100
AcDbArc
 50
338.7712170044959
 51
81.15688272979214
  0
LINE
  5
17AC21874A34C9
330
17AC21874A2FC9
100
AcDbEntity
  8
ASSE
100
AcDbLine
 10
1501.229058517232
 20
1719.685198428965
 30
0.0
 11
1522.778534456559
 21
1682.47471486935
 31
0.0
  0
LINE
  5
17AC21874A34CA
330
17AC21874A2FC9
100
AcDbEntity
  8
ASSE
100
AcDbLine
 10
1495.926301520112
 20
1728.315216768721
 30
0.0
 11
1527.498789524243
 21
1673.797531553471
 31
0.0
  0
CIRCLE
  5
17AC21874A34CB
330
17AC21874A2FC9
100
AcDbEntity
  8
COSTRUZIONE
100
AcDbCircle
 10
1511.712545522177
 20
1701.056374161096
 30
0.0
 40
30.0
  0
LINE
  5
17AC21874A34CC
330
17AC21874A2FC9
100
AcDbEntity
  8
ASSE
100
AcDbLine
 10
1483.688787403826
 20
1749.972801326326
 30
0.0
 11
1540.318805569965
 21
1652.18711197199
 31
0.0
  0
LINE
  5
17AC21874A34CD
330
17AC21874A2FC9
100
AcDbEntity
  8
0
100
AcDbLine
 10
1615.100216286216
 20
1591.665571536645
 30
0.0
 11
1504.642799024258
 21
1783.081764612931
 31
0.0
  0
LINE
  5
17AC21874A34CE
330
17AC21874A2FC9
100
AcDbEntity
  8
ASSE
100
AcDbLine
 10
1554.35102246069
 20
1627.957029654101
 30
0.0
 11
1589.932715290743
 21
1566.516463776598
 31
0.0
  0
LINE
  5
17AC21874A34CF
330
17AC21874A2FC9
100
AcDbEntity
  8
0
100
AcDbLine
 10
1615.100216286216
 20
1591.665571536645
 30
0.0
 11
1611.436923262943
 21
1578.006132154825
 31
0.0
  0
LINE
  5
17AC21874A34D0
330
17AC21874A2FC9
100
AcDbEntity
  8
0
100
AcDbLine
 10
1615.100216286216
 20
1591.665571536645
 30
0.0
 11
1611.436923262943
 21
1578.006132154825
 31
0.0
  0
LINE
  5
17AC21874A34D1
330
17AC21874A2FC9
100
AcDbEntity
  8
ASSE
100
AcDbLine
 10
1565.376335731974
 20
1608.919107832903
 30
0.0
 11
1579.408552622699
 21
1584.689025515015
 31
0.0
  0
CIRCLE
  5
17AC21874A34D2
330
17AC21874A2FC9
100
AcDbEntity
  8
COSTRUZIONE
100
AcDbCircle
 10
1572.141868875716
 20
1597.23674671535
 30
0.0
 40
12.5
  0
ARC
  5
17AC21874A34D3
330
17AC21874A2FC9
100
AcDbEntity
  8
0
100
AcDbCircle
 10
1662.199295131461
 20
1441.193352620645
 30
0.0
 40
364.7815786469605
100
AcDbArc
 50
102.3011646493239
 51
114.6136296150822
  0
LINE
  5
17AC21874A34D4
330
17AC21874A2FC9
100
AcDbEntity
  8
0
100
AcDbLine
 10
1490.983359642437
 20
1786.745057636204
 30
0.0
 11
1504.642799024258
 21
1783.081764612931
 31
0.0
  0
LINE
  5
17AC21874A34D5
330
17AC21874A2FC9
100
AcDbEntity
  8
0
100
AcDbLine
 10
1490.983359642437
 20
1786.745057636204
 30
0.0
 11
1504.642799024258
 21
1783.081764612931
 31
0.0
  0
LINE
  5
17AC21874A34D6
330
17AC21874A2FC9
100
AcDbEntity
  8
0
100
AcDbLine
 10
1443.88081326704
 20
1748.018837560697
 30
0.0
 11
1447.544106290314
 21
1761.678276942518
 31
0.0
  0
LINE
  5
17AC21874A34D7
330
17AC21874A2FC9
100
AcDbEntity
  8
0
100
AcDbLine
 10
1443.88081326704
 20
1748.018837560697
 30
0.0
 11
1447.544106290314
 21
1761.678276942518
 31
0.0
  0
ARC
  5
17AC21874A34D9
330
17AC21874A2FC9
100
AcDbEntity
  8
0
100
AcDbCircle
 10
1939.291496263372
 20
1043.863813714899
 30
0.0
 40
192.3393426482675
100
AcDbArc
 50
32.3281049866504
 51
71.41353349323839
  0
ARC
  5
17AC21874A34DD
330
17AC21874A2FC9
100
AcDbEntity
  8
COSTRUZIONE
100
AcDbCircle
 10
1808.961183202468
 20
1181.720043350826
 30
0.0
 40
55.0
100
AcDbArc
 50
38.2768477043583
 51
79.79327525060153
  0
ARC
  5
17AC21874A34E3
330
17AC21874A2FC9
100
AcDbEntity
  8
0
100
AcDbCircle
 10
1382.473483425991
 20
1043.863813714899
 30
0.0
 40
192.3393426482675
100
AcDbArc
 50
57.42459989586937
 51
87.66199283844457
  0
ARC
  5
17AC21874A34E4
330
17AC21874A2FC9
100
AcDbEntity
  8
0
100
AcDbCircle
 10
1382.473483425991
 20
1043.863813714899
 30
0.0
 40
192.3393426482675
100
AcDbArc
 50
287.8662687312237
 51
327.4448168816109
  0
LINE
  5
17AC21874A34E5
330
17AC21874A2FC9
100
AcDbEntity
  8
ASSE
100
AcDbLine
 10
1576.843207353926
 20
1070.978097923924
 30
0.0
 11
1182.299055320475
 21
1015.469532601226
 31
0.0
  0
ARC
  5
17AC21874A34E7
330
17AC21874A2FC9
100
AcDbEntity
  8
0
100
AcDbCircle
 10
1381.077023109956
 20
1043.635679743156
 30
0.0
 40
40.0
100
AcDbArc
 50
344.4438025429462
 51
195.3311817554209
  0
ARC
  5
17AC21874A34E9
330
17AC21874A2FC9
100
AcDbEntity
  8
0
100
AcDbCircle
 10
1203.405409844132
 20
1116.462642470023
 30
0.0
 40
35.0
100
AcDbArc
 50
253.258755224611
 51
63.03469251096753
  0
ARC
  5
17AC21874A34EA
330
17AC21874A2FC9
100
AcDbEntity
  8
0
100
AcDbCircle
 10
1380.718811663647
 20
1045.245942022611
 30
0.0
 40
191.183764837527
100
AcDbArc
 50
168.4355254848739
 51
183.6307990718018
  0
ARC
  5
17AC21874A34EB
330
17AC21874A2FC9
100
AcDbEntity
  8
0
100
AcDbCircle
 10
1406.271287900465
 20
856.2473171233463
 30
0.0
 40
35.0
100
AcDbArc
 50
11.92490191418493
 51
21.29082784428874
  0
LINE
  5
17AC21874A34ED
330
17AC21874A2FC9
100
AcDbEntity
  8
ASSE
100
AcDbLine
 10
1354.558310330389
 20
1239.202553852365
 30
0.0
 11
1410.168164591312
 21
843.9384596260254
 31
0.0
  0
ARC
  5
17AC21874A34EF
330
17AC21874A2FC9
100
AcDbEntity
  8
COSTRUZIONE
100
AcDbCircle
 10
1512.003796486895
 20
1181.720043350826
 30
0.0
 40
55.0
100
AcDbArc
 50
311.224676802481
 51
335.4771320916879
  0
ARC
  5
17AC21874A34F1
330
17AC21874A2FC9
100
AcDbEntity
  8
0
100
AcDbCircle
 10
1662.111951944375
 20
1441.448014708049
 30
0.0
 40
365.1906443300219
100
AcDbArc
 50
255.297119909575
 51
259.1552547829611
  0
ARC
  5
17AC21874A34F2
330
17AC21874A2FC9
100
AcDbEntity
  8
0
100
AcDbCircle
 10
1380.682489844681
 20
1042.199999999992
 30
0.0
 40
216.6000000000001
100
AcDbArc
 50
285.5152571724464
 51
39.12260739335687
  0
ARC
  5
17AC21874A34F3
330
17AC21874A2FC9
100
AcDbEntity
  8
0
100
AcDbCircle
 10
1660.482489844682
 20
1441.799999999992
 30
0.0
 40
241.4834984010294
100
AcDbArc
 50
248.5775020181006
 51
261.9341397407183
  0
LINE
  5
17AC21874A34F5
330
17AC21874A2FC9
100
AcDbEntity
  8
0
100
AcDbLine
 10
1380.613623704515
 20
778.3933249842224
 30
0.0
 11
1380.613623704515
 21
748.1999999999921
 31
0.0
  0
LINE
  5
17AC21874A34F6
330
17AC21874A2FC9
100
AcDbEntity
  8
0
100
AcDbLine
 10
1380.482489844682
 20
748.1999999999921
 30
0.0
 11
1661.082489844682
 21
748.1999999999921
 31
0.0
  0
LINE
  5
17AC21874A34F8
330
17AC21874A2FC9
100
AcDbEntity
  8
0
100
AcDbLine
 10
1943.282489844682
 20
748.1999999999921
 30
0.0
 11
1662.682489844681
 21
748.1999999999921
 31
0.0
  0
LINE
  5
17AC21874A34F9
330
17AC21874A2FC9
100
AcDbEntity
  8
0
100
AcDbLine
 10
1943.151355984848
 20
825.6433070083224
 30
0.0
 11
1943.151355984848
 21
748.1999999999921
 31
0.0
  0
ARC
  5
17AC21874A34FA
330
17AC21874A2FC9
100
AcDbEntity
  8
0
100
AcDbCircle
 10
1943.082489844682
 20
1042.199999999992
 30
0.0
 40
216.6000000000001
100
AcDbArc
 50
141.9598450814165
 51
270.0
  0
ARC
  5
17AC21874A34FB
330
17AC21874A2FC9
100
AcDbEntity
  8
0
100
AcDbCircle
 10
1658.853027744989
 20
1441.448014708049
 30
0.0
 40
365.1906443300219
100
AcDbArc
 50
281.4301458322431
 51
284.9198188607857
  0
ARC
  5
17AC21874A34FF
330
17AC21874A2FC9
100
AcDbEntity
  8
COSTRUZIONE
100
AcDbCircle
 10
1808.961183202468
 20
1181.720043350826
 30
0.0
 40
55.0
100
AcDbArc
 50
207.0140551496541
 51
229.3271194042105
  0
LINE
  5
17AC21874A3503
330
17AC21874A2FC9
100
AcDbEntity
  8
0
100
AcDbLine
 10
2890.482489844682
 20
785.3933269204413
 30
0.0
 11
2657.878690612399
 21
785.3933269204413
 31
0.0
  0
LINE
  5
17AC21874A3567
330
17AC21874A2FC9
100
AcDbEntity
  8
0
100
AcDbLine
 10
2657.886064491012
 20
906.2590107189949
 30
0.0
 11
2890.482489844682
 21
906.2590107189949
 31
0.0
  0
LINE
  5
17AC21874A3568
330
17AC21874A2FC9
100
AcDbEntity
  8
0
100
AcDbLine
 10
2619.316026960737
 20
785.3933269204413
 30
0.0
 11
1943.282489844682
 21
785.3933269204413
 31
0.0
  0
LINE
  5
17AC21874A3569
330
17AC21874A2FC9
100
AcDbEntity
  8
0
100
AcDbLine
 10
927.9557629318521
 20
1172.421592131268
 30
0.0
 11
927.9557629318521
 21
1211.279346096209
 31
0.0
  0
DIMENSION
  5
17AC21874A3591
330
17AC21874A2FC9
100
AcDbEntity
  8
QUOTA
100
AcDbDimension
  2
*D6
 10
2890.482489844682
 20
57.0
 30
0.0
 11
1639.595336679555
 21
82.0
 31
0.0
 70
    32
  1
2500 mm
 71
     5
 42
2501.774306330255
  3
BASE
100
AcDbAlignedDimension
 13
388.7081835144278
 23
785.0119137806828
 33
0.0
 14
2890.482489844682
 24
785.3933269204413
 34
0.0
100
AcDbRotatedDimension
1001
ACAD
1000
DSTYLE
1002
{
1070
    40
1040
10.0
1002
}
  0
LINE
  5
17AC21874A364D
330
17AC21874A2FC9
100
AcDbEntity
  8
ASSE
100
AcDbLine
 10
1938.384366241909
 20
1043.959772735199
 30
0.0
 11
2126.279272347597
 21
1119.842193320458
 31
0.0
  0
LINE
  5
17AC21874A364F
330
17AC21874A2FC9
100
AcDbEntity
  8
ASSE
100
AcDbLine
 10
1938.384366241909
 20
1043.959772735199
 30
0.0
 11
1781.895522003526
 21
1166.259217131536
 31
0.0
  0
ARC
  5
17AC21874A3652
330
17AC21874A2FC9
100
AcDbEntity
  8
0
100
AcDbCircle
 10
1788.146542574672
 20
1161.373908236311
 30
0.0
 40
17.5
100
AcDbArc
 50
231.8389766615724
 51
278.4934706066009
  0
ARC
  5
17AC21874A3653
330
17AC21874A2FC9
100
AcDbEntity
  8
0
100
AcDbCircle
 10
1939.291496263372
 20
1043.863813714899
 30
0.0
 40
192.3393426482675
100
AcDbArc
 50
147.3563478489425
 51
191.4233468596471
  0
LINE
  5
17AC21874A3655
330
17AC21874A2FC9
100
AcDbEntity
  8
ASSE
100
AcDbLine
 10
1382.080953979718
 20
1043.576923155272
 30
0.0
 11
1540.929329662742
 21
1167.72039283098
 31
0.0
  0
LINE
  5
17AC21874A3657
330
17AC21874A2FC9
100
AcDbEntity
  8
ASSE
100
AcDbLine
 10
1382.080953979718
 20
1043.576923155272
 30
0.0
 11
1195.1453676851
 21
1119.071917008812
 31
0.0
  0
ARC
  5
17AC21874A3659
330
17AC21874A2FC9
100
AcDbEntity
  8
0
100
AcDbCircle
 10
1532.766025585476
 20
1161.340592673678
 30
0.0
 40
17.5
100
AcDbArc
 50
261.607708150294
 51
310.5844442943059
  0
LINE
  5
17AC21874A369B
330
17AC21874A2FC9
100
AcDbEntity
  8
0
 62
     0
100
AcDbLine
 10
761.2645698611559
 20
2066.810410833901
 30
0.0
 11
2448.095278513423
 21
2066.810410833901
 31
0.0
  0
LINE
  5
17AC21874A369C
330
17AC21874A2FC9
100
AcDbEntity
  8
0
 62
     0
100
AcDbLine
 10
2448.095278513423
 20
2036.725338791378
 30
0.0
 11
761.2645698611559
 21
2036.810410833901
 31
0.0
  0
LINE
  5
17AC21874A369D
330
17AC21874A2FC9
100
AcDbEntity
  8
0
  6
Continuous
 62
     0
100
AcDbLine
 10
557.6824898446812
 20
2074.810410833901
 30
0.0
 11
2657.957356489753
 21
2074.810410833901
 31
0.0
  0
LINE
  5
17AC21874A369E
330
17AC21874A2FC9
100
AcDbEntity
  8
0
 62
     0
100
AcDbLine
 10
763.0837130604086
 20
532.1999999999921
 30
0.0
 11
2032.962784384347
 21
532.2141334186449
 31
0.0
  0
LINE
  5
17AC21874A369F
330
17AC21874A2FC9
100
AcDbEntity
  8
0
 62
     0
100
AcDbLine
 10
763.6105107374387
 20
562.0795715089512
 30
0.0
 11
2153.883929074795
 21
562.0795715089512
 31
0.0
  0
LINE
  5
17AC21874A36A0
330
17AC21874A2FC9
100
AcDbEntity
  8
0
  6
Continuous
 62
     0
100
AcDbLine
 10
2657.862755503056
 20
524.199999999992
 30
0.0
 11
557.6824898446812
 21
524.199999999992
 31
0.0
  0
LINE
  5
17AC21874A36A1
330
17AC21874A2FC9
100
AcDbEntity
  8
0
 62
     0
100
AcDbLine
 10
557.6824898446812
 20
2074.810410833901
 30
0.0
 11
557.6824898446812
 21
524.199999999992
 31
0.0
  0
LINE
  5
17AC21874A36A2
330
17AC21874A2FC9
100
AcDbEntity
  8
0
 62
     0
100
AcDbLine
 10
594.7466275506431
 20
1869.493711522413
 30
0.0
 11
594.7466275506431
 21
729.6446952251431
 31
0.0
  0
LINE
  5
17AC21874A36A3
330
17AC21874A2FC9
100
AcDbEntity
  8
0
 62
     0
100
AcDbLine
 10
564.746627550643
 20
729.6446952251431
 30
0.0
 11
564.6815847841044
 21
2066.810410833901
 31
0.0
  0
LINE
  5
17AC21874A36A4
330
17AC21874A2FC9
100
AcDbEntity
  8
0
  6
Continuous
 62
     0
100
AcDbLine
 10
564.746627550643
 20
730.7865144294087
 30
0.0
 11
564.746627550643
 21
532.1999999999921
 31
0.0
  0
LINE
  5
17AC21874A36A5
330
17AC21874A2FC9
100
AcDbEntity
  8
0
  6
Continuous
 62
     0
100
AcDbLine
 10
763.0837130604086
 20
532.1999999999921
 30
0.0
 11
564.6331363586141
 21
532.1999999999921
 31
0.0
  0
LINE
  5
17AC21874A36A6
330
17AC21874A2FC9
100
AcDbEntity
  8
0
  6
Continuous
 62
     0
100
AcDbLine
 10
765.7690430168513
 20
559.199999999992
 30
0.0
 11
765.7690430168513
 21
535.1999999999921
 31
0.0
  0
LINE
  5
17AC21874A36A7
330
17AC21874A2FC9
100
AcDbEntity
  8
0
  6
Continuous
 62
     0
100
AcDbLine
 10
738.7690430168513
 20
562.199999999992
 30
0.0
 11
762.7690430168513
 21
562.199999999992
 31
0.0
  0
ARC
  5
17AC21874A36A8
330
17AC21874A2FC9
100
AcDbEntity
  8
0
  6
Continuous
 62
     0
100
AcDbCircle
 10
762.7690430168513
 20
559.199999999992
 30
0.0
 40
3.000000000000002
100
AcDbArc
 50
0.0
 51
90.0
  0
ARC
  5
17AC21874A36A9
330
17AC21874A2FC9
100
AcDbEntity
  8
0
  6
Continuous
 62
     0
100
AcDbCircle
 10
762.7690430168513
 20
535.1999999999921
 30
0.0
 40
3.000000000000002
100
AcDbArc
 50
270.0
 51
0.0
  0
ARC
  5
17AC21874A36AA
330
17AC21874A2FC9
100
AcDbEntity
  8
0
  6
Continuous
 62
     0
100
AcDbCircle
 10
591.7466275506431
 20
729.6446952251431
 30
0.0
 40
3.000000000000002
100
AcDbArc
 50
0.0
 51
90.0
  0
LINE
  5
17AC21874A36AB
330
17AC21874A2FC9
100
AcDbEntity
  8
0
  6
Continuous
 62
     0
100
AcDbLine
 10
594.7466275506431
 20
729.6446952251431
 30
0.0
 11
594.7466275506431
 21
702.6446952251431
 31
0.0
  0
ARC
  5
17AC21874A36AC
330
17AC21874A2FC9
100
AcDbEntity
  8
0
  6
Continuous
 62
     0
100
AcDbCircle
 10
567.746627550643
 20
729.6446952251431
 30
0.0
 40
3.000000000000002
100
AcDbArc
 50
90.0
 51
180.0
  0
LINE
  5
17AC21874A36AD
330
17AC21874A2FC9
100
AcDbEntity
  8
0
  6
Continuous
 62
     0
100
AcDbLine
 10
591.7466275506431
 20
732.6446952251431
 30
0.0
 11
567.746627550643
 21
732.6446952251431
 31
0.0
  0
LINE
  5
17AC21874A36AE
330
17AC21874A2FC9
100
AcDbEntity
  8
0
  6
Continuous
 62
     0
100
AcDbLine
 10
564.746627550643
 20
1869.493711522413
 30
0.0
 11
564.6815847841044
 21
2066.810410833901
 31
0.0
  0
ARC
  5
17AC21874A36AF
330
17AC21874A2FC9
100
AcDbEntity
  8
0
  6
Continuous
 62
     0
100
AcDbCircle
 10
591.7466275506431
 20
1869.493711522413
 30
0.0
 40
3.000000000000002
100
AcDbArc
 50
270.0
 51
0.0
  0
ARC
  5
17AC21874A36B0
330
17AC21874A2FC9
100
AcDbEntity
  8
0
  6
Continuous
 62
     0
100
AcDbCircle
 10
567.746627550643
 20
1869.493711522413
 30
0.0
 40
3.000000000000002
100
AcDbArc
 50
180.0
 51
270.0
  0
LINE
  5
17AC21874A36B1
330
17AC21874A2FC9
100
AcDbEntity
  8
0
  6
Continuous
 62
     0
100
AcDbLine
 10
591.7466275506431
 20
1866.493711522412
 30
0.0
 11
567.746627550643
 21
1866.493711522412
 31
0.0
  0
LINE
  5
17AC21874A36B2
330
17AC21874A2FC9
100
AcDbEntity
  8
0
  6
Continuous
 62
     0
100
AcDbLine
 10
594.7466275506431
 20
1869.493711522413
 30
0.0
 11
594.7466275506431
 21
1896.493711522413
 31
0.0
  0
LINE
  5
17AC21874A36B3
330
17AC21874A2FC9
100
AcDbEntity
  8
0
  6
Continuous
 62
     0
100
AcDbLine
 10
764.2645698611559
 20
2039.810410833901
 30
0.0
 11
764.2645698611559
 21
2063.810410833901
 31
0.0
  0
LINE
  5
17AC21874A36B4
330
17AC21874A2FC9
100
AcDbEntity
  8
0
  6
Continuous
 62
     0
100
AcDbLine
 10
734.2645698611558
 20
2036.810410833901
 30
0.0
 11
761.2645698611559
 21
2036.810410833901
 31
0.0
  0
ARC
  5
17AC21874A36B5
330
17AC21874A2FC9
100
AcDbEntity
  8
0
  6
Continuous
 62
     0
100
AcDbCircle
 10
761.2645698611559
 20
2039.810410833901
 30
0.0
 40
3.000000000000002
100
AcDbArc
 50
270.0
 51
0.0
  0
LINE
  5
17AC21874A36B6
330
17AC21874A2FC9
100
AcDbEntity
  8
0
  6
Continuous
 62
     0
100
AcDbLine
 10
564.6815847841044
 20
2066.810410833901
 30
0.0
 11
761.6037709997053
 21
2066.810410833901
 31
0.0
  0
ARC
  5
17AC21874A36B7
330
17AC21874A2FC9
100
AcDbEntity
  8
0
  6
Continuous
 62
     0
100
AcDbCircle
 10
761.2645698611559
 20
2063.810410833901
 30
0.0
 40
3.000000000000002
100
AcDbArc
 50
0.0
 51
90.0
  0
LINE
  5
17AC21874A36B8
330
17AC21874A2FC9
100
AcDbEntity
  8
0
  6
Continuous
 62
     0
100
AcDbLine
 10
2657.957356489753
 20
2074.810410833901
 30
0.0
 11
2657.862755503056
 21
524.199999999992
 31
0.0
  0
LINE
  5
17AC21874A36B9
330
17AC21874A2FC9
100
AcDbEntity
  8
0
 62
     0
100
AcDbLine
 10
2648.496212826138
 20
1870.187171391152
 30
0.0
 11
2649.456430102304
 21
732.9505688694157
 31
0.0
  0
LINE
  5
17AC21874A36BA
330
17AC21874A2FC9
100
AcDbEntity
  8
0
 62
     0
100
AcDbLine
 10
2619.355649810121
 20
732.9505688694157
 30
0.0
 11
2618.496212826138
 21
1870.456995386107
 31
0.0
  0
LINE
  5
17AC21874A36BC
330
17AC21874A2FC9
100
AcDbEntity
  8
0
  6
Continuous
 62
     0
100
AcDbLine
 10
2649.456430102304
 20
732.9505688694157
 30
0.0
 11
2649.422520002447
 21
532.1446438125117
 31
0.0
  0
LINE
  5
17AC21874A36BD
330
17AC21874A2FC9
100
AcDbEntity
  8
0
 62
     0
100
AcDbLine
 10
2153.849052430052
 20
732.9505688694157
 30
0.0
 11
2153.849052430052
 21
532.3650675770791
 31
0.0
  0
TEXT
  5
17AC21874A36BE
330
17AC21874A2FC9
100
AcDbEntity
  8
0
 62
     0
100
AcDbText
 10
2202.525376201819
 20
567.1567448004156
 30
0.0
 40
50.0
  1
elettrico
100
AcDbText
  0
LINE
  5
17AC21874A36BF
330
17AC21874A2FC9
100
AcDbEntity
  8
0
  6
Continuous
 62
     0
100
AcDbLine
 10
2649.157920793891
 20
532.1999999999921
 30
0.0
 11
2033.301394979249
 21
532.1999999999921
 31
0.0
  0
LINE
  5
17AC21874A36C1
330
17AC21874A2FC9
100
AcDbEntity
  8
0
 62
     0
100
AcDbLine
 10
2649.456430102304
 20
732.9505688694157
 30
0.0
 11
2153.849052430052
 21
732.9505688694157
 31
0.0
  0
TEXT
  5
17AC21874A36C2
330
17AC21874A2FC9
100
AcDbEntity
  8
0
 62
     0
100
AcDbText
 10
2202.525376201819
 20
650.4900781337487
 30
0.0
 40
50.0
  1
 Quadro 
100
AcDbText
  0
LINE
  5
17AC21874A36C3
330
17AC21874A2FC9
100
AcDbEntity
  8
0
  6
Continuous
 62
     0
100
AcDbLine
 10
2648.496212826138
 20
1870.187171391152
 30
0.0
 11
2648.496212826138
 21
2067.75404762579
 31
0.0
  0
ARC
  5
17AC21874A36C4
330
17AC21874A2FC9
100
AcDbEntity
  8
0
  6
Continuous
 62
     0
100
AcDbCircle
 10
2645.496212826138
 20
1870.456995386107
 30
0.0
 40
3.000000000000002
100
AcDbArc
 50
270.0
 51
0.0
  0
LINE
  5
17AC21874A36C5
330
17AC21874A2FC9
100
AcDbEntity
  8
0
  6
Continuous
 62
     0
100
AcDbLine
 10
2645.496212826138
 20
1867.456995386107
 30
0.0
 11
2621.496212826138
 21
1867.456995386107
 31
0.0
  0
ARC
  5
17AC21874A36C6
330
17AC21874A2FC9
100
AcDbEntity
  8
0
  6
Continuous
 62
     0
100
AcDbCircle
 10
2621.496212826138
 20
1870.456995386107
 30
0.0
 40
3.000000000000002
100
AcDbArc
 50
180.0
 51
270.0
  0
LINE
  5
17AC21874A36C7
330
17AC21874A2FC9
100
AcDbEntity
  8
0
  6
Continuous
 62
     0
100
AcDbLine
 10
2618.496212826138
 20
1870.456995386107
 30
0.0
 11
2618.496212826138
 21
1894.456995386107
 31
0.0
  0
LINE
  5
17AC21874A36C8
330
17AC21874A2FC9
100
AcDbEntity
  8
0
  6
Continuous
 62
     0
100
AcDbLine
 10
2648.496212826138
 20
2067.735220541712
 30
0.0
 11
2450.592208558586
 21
2067.735220541712
 31
0.0
  0
LINE
  5
17AC21874A36C9
330
17AC21874A2FC9
100
AcDbEntity
  8
0
  6
Continuous
 62
     0
100
AcDbLine
 10
2448.274321615427
 20
2064.735220541712
 30
0.0
 11
2448.274321615427
 21
2040.735220541712
 31
0.0
  0
ARC
  5
17AC21874A36CA
330
17AC21874A2FC9
100
AcDbEntity
  8
0
  6
Continuous
 62
     0
100
AcDbCircle
 10
2451.274321615427
 20
2040.735220541712
 30
0.0
 40
3.000000000000002
100
AcDbArc
 50
180.0
 51
270.0
  0
LINE
  5
17AC21874A36CB
330
17AC21874A2FC9
100
AcDbEntity
  8
0
  6
Continuous
 62
     0
100
AcDbLine
 10
2451.274321615427
 20
2037.735220541712
 30
0.0
 11
2478.274321615427
 21
2037.735220541712
 31
0.0
  0
ARC
  5
17AC21874A36CC
330
17AC21874A2FC9
100
AcDbEntity
  8
0
  6
Continuous
 62
     0
100
AcDbCircle
 10
2451.274321615427
 20
2064.735220541712
 30
0.0
 40
3.000000000000002
100
AcDbArc
 50
90.0
 51
180.0
  0
DIMENSION
  5
17AC21874A36D1
330
17AC21874A2FC9
100
AcDbEntity
  8
QUOTA
100
AcDbDimension
  2
*D8
 10
2657.862755503056
 20
289.8
 30
0.0
 11
1607.772622673868
 21
314.8
 31
0.0
 70
    32
  1
2100 mm
 71
     5
 42
2100.180265658375
  3
BASE
100
AcDbAlignedDimension
 13
557.6824898446812
 23
524.199999999992
 33
0.0
 14
2657.862755503056
 24
524.199999999992
 34
0.0
100
AcDbRotatedDimension
1001
ACAD
1000
DSTYLE
1002
{
1070
    40
1040
10.0
1002
}
  0
DIMENSION
  5
17AC21874A36E7
330
17AC21874A2FC9
100
AcDbEntity
  8
QUOTA
100
AcDbDimension
  2
*D9
 10
3101.600000000001
 20
847.3757281591792
 30
0.0
 11
3076.600000000001
 21
685.7878640795861
 31
0.0
 70
    32
  1
320 mm
 71
     5
 42
323.1757281591873
  3
BASE
100
AcDbAlignedDimension
 13
2657.862755503056
 23
524.199999999992
 33
0.0
 14
2982.082489844682
 24
847.3757281591792
 34
0.0
 50
90.0
100
AcDbRotatedDimension
1001
ACAD
1000
DSTYLE
1002
{
1070
    40
1040
10.0
1002
}
  0
DIMENSION
  5
17AC21874A36FD
330
17AC21874A2FC9
100
AcDbEntity
  8
QUOTA
100
AcDbDimension
  2
*D10
 10
3101.0
 20
2074.810410833901
 30
0.0
 11
3076.0
 21
1461.093069496541
 31
0.0
 70
    32
  1
1230 mm
 71
     5
 42
1227.434682674721
  3
BASE
100
AcDbAlignedDimension
 13
2982.082489844682
 23
847.3757281591792
 33
0.0
 14
2657.957356489753
 24
2074.810410833901
 34
0.0
 50
90.0
100
AcDbRotatedDimension
1001
ACAD
1000
DSTYLE
1002
{
1070
    40
1040
10.0
1002
}
  0
DIMENSION
  5
17AC21874A3713
330
17AC21874A2FC9
100
AcDbEntity
  8
QUOTA
100
AcDbDimension
  2
*D11
 10
3271.800000000001
 20
2074.810410833901
 30
0.0
 11
3246.8
 21
1299.505205416947
 31
0.0
 70
    32
  1
1550 mm
 71
     5
 42
1550.610410833909
  3
BASE
100
AcDbAlignedDimension
 13
3101.600000000001
 23
524.199999999992
 33
0.0
 14
3101.0
 24
2074.810410833901
 34
0.0
 50
90.0
100
AcDbRotatedDimension
1001
ACAD
1000
DSTYLE
1002
{
1070
    40
1040
10.0
1002
}
  0
LINE
  5
17AC21874A3760
330
17AC21874A2FC9
100
AcDbEntity
  8
0
100
AcDbLine
 10
1319.920168698833
 20
1283.135361733209
 30
0.0
 11
1511.399810509512
 21
1393.686184476937
 31
0.0
  0
LINE
  5
17AC21874A3761
330
17AC21874A2FC9
100
AcDbEntity
  8
0
100
AcDbLine
 10
1546.388227191385
 20
1332.881178132628
 30
0.0
 11
1354.996612955024
 21
1222.381178132628
 31
0.0
  0
CIRCLE
  5
17AC21874A3762
330
17AC21874A2FC9
100
AcDbEntity
  8
COSTRUZIONE
100
AcDbCircle
 10
1506.526259669708
 20
1351.112839653255
 30
0.0
 40
34.0
  0
CIRCLE
  5
17AC21874A3763
330
17AC21874A2FC9
100
AcDbEntity
  8
COSTRUZIONE
100
AcDbCircle
 10
1506.526259669708
 20
1351.112839653255
 30
0.0
 40
12.5
  0
LINE
  5
17AC21874A3764
330
17AC21874A2FC9
100
AcDbEntity
  8
0
100
AcDbLine
 10
1525.060064547357
 20
1390.025930439092
 30
0.0
 11
1537.434377385313
 21
1368.592991894999
 31
0.0
  0
LINE
  5
17AC21874A3765
330
17AC21874A2FC9
100
AcDbEntity
  8
0
100
AcDbLine
 10
1511.399810509512
 20
1393.686184476937
 30
0.0
 11
1525.060064547357
 21
1390.025930439092
 31
0.0
  0
LINE
  5
17AC21874A3766
330
17AC21874A2FC9
100
AcDbEntity
  8
0
100
AcDbLine
 10
1537.182443286885
 20
1368.826063578723
 30
0.0
 11
1550.04848122923
 21
1346.541432170472
 31
0.0
  0
LINE
  5
17AC21874A3767
330
17AC21874A2FC9
100
AcDbEntity
  8
0
100
AcDbLine
 10
1546.388227191385
 20
1332.881178132628
 30
0.0
 11
1550.04848122923
 21
1346.541432170472
 31
0.0
  0
ARC
  5
17AC21874A3768
330
17AC21874A2FC9
100
AcDbEntity
  8
COSTRUZIONE
100
AcDbCircle
 10
1402.603211215575
 20
1291.112839653254
 30
0.0
 40
55.0
100
AcDbArc
 50
250.4336995249706
 51
349.4992555805043
  0
ARC
  5
17AC21874A3769
330
17AC21874A2FC9
100
AcDbEntity
  8
COSTRUZIONE
100
AcDbCircle
 10
1402.603211215575
 20
1291.112839653254
 30
0.0
 40
55.0
100
AcDbArc
 50
68.82053447382334
 51
170.7499217354443
  0
CIRCLE
  5
17AC21874A376A
330
17AC21874A2FC9
100
AcDbEntity
  8
COSTRUZIONE
100
AcDbCircle
 10
1402.371225739777
 20
1290.935171430965
 30
0.0
 40
30.0
  0
LINE
  5
17AC21874A376B
330
17AC21874A2FC9
100
AcDbEntity
  8
ASSE
100
AcDbLine
 10
1313.536090136808
 20
1239.689913322481
 30
0.0
 11
1551.866281258285
 21
1377.289913322481
 31
0.0
  0
LINE
  5
17AC21874A376C
330
17AC21874A2FC9
100
AcDbEntity
  8
0
100
AcDbLine
 10
1341.33635891718
 20
1226.041432170473
 30
0.0
 11
1316.259914660989
 21
1269.475107695364
 31
0.0
  0
LINE
  5
17AC21874A376D
330
17AC21874A2FC9
100
AcDbEntity
  8
0
100
AcDbLine
 10
1319.920168698833
 20
1283.135361733209
 30
0.0
 11
1316.259914660989
 21
1269.475107695364
 31
0.0
  0
LINE
  5
17AC21874A376E
330
17AC21874A2FC9
100
AcDbEntity
  8
0
100
AcDbLine
 10
1341.33635891718
 20
1226.041432170473
 30
0.0
 11
1354.996612955024
 21
1222.381178132628
 31
0.0
  0
LINE
  5
17AC21874A3776
330
17AC21874A2FC9
100
AcDbEntity
  8
0
100
AcDbLine
 10
1694.855491861293
 20
1816.697495373343
 30
0.0
 11
1684.855491861293
 21
1826.697495373343
 31
0.0
  0
CIRCLE
  5
17AC21874A3777
330
17AC21874A2FC9
100
AcDbEntity
  8
COSTRUZIONE
100
AcDbCircle
 10
1660.384796683761
 20
1741.392880558128
 30
0.0
 40
30.0
  0
LINE
  5
17AC21874A3778
330
17AC21874A2FC9
100
AcDbEntity
  8
0
100
AcDbLine
 10
1694.855491861293
 20
1595.595849885886
 30
0.0
 11
1684.855491861293
 21
1585.595849885886
 31
0.0
  0
CIRCLE
  5
17AC21874A3779
330
17AC21874A2FC9
100
AcDbEntity
  8
COSTRUZIONE
100
AcDbCircle
 10
1660.42266913981
 20
1621.103141131634
 30
0.0
 40
34.0
  0
ARC
  5
17AC21874A377A
330
17AC21874A2FC9
100
AcDbEntity
  8
COSTRUZIONE
100
AcDbCircle
 10
1660.42266913981
 20
1741.103141131634
 30
0.0
 40
55.0
100
AcDbArc
 50
130.4336995249707
 51
229.4992555805043
  0
LINE
  5
17AC21874A377B
330
17AC21874A2FC9
100
AcDbEntity
  8
0
100
AcDbLine
 10
1624.702603348911
 20
1595.697495373343
 30
0.0
 11
1624.702603348911
 21
1816.697495373343
 31
0.0
  0
LINE
  5
17AC21874A377C
330
17AC21874A2FC9
100
AcDbEntity
  8
ASSE
100
AcDbLine
 10
1660.42266913981
 20
1843.948993793177
 30
0.0
 11
1660.42266913981
 21
1568.748993793177
 31
0.0
  0
LINE
  5
17AC21874A377D
330
17AC21874A2FC9
100
AcDbEntity
  8
0
100
AcDbLine
 10
1660.4346792336
 20
1585.697495373343
 30
0.0
 11
1634.702603348911
 21
1585.697495373343
 31
0.0
  0
LINE
  5
17AC21874A377E
330
17AC21874A2FC9
100
AcDbEntity
  8
0
100
AcDbLine
 10
1624.702603348911
 20
1595.697495373343
 30
0.0
 11
1634.702603348911
 21
1585.697495373343
 31
0.0
  0
LINE
  5
17AC21874A377F
330
17AC21874A2FC9
100
AcDbEntity
  8
0
100
AcDbLine
 10
1684.855491861293
 20
1585.595849885886
 30
0.0
 11
1660.106866185379
 21
1585.595849885886
 31
0.0
  0
CIRCLE
  5
17AC21874A3780
330
17AC21874A2FC9
100
AcDbEntity
  8
COSTRUZIONE
100
AcDbCircle
 10
1660.42266913981
 20
1621.103141131634
 30
0.0
 40
12.5
  0
LINE
  5
17AC21874A3781
330
17AC21874A2FC9
100
AcDbEntity
  8
0
100
AcDbLine
 10
1634.702603348911
 20
1826.697495373343
 30
0.0
 11
1684.855491861293
 21
1826.697495373343
 31
0.0
  0
LINE
  5
17AC21874A3782
330
17AC21874A2FC9
100
AcDbEntity
  8
0
100
AcDbLine
 10
1634.702603348911
 20
1826.697495373343
 30
0.0
 11
1624.702603348911
 21
1816.697495373343
 31
0.0
  0
ARC
  5
17AC21874A3783
330
17AC21874A2FC9
100
AcDbEntity
  8
COSTRUZIONE
100
AcDbCircle
 10
1660.42266913981
 20
1741.103141131634
 30
0.0
 40
55.0
100
AcDbArc
 50
308.8205344738234
 51
50.7499217354443
  0
LINE
  5
17AC21874A3784
330
17AC21874A2FC9
100
AcDbEntity
  8
0
100
AcDbLine
 10
1694.855491861293
 20
1816.697495373343
 30
0.0
 11
1694.855491861293
 21
1595.595849885886
 31
0.0
  0
LINE
  5
17AC21874A3785
330
17AC21874A2FC9
100
AcDbEntity
  8
0
100
AcDbLine
 10
1686.752514649334
 20
1055.535547271353
 30
0.0
 11
1696.752514649334
 21
1065.535547271353
 31
0.0
  0
LINE
  5
17AC21874A3786
330
17AC21874A2FC9
100
AcDbEntity
  8
0
100
AcDbLine
 10
1696.752514649334
 20
1286.535547271353
 30
0.0
 11
1686.752514649334
 21
1296.535547271353
 31
0.0
  0
CIRCLE
  5
17AC21874A3787
330
17AC21874A2FC9
100
AcDbEntity
  8
COSTRUZIONE
100
AcDbCircle
 10
1661.032448858434
 20
1261.129901513063
 30
0.0
 40
34.0
  0
CIRCLE
  5
17AC21874A3788
330
17AC21874A2FC9
100
AcDbEntity
  8
COSTRUZIONE
100
AcDbCircle
 10
1661.070321314484
 20
1140.840162086568
 30
0.0
 40
30.0
  0
LINE
  5
17AC21874A3789
330
17AC21874A2FC9
100
AcDbEntity
  8
0
100
AcDbLine
 10
1626.599626136952
 20
1065.535547271353
 30
0.0
 11
1626.599626136951
 21
1286.63719275881
 31
0.0
  0
LINE
  5
17AC21874A378A
330
17AC21874A2FC9
100
AcDbEntity
  8
ASSE
100
AcDbLine
 10
1661.032448858435
 20
1038.284048851519
 30
0.0
 11
1661.032448858435
 21
1313.484048851519
 31
0.0
  0
LINE
  5
17AC21874A378B
330
17AC21874A2FC9
100
AcDbEntity
  8
0
100
AcDbLine
 10
1686.752514649334
 20
1055.535547271353
 30
0.0
 11
1636.599626136952
 21
1055.535547271353
 31
0.0
  0
LINE
  5
17AC21874A378C
330
17AC21874A2FC9
100
AcDbEntity
  8
0
100
AcDbLine
 10
1626.599626136952
 20
1065.535547271353
 30
0.0
 11
1636.599626136952
 21
1055.535547271353
 31
0.0
  0
ARC
  5
17AC21874A378D
330
17AC21874A2FC9
100
AcDbEntity
  8
COSTRUZIONE
100
AcDbCircle
 10
1661.032448858434
 20
1141.129901513063
 30
0.0
 40
55.0
100
AcDbArc
 50
128.8205344738234
 51
230.7499217354443
  0
CIRCLE
  5
17AC21874A378E
330
17AC21874A2FC9
100
AcDbEntity
  8
COSTRUZIONE
100
AcDbCircle
 10
1661.032448858434
 20
1261.129901513063
 30
0.0
 40
12.5
  0
LINE
  5
17AC21874A378F
330
17AC21874A2FC9
100
AcDbEntity
  8
0
100
AcDbLine
 10
1636.599626136951
 20
1296.63719275881
 30
0.0
 11
1661.348251812866
 21
1296.63719275881
 31
0.0
  0
LINE
  5
17AC21874A3790
330
17AC21874A2FC9
100
AcDbEntity
  8
0
100
AcDbLine
 10
1626.599626136951
 20
1286.63719275881
 30
0.0
 11
1636.599626136951
 21
1296.63719275881
 31
0.0
  0
LINE
  5
17AC21874A3791
330
17AC21874A2FC9
100
AcDbEntity
  8
0
100
AcDbLine
 10
1661.020438764644
 20
1296.535547271353
 30
0.0
 11
1686.752514649334
 21
1296.535547271353
 31
0.0
  0
LINE
  5
17AC21874A3792
330
17AC21874A2FC9
100
AcDbEntity
  8
0
100
AcDbLine
 10
1696.752514649334
 20
1286.535547271353
 30
0.0
 11
1696.752514649334
 21
1065.535547271353
 31
0.0
  0
ARC
  5
17AC21874A3793
330
17AC21874A2FC9
100
AcDbEntity
  8
COSTRUZIONE
100
AcDbCircle
 10
1661.032448858434
 20
1141.129901513063
 30
0.0
 40
55.0
100
AcDbArc
 50
310.4336995249707
 51
49.49925558050434
  0
ARC
  5
17AC21874A3794
330
17AC21874A2FC9
100
AcDbEntity
  8
0
100
AcDbCircle
 10
1660.482489844682
 20
1441.799999999992
 30
0.0
 40
241.4834984010294
100
AcDbArc
 50
278.6383258371836
 51
291.2505055071332
  0
CIRCLE
  5
17AC21874A3795
330
17AC21874A2FC9
100
AcDbEntity
  8
COSTRUZIONE
100
AcDbCircle
 10
1815.107247689729
 20
1352.280825320558
 30
0.0
 40
34.0
  0
LINE
  5
17AC21874A3796
330
17AC21874A2FC9
100
AcDbEntity
  8
0
100
AcDbLine
 10
1967.280515939121
 20
1224.663948998893
 30
0.0
 11
1775.800874128442
 21
1335.214771742622
 31
0.0
  0
LINE
  5
17AC21874A3797
330
17AC21874A2FC9
100
AcDbEntity
  8
ASSE
100
AcDbLine
 10
2008.09741722263
 20
1240.857898989787
 30
0.0
 11
1769.767226101153
 21
1378.457898989787
 31
0.0
  0
LINE
  5
17AC21874A3798
330
17AC21874A2FC9
100
AcDbEntity
  8
0
100
AcDbLine
 10
1810.965345958951
 20
1395.918132599474
 30
0.0
 11
2002.356960195312
 21
1285.418132599474
 31
0.0
  0
LINE
  5
17AC21874A3799
330
17AC21874A2FC9
100
AcDbEntity
  8
0
100
AcDbLine
 10
1772.140620090597
 20
1348.875025780466
 30
0.0
 11
1784.514932928555
 21
1370.30796432456
 31
0.0
  0
LINE
  5
17AC21874A379A
330
17AC21874A2FC9
100
AcDbEntity
  8
0
100
AcDbLine
 10
1775.800874128442
 20
1335.214771742622
 30
0.0
 11
1772.140620090597
 21
1348.875025780466
 31
0.0
  0
CIRCLE
  5
17AC21874A379B
330
17AC21874A2FC9
100
AcDbEntity
  8
COSTRUZIONE
100
AcDbCircle
 10
1815.107247689729
 20
1352.280825320558
 30
0.0
 40
12.5
  0
LINE
  5
17AC21874A379C
330
17AC21874A2FC9
100
AcDbEntity
  8
0
100
AcDbLine
 10
1784.439053978762
 20
1369.973247153379
 30
0.0
 11
1797.305091921107
 21
1392.257878561629
 31
0.0
  0
LINE
  5
17AC21874A379D
330
17AC21874A2FC9
100
AcDbEntity
  8
0
100
AcDbLine
 10
1810.965345958951
 20
1395.918132599474
 30
0.0
 11
1797.305091921107
 21
1392.257878561629
 31
0.0
  0
CIRCLE
  5
17AC21874A379E
330
17AC21874A2FC9
100
AcDbEntity
  8
COSTRUZIONE
100
AcDbCircle
 10
1919.300154075709
 20
1292.168754116353
 30
0.0
 40
30.0
  0
ARC
  5
17AC21874A379F
330
17AC21874A2FC9
100
AcDbEntity
  8
COSTRUZIONE
100
AcDbCircle
 10
1919.030296143862
 20
1292.280825320558
 30
0.0
 40
55.0
100
AcDbArc
 50
10.43369952497067
 51
109.4992555805043
  0
ARC
  5
17AC21874A37A0
330
17AC21874A2FC9
100
AcDbEntity
  8
COSTRUZIONE
100
AcDbCircle
 10
1919.030296143862
 20
1292.280825320558
 30
0.0
 40
55.0
100
AcDbArc
 50
188.8205344738234
 51
290.7499217354443
  0
LINE
  5
17AC21874A37A1
330
17AC21874A2FC9
100
AcDbEntity
  8
0
100
AcDbLine
 10
2006.017214233157
 20
1271.757878561629
 30
0.0
 11
1980.940769976966
 21
1228.324203036738
 31
0.0
  0
LINE
  5
17AC21874A37A2
330
17AC21874A2FC9
100
AcDbEntity
  8
0
100
AcDbLine
 10
1967.280515939121
 20
1224.663948998893
 30
0.0
 11
1980.940769976966
 21
1228.324203036738
 31
0.0
  0
LINE
  5
17AC21874A37A3
330
17AC21874A2FC9
100
AcDbEntity
  8
0
100
AcDbLine
 10
2006.017214233157
 20
1271.757878561629
 30
0.0
 11
2002.356960195312
 21
1285.418132599474
 31
0.0
  0
ARC
  5
17AC21874A37A4
330
17AC21874A2FC9
100
AcDbEntity
  8
0
100
AcDbCircle
 10
1939.291496263372
 20
1043.863813714899
 30
0.0
 40
192.3393426482675
100
AcDbArc
 50
92.31377395118277
 51
122.5754001041306
  0
ARC
  5
17AC21874A37A5
330
17AC21874A2FC9
100
AcDbEntity
  8
0
100
AcDbCircle
 10
1662.410832350907
 20
1441.112839653254
 30
0.0
 40
365.0
100
AcDbArc
 50
95.92981961842436
 51
102.535298182997
  0
LINE
  5
17AC21874A37A7
330
17AC21874A2FC9
100
AcDbEntity
  8
0
100
AcDbLine
 10
1775.531978162083
 20
1547.66934283807
 30
0.0
 11
1966.923592398444
 21
1658.169342838071
 31
0.0
  0
LINE
  5
17AC21874A37A8
330
17AC21874A2FC9
100
AcDbEntity
  8
ASSE
100
AcDbLine
 10
2008.384115216661
 20
1640.860607648217
 30
0.0
 11
1770.053924095184
 21
1503.260607648218
 31
0.0
  0
LINE
  5
17AC21874A37A9
330
17AC21874A2FC9
100
AcDbEntity
  8
0
100
AcDbLine
 10
2002.000036654635
 20
1597.41515923749
 30
0.0
 11
1810.520394843956
 21
1486.864336493762
 31
0.0
  0
CIRCLE
  5
17AC21874A37AA
330
17AC21874A2FC9
100
AcDbEntity
  8
COSTRUZIONE
100
AcDbCircle
 10
1815.39394568376
 20
1529.437681317445
 30
0.0
 40
34.0
  0
LINE
  5
17AC21874A37AB
330
17AC21874A2FC9
100
AcDbEntity
  8
0
100
AcDbLine
 10
1775.531978162083
 20
1547.66934283807
 30
0.0
 11
1771.871724124239
 21
1534.009088800226
 31
0.0
  0
LINE
  5
17AC21874A37AC
330
17AC21874A2FC9
100
AcDbEntity
  8
0
100
AcDbLine
 10
1796.860140806112
 20
1490.524590531606
 30
0.0
 11
1784.485827968155
 21
1511.957529075699
 31
0.0
  0
LINE
  5
17AC21874A37AD
330
17AC21874A2FC9
100
AcDbEntity
  8
0
100
AcDbLine
 10
1784.737762066584
 20
1511.724457391976
 30
0.0
 11
1771.871724124239
 21
1534.009088800226
 31
0.0
  0
CIRCLE
  5
17AC21874A37AE
330
17AC21874A2FC9
100
AcDbEntity
  8
COSTRUZIONE
100
AcDbCircle
 10
1815.39394568376
 20
1529.437681317445
 30
0.0
 40
12.5
  0
LINE
  5
17AC21874A37AF
330
17AC21874A2FC9
100
AcDbEntity
  8
0
100
AcDbLine
 10
1810.520394843956
 20
1486.864336493762
 30
0.0
 11
1796.860140806112
 21
1490.524590531606
 31
0.0
  0
LINE
  5
17AC21874A37B0
330
17AC21874A2FC9
100
AcDbEntity
  8
0
100
AcDbLine
 10
2002.000036654635
 20
1597.41515923749
 30
0.0
 11
2005.66029069248
 21
1611.075413275335
 31
0.0
  0
ARC
  5
17AC21874A37B1
330
17AC21874A2FC9
100
AcDbEntity
  8
COSTRUZIONE
100
AcDbCircle
 10
1919.316994137894
 20
1589.437681317445
 30
0.0
 40
55.0
100
AcDbArc
 50
70.43369952497066
 51
169.4992555805043
  0
CIRCLE
  5
17AC21874A37B2
330
17AC21874A2FC9
100
AcDbEntity
  8
COSTRUZIONE
100
AcDbCircle
 10
1919.548979613691
 20
1589.615349539734
 30
0.0
 40
30.0
  0
ARC
  5
17AC21874A37B3
330
17AC21874A2FC9
100
AcDbEntity
  8
COSTRUZIONE
100
AcDbCircle
 10
1919.316994137894
 20
1589.437681317445
 30
0.0
 40
55.0
100
AcDbArc
 50
248.8205344738234
 51
350.7499217354443
  0
LINE
  5
17AC21874A37B4
330
17AC21874A2FC9
100
AcDbEntity
  8
0
100
AcDbLine
 10
1980.583846436289
 20
1654.509088800226
 30
0.0
 11
1966.923592398444
 21
1658.169342838071
 31
0.0
  0
LINE
  5
17AC21874A37B5
330
17AC21874A2FC9
100
AcDbEntity
  8
0
100
AcDbLine
 10
1980.583846436289
 20
1654.509088800226
 30
0.0
 11
2005.66029069248
 21
1611.075413275335
 31
0.0
  0
ARC
  5
17AC21874A37B6
330
17AC21874A2FC9
100
AcDbEntity
  8
0
100
AcDbCircle
 10
1658.765684557903
 20
1441.193352620645
 30
0.0
 40
364.7815786469605
100
AcDbArc
 50
35.32092922615029
 51
54.25427523993194
  0
LINE
  5
17AC21874A37B7
330
17AC21874A2FC9
100
AcDbEntity
  8
0
100
AcDbLine
 10
1536.903983126521
 20
1512.915423067324
 30
0.0
 11
1524.037945184176
 21
1490.630791659073
 31
0.0
  0
CIRCLE
  5
17AC21874A37B8
330
17AC21874A2FC9
100
AcDbEntity
  8
COSTRUZIONE
100
AcDbCircle
 10
1506.235789415555
 20
1530.607844900145
 30
0.0
 40
34.0
  0
LINE
  5
17AC21874A37B9
330
17AC21874A2FC9
100
AcDbEntity
  8
0
100
AcDbLine
 10
1354.062521166162
 20
1658.22472122181
 30
0.0
 11
1545.542162976841
 21
1547.673898478081
 31
0.0
  0
LINE
  5
17AC21874A37BA
330
17AC21874A2FC9
100
AcDbEntity
  8
ASSE
100
AcDbLine
 10
1313.245619882653
 20
1642.030771230916
 30
0.0
 11
1551.57581100413
 21
1504.430771230915
 31
0.0
  0
LINE
  5
17AC21874A37BB
330
17AC21874A2FC9
100
AcDbEntity
  8
0
100
AcDbLine
 10
1315.325822872126
 20
1611.130791659074
 30
0.0
 11
1318.986076909971
 21
1597.470537621229
 31
0.0
  0
ARC
  5
17AC21874A37BC
330
17AC21874A2FC9
100
AcDbEntity
  8
COSTRUZIONE
100
AcDbCircle
 10
1402.312740961422
 20
1590.607844900145
 30
0.0
 40
55.0
100
AcDbArc
 50
8.820534473823347
 51
110.7499217354443
  0
CIRCLE
  5
17AC21874A37BD
330
17AC21874A2FC9
100
AcDbEntity
  8
COSTRUZIONE
100
AcDbCircle
 10
1402.042883029575
 20
1590.71991610435
 30
0.0
 40
30.0
  0
ARC
  5
17AC21874A37BE
330
17AC21874A2FC9
100
AcDbEntity
  8
COSTRUZIONE
100
AcDbCircle
 10
1402.312740961422
 20
1590.607844900145
 30
0.0
 40
55.0
100
AcDbArc
 50
190.4336995249706
 51
289.4992555805043
  0
LINE
  5
17AC21874A37BF
330
17AC21874A2FC9
100
AcDbEntity
  8
0
100
AcDbLine
 10
1510.377691146332
 20
1486.970537621229
 30
0.0
 11
1318.986076909971
 21
1597.470537621229
 31
0.0
  0
CIRCLE
  5
17AC21874A37C0
330
17AC21874A2FC9
100
AcDbEntity
  8
COSTRUZIONE
100
AcDbCircle
 10
1506.235789415555
 20
1530.607844900145
 30
0.0
 40
12.5
  0
LINE
  5
17AC21874A37C1
330
17AC21874A2FC9
100
AcDbEntity
  8
0
100
AcDbLine
 10
1510.377691146332
 20
1486.970537621229
 30
0.0
 11
1524.037945184176
 21
1490.630791659073
 31
0.0
  0
LINE
  5
17AC21874A37C2
330
17AC21874A2FC9
100
AcDbEntity
  8
0
100
AcDbLine
 10
1354.062521166162
 20
1658.22472122181
 30
0.0
 11
1340.402267128318
 21
1654.564467183965
 31
0.0
  0
LINE
  5
17AC21874A37C3
330
17AC21874A2FC9
100
AcDbEntity
  8
0
100
AcDbLine
 10
1315.325822872126
 20
1611.130791659074
 30
0.0
 11
1340.402267128318
 21
1654.564467183965
 31
0.0
  0
LINE
  5
17AC21874A37C4
330
17AC21874A2FC9
100
AcDbEntity
  8
0
100
AcDbLine
 10
1545.542162976841
 20
1547.673898478081
 30
0.0
 11
1549.202417014685
 21
1534.013644440236
 31
0.0
  0
LINE
  5
17AC21874A37C5
330
17AC21874A2FC9
100
AcDbEntity
  8
0
100
AcDbLine
 10
1549.202417014685
 20
1534.013644440236
 30
0.0
 11
1536.828104176728
 21
1512.580705896144
 31
0.0
  0
ARC
  5
17AC21874A37C6
330
17AC21874A2FC9
100
AcDbEntity
  8
0
100
AcDbCircle
 10
1662.199295131461
 20
1441.193352620645
 30
0.0
 40
364.7815786469605
100
AcDbArc
 50
155.7057744317354
 51
174.3689556735133
  0
ARC
  5
17AC21874A37C7
330
17AC21874A2FC9
100
AcDbEntity
  8
0
100
AcDbCircle
 10
1382.473483425991
 20
1043.863813714899
 30
0.0
 40
192.3393426482675
100
AcDbArc
 50
108.6125399171321
 51
147.6718950133496
  0
LINE
  5
17AC21874A37C9
330
17AC21874A2FC9
100
AcDbEntity
  8
ASSE
100
AcDbLine
 10
1751.924521011607
 20
968.6569096013284
 30
0.0
 11
1939.819427117294
 21
1044.539330186587
 31
0.0
  0
LINE
  5
17AC21874A37CA
330
17AC21874A2FC9
100
AcDbEntity
  8
ASSE
100
AcDbLine
 10
2095.890586466897
 20
919.271062342859
 30
0.0
 11
1939.401742228513
 21
1041.570506739195
 31
0.0
  0
ARC
  5
17AC21874A37CB
330
17AC21874A2FC9
100
AcDbEntity
  8
0
100
AcDbCircle
 10
2089.245489932357
 20
924.4643501972714
 30
0.0
 40
35.0
100
AcDbArc
 50
56.07208355028383
 51
225.5682457702046
  0
ARC
  5
17AC21874A37CC
330
17AC21874A2FC9
100
AcDbEntity
  8
0
100
AcDbCircle
 10
1760.786917702992
 20
972.2360386318451
 30
0.0
 40
35.0
100
AcDbArc
 50
297.084179086719
 51
106.6436242686711
  0
ARC
  5
17AC21874A37CD
330
17AC21874A2FC9
100
AcDbEntity
  8
0
100
AcDbCircle
 10
1941.046168025717
 20
1045.245942022611
 30
0.0
 40
191.183764837527
100
AcDbArc
 50
331.3240024403241
 51
11.56447451512605
  0
ARC
  5
17AC21874A37CE
330
17AC21874A2FC9
100
AcDbEntity
  8
0
100
AcDbCircle
 10
1939.291496263372
 20
1043.863813714899
 30
0.0
 40
192.3393426482675
100
AcDbArc
 50
212.3044564957428
 51
252.1337312687763
  0
ARC
  5
17AC21874A37D0
330
17AC21874A2FC9
100
AcDbEntity
  8
0
100
AcDbCircle
 10
1966.460381367415
 20
1233.898083072207
 30
0.0
 40
35.0
100
AcDbArc
 50
176.48103439143
 51
347.2462730529911
  0
LINE
  5
17AC21874A37D2
330
17AC21874A2FC9
100
AcDbEntity
  8
ASSE
100
AcDbLine
 10
1569.016540274336
 20
968.081929301733
 30
0.0
 11
1382.080953979718
 21
1043.576923155272
 31
0.0
  0
LINE
  5
17AC21874A37D3
330
17AC21874A2FC9
100
AcDbEntity
  8
ASSE
100
AcDbLine
 10
1223.625107742967
 20
919.7203440391918
 30
0.0
 11
1382.473483425991
 21
1043.863813714899
 31
0.0
  0
ARC
  5
17AC21874A37D4
330
17AC21874A2FC9
100
AcDbEntity
  8
0
100
AcDbCircle
 10
1560.662910351679
 20
971.4555899950577
 30
0.0
 40
35.0
100
AcDbArc
 50
73.10564910868262
 51
242.6650942906345
  0
ARC
  5
17AC21874A37D5
330
17AC21874A2FC9
100
AcDbEntity
  8
0
100
AcDbCircle
 10
1382.473483425991
 20
1043.863813714899
 30
0.0
 40
192.3393426482675
100
AcDbArc
 50
348.3259265177065
 51
32.79809996345077
  0
ARC
  5
17AC21874A37D7
330
17AC21874A2FC9
100
AcDbEntity
  8
0
100
AcDbCircle
 10
1355.495555653209
 20
1232.540795275294
 30
0.0
 40
35.0
100
AcDbArc
 50
190.5316621507438
 51
5.742870604832887
  0
ENDSEC
  0
SECTION
  2
OBJECTS
  0
DICTIONARY
  5
17AC21874A2FBD
330
0
100
AcDbDictionary
281
     1
  3
ACAD_COLOR
350
17AC21874A37DC
  3
ACAD_GROUP
350
17AC21874A2FBE
  3
ACAD_LAYOUT
350
17AC21874A353B
  3
ACAD_MATERIAL
350
17AC21874A37DB
  3
ACAD_MLINESTYLE
350
17AC21874A2FBF
  3
ACAD_PLOTSETTINGS
350
17AC21874A353C
  3
ACAD_PLOTSTYLENAME
350
17AC21874A3539
  3
ACAD_TABLESTYLE
350
17AC21874A37DD
  3
ACDBHEADERROUNDTRIPXREC
350
17AC21874A3894
  3
AcDbVariableDictionary
350
17AC21874A3888
  3
AcmDictionary
350
17AC21874A383E
  3
AMG
350
17AC21874A37E6
  3
AMGSNAPSETTINGS
350
17AC21874A387E
  0
DICTIONARY
  5
17AC21874A388B
330
17AC21874A2FB3
100
AcDbDictionary
280
     1
281
     1
  3
AMLAYER_GROUPCOLORS
360
17AC21874A388C
  0
DICTIONARY
  5
17AC21874A37DC
102
{ACAD_REACTORS
330
17AC21874A2FBD
102
}
330
17AC21874A2FBD
100
AcDbDictionary
281
     1
  0
DICTIONARY
  5
17AC21874A2FBE
102
{ACAD_REACTORS
330
17AC21874A2FBD
102
}
330
17AC21874A2FBD
100
AcDbDictionary
281
     1
  0
DICTIONARY
  5
17AC21874A353B
102
{ACAD_REACTORS
330
17AC21874A2FBD
102
}
330
17AC21874A2FBD
100
AcDbDictionary
281
     1
  3
Layout1
350
17AC21874A353E
  3
Model
350
17AC21874A353D
  0
DICTIONARY
  5
17AC21874A37DB
102
{ACAD_REACTORS
330
17AC21874A2FBD
102
}
330
17AC21874A2FBD
100
AcDbDictionary
281
     1
  0
DICTIONARY
  5
17AC21874A2FBF
102
{ACAD_REACTORS
330
17AC21874A2FBD
102
}
330
17AC21874A2FBD
100
AcDbDictionary
281
     1
  3
STANDARD
350
17AC21874A2FCC
  0
DICTIONARY
  5
17AC21874A353C
102
{ACAD_REACTORS
330
17AC21874A2FBD
102
}
330
17AC21874A2FBD
100
AcDbDictionary
281
     1
  0
ACDBDICTIONARYWDFLT
  5
17AC21874A3539
102
{ACAD_REACTORS
330
17AC21874A2FBD
102
}
330
17AC21874A2FBD
100
AcDbDictionary
281
     1
  3
Normal
350
17AC21874A353A
100
AcDbDictionaryWithDefault
340
17AC21874A353A
  0
DICTIONARY
  5
17AC21874A37DD
102
{ACAD_REACTORS
330
17AC21874A2FBD
102
}
330
17AC21874A2FBD
100
AcDbDictionary
281
     1
  3
Standard
350
17AC21874A37DE
  0
DICTIONARY
  5
17AC21874A3894
102
{ACAD_REACTORS
330
17AC21874A2FBD
102
}
330
17AC21874A2FBD
100
AcDbDictionary
281
     1
  0
DICTIONARY
  5
17AC21874A3888
102
{ACAD_REACTORS
330
17AC21874A2FBD
102
}
330
17AC21874A2FBD
100
AcDbDictionary
281
     1
  3
CTABLESTYLE
350
17AC21874A3889
  3
DIMASSOC
350
17AC21874A3891
  3
PROJECTNAME
350
17AC21874A3892
  0
DICTIONARY
  5
17AC21874A383E
102
{ACAD_REACTORS
330
17AC21874A2FBD
102
}
330
17AC21874A2FBD
100
AcDbDictionary
281
     1
  3
AcmStdDictionary
350
17AC21874A384B
  3
AMDTSECTSYM_ARROWCOLOR
350
17AC21874A3869
  0
DICTIONARY
  5
17AC21874A37E6
102
{ACAD_REACTORS
330
17AC21874A2FBD
102
}
330
17AC21874A2FBD
100
AcDbDictionary
281
     1
  0
DICTIONARY
  5
17AC21874A387E
102
{ACAD_REACTORS
330
17AC21874A2FBD
102
}
330
17AC21874A2FBD
100
AcDbDictionary
281
     1
  0
DICTIONARY
  5
17AC21874A388C
102
{ACAD_REACTORS
330
17AC21874A388B
102
}
330
17AC21874A388B
100
AcDbDictionary
280
     1
281
     1
  0
LAYOUT
  5
17AC21874A353E
102
{ACAD_XDICTIONARY
360
17AC21874A3897
102
}
102
{ACAD_REACTORS
330
17AC21874A353B
102
}
330
17AC21874A353B
100
AcDbPlotSettings
  1

  2
Canon Bubble-Jet BJC-4200
  4

  6

 40
0.0
 41
0.0
 42
0.0
 43
0.0
 44
0.0
 45
0.0
 46
0.0
 47
0.0
 48
0.0
 49
0.0
140
0.0
141
0.0
142
1.0
143
1.0
 70
   688
 72
     0
 73
     0
 74
     5
  7
monochrome.ctb
 75
    16
147
1.0
148
0.0
149
0.0
100
AcDbLayout
  1
Layout1
 70
     0
 71
     1
 10
0.0
 20
0.0
 11
12.0
 21
9.0
 12
0.0
 22
0.0
 32
0.0
 14
1.000000000000000E+20
 24
1.000000000000000E+20
 34
1.000000000000000E+20
 15
-1.000000000000000E+20
 25
-1.000000000000000E+20
 35
-1.000000000000000E+20
146
0.0
 13
0.0
 23
0.0
 33
0.0
 16
1.0
 26
0.0
 36
0.0
 17
0.0
 27
1.0
 37
0.0
 76
     0
330
17AC21874A2FC6
  0
LAYOUT
  5
17AC21874A353D
102
{ACAD_XDICTIONARY
360
17AC21874A3895
102
}
102
{ACAD_REACTORS
330
17AC21874A353B
102
}
330
17AC21874A353B
100
AcDbPlotSettings
  1

  2
Lexmark Z45
  4
A4
  6

 40
4.180416584014892
 41
13.4937515258789
 42
4.180404663085937
 43
3.17498779296875
 44
209.9733276367187
 45
296.9683227539062
 46
0.0
 47
0.0
 48
-537.9999999999995
 49
-260.3999999999999
140
3562.000000000001
141
2609.6
142
1.0
143
14.62720689683048
 70
 11952
 72
     1
 73
     1
 74
     4
  7
monochrome.ctb
 75
     0
147
0.0683657520573314
148
537.9999999999995
149
260.3999999999999
100
AcDbLayout
  1
Model
 70
     1
 71
     0
 10
0.0
 20
0.0
 11
12.0
 21
9.0
 12
0.0
 22
0.0
 32
0.0
 14
0.0
 24
0.0
 34
0.0
 15
0.0
 25
0.0
 35
0.0
146
0.0
 13
0.0
 23
0.0
 33
0.0
 16
1.0
 26
0.0
 36
0.0
 17
0.0
 27
1.0
 37
0.0
 76
     0
330
17AC21874A2FC9
  0
MLINESTYLE
  5
17AC21874A2FCC
102
{ACAD_REACTORS
330
17AC21874A2FBF
102
}
330
17AC21874A2FBF
100
AcDbMlineStyle
  2
STANDARD
 70
     0
  3

 62
     0
 51
90.0
 52
90.0
 71
     2
 49
0.5
 62
   256
  6
BYLAYER
 49
-0.5
 62
   256
  6
BYLAYER
  0
ACDBPLACEHOLDER
  5
17AC21874A353A
102
{ACAD_REACTORS
330
17AC21874A3539
102
}
330
17AC21874A3539
  0
TABLESTYLE
  5
17AC21874A37DE
102
{ACAD_REACTORS
330
17AC21874A37DD
102
}
330
17AC21874A37DD
100
AcDbTableStyle
  3
Standard
 70
     0
 71
     0
 40
0.06
 41
0.06
280
     0
281
     0
  7
STANDARD
140
0.18
170
     2
 62
     0
 63
     7
283
     0
274
    -2
284
     1
 64
     0
275
    -2
285
     1
 65
     0
276
    -2
286
     1
 66
     0
277
    -2
287
     1
 67
     0
278
    -2
288
     1
 68
     0
279
    -2
289
     1
 69
     0
  7
STANDARD
140
0.25
170
     5
 62
     0
 63
     7
283
     0
274
    -2
284
     1
 64
     0
275
    -2
285
     1
 65
     0
276
    -2
286
     1
 66
     0
277
    -2
287
     1
 67
     0
278
    -2
288
     1
 68
     0
279
    -2
289
     1
 69
     0
  7
STANDARD
140
0.18
170
     5
 62
     0
 63
     7
283
     0
274
    -2
284
     1
 64
     0
275
    -2
285
     1
 65
     0
276
    -2
286
     1
 66
     0
277
    -2
287
     1
 67
     0
278
    -2
288
     1
 68
     0
279
    -2
289
     1
 69
     0
  0
DICTIONARYVAR
  5
17AC21874A3889
102
{ACAD_REACTORS
330
17AC21874A3888
102
}
330
17AC21874A3888
100
DictionaryVariables
280
     0
  1
STANDARD
  0
DICTIONARYVAR
  5
17AC21874A3891
102
{ACAD_REACTORS
330
17AC21874A3888
102
}
330
17AC21874A3888
100
DictionaryVariables
280
     0
  1
1
  0
DICTIONARYVAR
  5
17AC21874A3892
102
{ACAD_REACTORS
330
17AC21874A3888
102
}
330
17AC21874A3888
100
DictionaryVariables
280
     0
  1

  0
DICTIONARY
  5
17AC21874A384B
102
{ACAD_REACTORS
330
17AC21874A383E
102
}
330
17AC21874A383E
100
AcDbDictionary
281
     1
  0
XRECORD
  5
17AC21874A3869
102
{ACAD_REACTORS
330
17AC21874A383E
102
}
330
17AC21874A383E
100
AcDbXrecord
280
     1
 90
-1023410169
  0
DICTIONARY
  5
17AC21874A3897
330
17AC21874A353E
100
AcDbDictionary
280
     1
281
     1
  3
ACAD_XREC_ROUNDTRIP
360
17AC21874A3898
  0
DICTIONARY
  5
17AC21874A3895
330
17AC21874A353D
100
AcDbDictionary
280
     1
281
     1
  3
ACAD_XREC_ROUNDTRIP
360
17AC21874A3896
  0
XRECORD
  5
17AC21874A3898
102
{ACAD_REACTORS
330
17AC21874A3897
102
}
330
17AC21874A3897
100
AcDbXrecord
280
     1
102
SHADEPLOT
 70
     0
102
SHADEPLOTRESLEVEL
 70
     2
102
SHADEPLOTCUSTOMDPI
 70
   300
  0
XRECORD
  5
17AC21874A3896
102
{ACAD_REACTORS
330
17AC21874A3895
102
}
330
17AC21874A3895
100
AcDbXrecord
280
     1
102
SHADEPLOT
 70
     0
102
SHADEPLOTRESLEVEL
 70
     2
102
SHADEPLOTCUSTOMDPI
 70
   300
  0
ENDSEC
  0
EOF
