  0
SECTION
  2
HEADER
  9
$ACADVER
  1
AC1015
  9
$ACADMAINTVER
 70
    20
  9
$DWGCODEPAGE
  3
ANSI_1252
  9
$INSBASE
 10
229.0
 20
50.0
 30
0.0
  9
$EXTMIN
 10
4778.410902119149
 20
2527.698062988408
 30
0.0
  9
$EXTMAX
 10
9944.41090211915
 20
6127.698062988407
 30
0.0
  9
$LIMMIN
 10
0.0
 20
0.0
  9
$LIMMAX
 10
4200.0
 20
2970.0
  9
$ORTHOMODE
 70
     1
  9
$REGENMODE
 70
     1
  9
$FILLMODE
 70
     1
  9
$QTEXTMODE
 70
     0
  9
$MIRRTEXT
 70
     1
  9
$LTSCALE
 40
10.0
  9
$ATTMODE
 70
     1
  9
$TEXTSIZE
 40
30.0
  9
$TRACEWID
 40
0.05
  9
$TEXTSTYLE
  7
ROMANS
  9
$CLAYER
  8
AM_4
  9
$CELTYPE
  6
BYLAYER
  9
$CECOLOR
 62
   256
  9
$CELTSCALE
 40
1.0
  9
$DISPSILH
 70
     0
  9
$DIMSCALE
 40
10.0
  9
$DIMASZ
 40
3.0
  9
$DIMEXO
 40
2.0
  9
$DIMDLI
 40
10.0
  9
$DIMRND
 40
0.0
  9
$DIMDLE
 40
0.0
  9
$DIMEXE
 40
2.0
  9
$DIMTP
 40
0.1
  9
$DIMTM
 40
0.15
  9
$DIMTXT
 40
3.0
  9
$DIMCEN
 40
0.5
  9
$DIMTSZ
 40
0.0
  9
$DIMTOL
 70
     0
  9
$DIMLIM
 70
     0
  9
$DIMTIH
 70
     0
  9
$DIMTOH
 70
     0
  9
$DIMSE1
 70
     0
  9
$DIMSE2
 70
     0
  9
$DIMTAD
 70
     1
  9
$DIMZIN
 70
     8
  9
$DIMBLK
  1

  9
$DIMASO
 70
     1
  9
$DIMSHO
 70
     1
  9
$DIMPOST
  1

  9
$DIMAPOST
  1

  9
$DIMALT
 70
     0
  9
$DIMALTD
 70
     2
  9
$DIMALTF
 40
25.4
  9
$DIMLFAC
 40
1.0
  9
$DIMTOFL
 70
     1
  9
$DIMTVP
 40
0.0
  9
$DIMTIX
 70
     0
  9
$DIMSOXD
 70
     0
  9
$DIMSAH
 70
     0
  9
$DIMBLK1
  1

  9
$DIMBLK2
  1

  9
$DIMSTYLE
  2
BASE
  9
$DIMCLRD
 70
   256
  9
$DIMCLRE
 70
   256
  9
$DIMCLRT
 70
   254
  9
$DIMTFAC
 40
0.6666666666666666
  9
$DIMGAP
 40
1.0
  9
$DIMJUST
 70
     0
  9
$DIMSD1
 70
     0
  9
$DIMSD2
 70
     0
  9
$DIMTOLJ
 70
     1
  9
$DIMTZIN
 70
     0
  9
$DIMALTZ
 70
     0
  9
$DIMALTTZ
 70
     0
  9
$DIMUPT
 70
     0
  9
$DIMDEC
 70
     4
  9
$DIMTDEC
 70
     4
  9
$DIMALTU
 70
     2
  9
$DIMALTTD
 70
     2
  9
$DIMTXSTY
  7
STANDARD
  9
$DIMAUNIT
 70
     0
  9
$DIMADEC
 70
     0
  9
$DIMALTRND
 40
0.0
  9
$DIMAZIN
 70
     0
  9
$DIMDSEP
 70
    46
  9
$DIMATFIT
 70
     3
  9
$DIMFRAC
 70
     0
  9
$DIMLDRBLK
  1

  9
$DIMLUNIT
 70
     2
  9
$DIMLWD
 70
    -2
  9
$DIMLWE
 70
    -2
  9
$DIMTMOVE
 70
     0
  9
$LUNITS
 70
     2
  9
$LUPREC
 70
     2
  9
$SKETCHINC
 40
0.1
  9
$FILLETRAD
 40
10.0
  9
$AUNITS
 70
     1
  9
$AUPREC
 70
     3
  9
$MENU
  1
C:\promecad\acad
  9
$ELEVATION
 40
0.0
  9
$PELEVATION
 40
0.0
  9
$THICKNESS
 40
0.0
  9
$LIMCHECK
 70
     0
  9
$CHAMFERA
 40
95.0
  9
$CHAMFERB
 40
95.0
  9
$CHAMFERC
 40
0.0
  9
$CHAMFERD
 40
0.0
  9
$SKPOLY
 70
     0
  9
$TDCREATE
 40
2450617.925509861
  9
$TDUCREATE
 40
2450617.842176528
  9
$TDUPDATE
 40
2453830.629699642
  9
$TDUUPDATE
 40
2453830.546366308
  9
$TDINDWG
 40
1.2632906250
  9
$TDUSRTIMER
 40
1.2632906250
  9
$USRTIMER
 70
     1
  9
$ANGBASE
 50
0.0
  9
$ANGDIR
 70
     0
  9
$PDMODE
 70
     0
  9
$PDSIZE
 40
0.0
  9
$PLINEWID
 40
0.0
  9
$SPLFRAME
 70
     0
  9
$SPLINETYPE
 70
     6
  9
$SPLINESEGS
 70
     8
  9
$HANDSEED
  5
17AC21874A3D19
  9
$SURFTAB1
 70
     6
  9
$SURFTAB2
 70
     6
  9
$SURFTYPE
 70
     6
  9
$SURFU
 70
     6
  9
$SURFV
 70
     6
  9
$UCSBASE
  2

  9
$UCSNAME
  2

  9
$UCSORG
 10
0.0
 20
0.0
 30
0.0
  9
$UCSXDIR
 10
1.0
 20
0.0
 30
0.0
  9
$UCSYDIR
 10
0.0
 20
1.0
 30
0.0
  9
$UCSORTHOREF
  2

  9
$UCSORTHOVIEW
 70
     0
  9
$UCSORGTOP
 10
0.0
 20
0.0
 30
0.0
  9
$UCSORGBOTTOM
 10
0.0
 20
0.0
 30
0.0
  9
$UCSORGLEFT
 10
0.0
 20
0.0
 30
0.0
  9
$UCSORGRIGHT
 10
0.0
 20
0.0
 30
0.0
  9
$UCSORGFRONT
 10
0.0
 20
0.0
 30
0.0
  9
$UCSORGBACK
 10
0.0
 20
0.0
 30
0.0
  9
$PUCSBASE
  2

  9
$PUCSNAME
  2

  9
$PUCSORG
 10
0.0
 20
0.0
 30
0.0
  9
$PUCSXDIR
 10
1.0
 20
0.0
 30
0.0
  9
$PUCSYDIR
 10
0.0
 20
1.0
 30
0.0
  9
$PUCSORTHOREF
  2

  9
$PUCSORTHOVIEW
 70
     0
  9
$PUCSORGTOP
 10
0.0
 20
0.0
 30
0.0
  9
$PUCSORGBOTTOM
 10
0.0
 20
0.0
 30
0.0
  9
$PUCSORGLEFT
 10
0.0
 20
0.0
 30
0.0
  9
$PUCSORGRIGHT
 10
0.0
 20
0.0
 30
0.0
  9
$PUCSORGFRONT
 10
0.0
 20
0.0
 30
0.0
  9
$PUCSORGBACK
 10
0.0
 20
0.0
 30
0.0
  9
$USERI1
 70
    10
  9
$USERI2
 70
     1
  9
$USERI3
 70
     0
  9
$USERI4
 70
     2
  9
$USERI5
 70
     5
  9
$USERR1
 40
0.0
  9
$USERR2
 40
0.0
  9
$USERR3
 40
0.0
  9
$USERR4
 40
0.0
  9
$USERR5
 40
0.0
  9
$WORLDVIEW
 70
     1
  9
$SHADEDGE
 70
     3
  9
$SHADEDIF
 70
    70
  9
$TILEMODE
 70
     1
  9
$MAXACTVP
 70
    16
  9
$PINSBASE
 10
0.0
 20
0.0
 30
0.0
  9
$PLIMCHECK
 70
     0
  9
$PEXTMIN
 10
1.000000000000000E+20
 20
1.000000000000000E+20
 30
1.000000000000000E+20
  9
$PEXTMAX
 10
-1.000000000000000E+20
 20
-1.000000000000000E+20
 30
-1.000000000000000E+20
  9
$PLIMMIN
 10
0.0
 20
0.0
  9
$PLIMMAX
 10
12.0
 20
9.0
  9
$UNITMODE
 70
     0
  9
$VISRETAIN
 70
     0
  9
$PLINEGEN
 70
     0
  9
$PSLTSCALE
 70
     0
  9
$TREEDEPTH
 70
  3020
  9
$CMLSTYLE
  2
STANDARD
  9
$CMLJUST
 70
     0
  9
$CMLSCALE
 40
1.0
  9
$PROXYGRAPHICS
 70
     1
  9
$MEASUREMENT
 70
     0
  9
$CELWEIGHT
370
    -1
  9
$ENDCAPS
280
     0
  9
$JOINSTYLE
280
     0
  9
$LWDISPLAY
290
     0
  9
$INSUNITS
 70
     0
  9
$HYPERLINKBASE
  1

  9
$STYLESHEET
  1

  9
$XEDIT
290
     1
  9
$CEPSNTYPE
380
     0
  9
$PSTYLEMODE
290
     1
  9
$FINGERPRINTGUID
  2
{FB693F22-847F-11D6-BC3D-0050BA4C3F08}
  9
$VERSIONGUID
  2
{7CD8D9E6-D0C2-4B71-A0F0-784292BE9109}
  9
$EXTNAMES
290
     1
  9
$PSVPSCALE
 40
0.0
  9
$OLESTARTUP
290
     0
  0
ENDSEC
  0
SECTION
  2
CLASSES
  0
CLASS
  1
ACDBDICTIONARYWDFLT
  2
AcDbDictionaryWithDefault
  3
ObjectDBX Classes
 90
        0
280
     0
281
     0
  0
CLASS
  1
ACDBPLACEHOLDER
  2
AcDbPlaceHolder
  3
ObjectDBX Classes
 90
        0
280
     0
281
     0
  0
CLASS
  1
LAYOUT
  2
AcDbLayout
  3
ObjectDBX Classes
 90
        0
280
     0
281
     0
  0
CLASS
  1
TABLESTYLE
  2
AcDbTableStyle
  3
ObjectDBX Classes
 90
     2047
280
     0
281
     0
  0
CLASS
  1
ACME_DOCUMENT
  2
AcMeDbDoc
  3
AcMeServices
 90
        0
280
     0
281
     0
  0
CLASS
  1
AMGSETTINGSOBJ
  2
AmgSettingsObj
  3
"AcadM|Product Description: AutoCAD Mechanical 2000|Company: Autodesk"
 90
        0
280
     0
281
     0
  0
CLASS
  1
ACMESCOPE
  2
AcMeScope
  3
AcMeServices
 90
        0
280
     0
281
     0
  0
CLASS
  1
ACMECOMMANDHISTORY
  2
AcMeCommandHistory
  3
AcMeServices
 90
        0
280
     0
281
     0
  0
CLASS
  1
ACIMSYSVARMAN
  2
AcImSysVarManager
  3
AcMeServices
 90
        0
280
     0
281
     0
  0
CLASS
  1
ACIMINTSYSVAR
  2
AcImIntSysVar
  3
AcMeServices
 90
        0
280
     0
281
     0
  0
CLASS
  1
ACMEDRAWINGMAN
  2
AcMeDrawingMan
  3
AcMeServices
 90
        0
280
     0
281
     0
  0
CLASS
  1
ACMEVIEW
  2
AcMeView
  3
AcMeServices
 90
        0
280
     0
281
     0
  0
CLASS
  1
ACDBENTITYCACHE
  2
AcMeEntityCache
  3
AcMeServices
 90
        0
280
     0
281
     0
  0
CLASS
  1
GSMANAGER
  2
AcMeGSManager
  3
AcMeServices
 90
        0
280
     0
281
     0
  0
CLASS
  1
AMDTINTERNALREACTOR
  2
AmdtInternalReactor
  3
AcMeServices
 90
        0
280
     0
281
     0
  0
CLASS
  1
ACMESTATEMGR
  2
AcMeStateMgr
  3
AcMeServices
 90
        0
280
     0
281
     0
  0
CLASS
  1
ACGREFMASTER
  2
AcGrefMaster
  3
AcAttribServices
 90
        0
280
     0
281
     0
  0
CLASS
  1
AM_DRAWING_MGR
  2
AcDmDwgMgr
  3
AcMechDwgViewMgmt
 90
        0
280
     0
281
     0
  0
CLASS
  1
AM_DWG_DOCUMENT
  2
AcDmDwgDocument
  3
AcMechDwgViewMgmt
 90
        0
280
     0
281
     0
  0
CLASS
  1
AM_DWG_SHEET
  2
AcDmSheet
  3
AcMechDwgViewMgmt
 90
        0
280
     0
281
     0
  0
CLASS
  1
AM_VIEWDIMPARMAP
  2
AcDmViewDimParMap
  3
AcMechDwgViewMgmt
 90
        0
280
     0
281
     0
  0
CLASS
  1
ACIMREALSYSVAR
  2
AcImRealSysVar
  3
AcMeServices
 90
        0
280
     0
281
     0
  0
CLASS
  1
AM_DWGMGR_NAME
  2
AcDmDwgMgrName
  3
AcMechDwgViewMgmt
 90
        0
280
     0
281
     0
  0
CLASS
  1
ACME_DATABASE
  2
AcMeDbDatabase
  3
AcMeServices
 90
        0
280
     0
281
     0
  0
CLASS
  1
ACRFINSADJUSTERMGR
  2
AcRfInsAdjusterMgr
  3
AcMeServices
 90
        0
280
     0
281
     0
  0
CLASS
  1
ACGREFACADMASTER
  2
AcGrefacadMaster
  3
AcGrefServices
 90
        0
280
     0
281
     0
  0
CLASS
  1
AMDTMENUSTATEMGR
  2
AmdtMenuStateMgr
  3
McadcomServices
 90
        0
280
     0
281
     0
  0
CLASS
  1
AMDTMCOMMENUSTATE
  2
AmdtMcomMenuState
  3
McadcomServices
 90
        0
280
     0
281
     0
  0
CLASS
  1
AMIMASTER
  2
AmiMaster
  3
AmiServices
 90
        0
280
     0
281
     0
  0
CLASS
  1
MAPIAMMOUDLE
  2
MApiAmModule
  3
MApiAmServices
 90
        0
280
     0
281
     0
  0
CLASS
  1
AMDTADMENUSTATE
  2
AmdtAdMenuState
  3
DesignerServices
 90
        0
280
     0
281
     0
  0
CLASS
  1
ADAPPL
  2
AcAdAppl
  3
DesignerServices
 90
        0
280
     0
281
     0
  0
CLASS
  1
DEPMGR
  2
AcAdDepMgr
  3
DesignerServices
 90
        0
280
     0
281
     0
  0
CLASS
  1
PARAMMGR
  2
AcAdParamMgr
  3
DesignerServices
 90
        0
280
     0
281
     0
  0
CLASS
  1
PARAMSCOPE
  2
AcAdParamScope
  3
DesignerServices
 90
        0
280
     0
281
     0
  0
CLASS
  1
NAMEDAPPL
  2
AcAdNamedAppl
  3
DesignerServices
 90
        0
280
     0
281
     0
  0
CLASS
  1
AMDTDMMENUSTATE
  2
AmdtDmMenuState
  3
AcMechDwgViewMgmt
 90
        0
280
     0
281
     0
  0
CLASS
  1
AMDTAMMENUSTATE
  2
AmdtAmMenuState
  3
DesignerAssemblies
 90
        0
280
     0
281
     0
  0
CLASS
  1
ACIMSTRSYSVAR
  2
AcImStrSysVar
  3
AcMeServices
 90
        0
280
     0
281
     0
  0
CLASS
  1
ACAMPROJECT
  2
AcAmProject
  3
DesignerAssemblies
 90
        0
280
     0
281
     0
  0
CLASS
  1
ACAMGRCOMPDEF
  2
AcAmGrCompDef
  3
DesignerAssemblies
 90
        0
280
     0
281
     0
  0
CLASS
  1
ACCMCONTEXT
  2
AcCmContext
  3
DesignerAssemblies
 90
        0
280
     0
281
     0
  0
CLASS
  1
ACAMCOMPDEF
  2
AcAmCompDef
  3
DesignerAssemblies
 90
        0
280
     0
281
     0
  0
CLASS
  1
ACAMCOMPDEFMGR
  2
AcAmCompDefMgr
  3
DesignerAssemblies
 90
        0
280
     0
281
     0
  0
CLASS
  1
AMCONTEXTMGR
  2
AcAmContextMgr
  3
DesignerAssemblies
 90
        0
280
     0
281
     0
  0
CLASS
  1
ACAMCONTEXTMODELER
  2
AcAmContextModeler
  3
DesignerAssemblies
 90
        0
280
     0
281
     0
  0
CLASS
  1
ACMDATADICTIONARY
  2
AcmDataDictionary
  3
"AcmSymBB|Product Description: AutoCAD Mechanical 2004 DX|Company: Autodesk"
 90
        0
280
     0
281
     0
  0
CLASS
  1
CATALOGSTATE
  2
AcAmCatalogState
  3
DesignerAssemblies
 90
        0
280
     0
281
     0
  0
CLASS
  1
ACAMGRCOMPDEFSET
  2
AcAmGrCompDefSet
  3
DesignerAssemblies
 90
        0
280
     0
281
     0
  0
CLASS
  1
AMDTBROWSERDBTAB
  2
AmdtBrowserDbTab
  3
McadcomServices
 90
        0
280
     0
281
     0
  0
CLASS
  1
CBROWSERAPPOBJECT
  2
CBrowserAppObject
  3
McadcomServices
 90
        0
280
     0
281
     0
  0
CLASS
  1
DM_PLACEHOLDER
  2
AcDmSelsetPlaceholder
  3
AcMechDwgViewMgmt
 90
        0
280
     0
281
     0
  0
CLASS
  1
ACMSTANDARDANSI
  2
AcmStandardANSI
  3
"Amdt_StdImp|Product Description: AutoCAD Mechanical 2004 DX|Company: Autodesk"
 90
        0
280
     0
281
     0
  0
CLASS
  1
AMGOBJPROPCFG
  2
AmgObjPropCfg
  3
"AmgLay|Product Description: AutoCAD Mechanical 2000|Company: Autodesk"
 90
        1
280
     0
281
     0
  0
CLASS
  1
ACMSURFSTANDARDANSI
  2
AcmSurfTextStdANSI
  3
"Amdt_StdImp|Product Description: AutoCAD Mechanical 2004 DX|Company: Autodesk"
 90
        0
280
     0
281
     0
  0
CLASS
  1
ACMFCFSTANDARDANSI
  2
AcmFCFStdANSI
  3
"Amdt_StdImp|Product Description: AutoCAD Mechanical 2004 DX|Company: Autodesk"
 90
        0
280
     0
281
     0
  0
CLASS
  1
ACMWELDSTANDARDANSI
  2
AcmWeldingStdANSI
  3
"Amdt_StdImp|Product Description: AutoCAD Mechanical 2004 DX|Company: Autodesk"
 90
        0
280
     0
281
     0
  0
CLASS
  1
ACMIDSTANDARDANSI
  2
AcmIdStdANSI
  3
"Amdt_StdImp|Product Description: AutoCAD Mechanical 2004 DX|Company: Autodesk"
 90
        0
280
     0
281
     0
  0
CLASS
  1
ACMDATUMSTANDARDANSI
  2
AcmDatumStdANSI
  3
"Amdt_StdImp|Product Description: AutoCAD Mechanical 2004 DX|Company: Autodesk"
 90
        0
280
     0
281
     0
  0
CLASS
  1
ACMBOMSTANDARDANSI
  2
AcmBOMStdANSI
  3
"Amdt_StdImp|Product Description: AutoCAD Mechanical 2004 DX|Company: Autodesk"
 90
        0
280
     0
281
     0
  0
CLASS
  1
ACMDETAILSTANDARDANSI
  2
AmdtDetailSymStdANSI
  3
"Amdt_StdImp|Product Description: AutoCAD Mechanical 2004 DX|Company: Autodesk"
 90
        0
280
     0
281
     0
  0
CLASS
  1
ACMSECTIONSTANDARDANSI
  2
AmdtSectionSymStdANSI
  3
"Amdt_StdImp|Product Description: AutoCAD Mechanical 2004 DX|Company: Autodesk"
 90
        0
280
     0
281
     0
  0
CLASS
  1
ACMCENTERLINESTANDARDANSI
  2
AmdtCenterLineStdANSI
  3
"Amdt_StdImp|Product Description: AutoCAD Mechanical 2004 DX|Company: Autodesk"
 90
        0
280
     0
281
     0
  0
CLASS
  1
ACMTHREADLINESTANDARDANSI
  2
AmdtThreadLineStdANSI
  3
"Amdt_StdImp|Product Description: AutoCAD Mechanical 2004 DX|Company: Autodesk"
 90
        0
280
     0
281
     0
  0
CLASS
  1
ACMNOTESTANDARDANSI
  2
AmdtNoteStdANSI
  3
"Amdt_StdImp|Product Description: AutoCAD Mechanical 2004 DX|Company: Autodesk"
 90
        0
280
     0
281
     0
  0
CLASS
  1
AMDTNOTETEMPLATEDB
  2
AmdtNoteTemplateDB
  3
AMDT_STDIMP_MODULE_NAME
 90
        0
280
     0
281
     0
  0
CLASS
  1
ACAMGLAYSTD
  2
AcAmgLayStd
  3
"AcAmgLayStd|Product Description: AutoCAD Mechanical 2000|Company: Autodesk"
 90
        0
280
     0
281
     0
  0
CLASS
  1
ACAMGDIMSTD
  2
AcAmgDimStd
  3
"AcAmgDimStd|Product Description: AutoCAD Mechanical 2000|Company: Autodesk"
 90
        0
280
     0
281
     0
  0
CLASS
  1
ACAMGHOLECHARTSTDANSI
  2
AcAmgHoleChartStdANSI
  3
ACMSYMBB_MODULE_NAME
 90
        0
280
     0
281
     0
  0
CLASS
  1
ACAMGTITLESTD
  2
AcAmgTitleStd
  3
"TITLEAPP"
 90
        0
280
     0
281
     0
  0
CLASS
  1
ACAMGFILTERDAT
  2
AcAmgFilterDat
  3
"AcadM|Product Description: AutoCAD Mechanical 2000|Company: Autodesk"
 90
        0
280
     0
281
     0
  0
CLASS
  1
DICTIONARYVAR
  2
AcDbDictionaryVar
  3
ObjectDBX Classes
 90
        0
280
     0
281
     0
  0
CLASS
  1
ACRFATTGENMGR
  2
AcRfAttGeneralMgr
  3
AcAttribServices
 90
        0
280
     0
281
     0
  0
ENDSEC
  0
SECTION
  2
TABLES
  0
TABLE
  2
VPORT
  5
17AC21874A2FB9
330
0
100
AcDbSymbolTable
 70
    10
  0
VPORT
  5
17AC21874A3D13
330
17AC21874A2FB9
100
AcDbSymbolTableRecord
100
AcDbViewportTableRecord
  2
*Active
 70
     0
 10
0.0
 20
0.0
 11
1.0
 21
1.0
 12
7276.234691705656
 22
4439.101916907062
 13
0.0
 23
0.0
 14
0.2
 24
0.2
 15
0.25
 25
0.25
 16
0.0
 26
0.0
 36
1.0
 17
0.0
 27
0.0
 37
0.0
 40
4186.692751293496
 41
1.516981132075471
 42
50.0
 43
0.0
 44
0.0
 50
0.0
 51
0.0
 71
     0
 72
   100
 73
     1
 74
     0
 75
     0
 76
     0
 77
     0
 78
     0
281
     0
 65
     1
110
0.0
120
0.0
130
0.0
111
1.0
121
0.0
131
0.0
112
0.0
122
1.0
132
0.0
 79
     0
146
0.0
  0
ENDTAB
  0
TABLE
  2
LTYPE
  5
17AC21874A2FB6
330
0
100
AcDbSymbolTable
 70
    22
  0
LTYPE
  5
17AC21874A2FC3
330
17AC21874A2FB6
100
AcDbSymbolTableRecord
100
AcDbLinetypeTableRecord
  2
BYBLOCK
 70
     0
  3

 72
    65
 73
     0
 40
0.0
  0
LTYPE
  5
17AC21874A2FC4
330
17AC21874A2FB6
100
AcDbSymbolTableRecord
100
AcDbLinetypeTableRecord
  2
BYLAYER
 70
     0
  3

 72
    65
 73
     0
 40
0.0
  0
LTYPE
  5
17AC21874A2FC5
330
17AC21874A2FB6
100
AcDbSymbolTableRecord
100
AcDbLinetypeTableRecord
  2
CONTINUOUS
 70
     0
  3
Solid line
 72
    65
 73
     0
 40
0.0
  0
LTYPE
  5
17AC21874A2FD5
330
17AC21874A2FB6
100
AcDbSymbolTableRecord
100
AcDbLinetypeTableRecord
  2
ASSI5
 70
     0
  3
- . - . - . -
 72
    65
 73
     4
 40
10.0
 49
5.0
 74
     0
 49
-2.5
 74
     0
 49
0.0
 74
     0
 49
-2.5
 74
     0
  0
LTYPE
  5
17AC21874A2FD6
330
17AC21874A2FB6
100
AcDbSymbolTableRecord
100
AcDbLinetypeTableRecord
  2
ASSI10
 70
     0
  3
- . - . - . -
 72
    65
 73
     4
 40
20.0
 49
10.0
 74
     0
 49
-5.0
 74
     0
 49
0.0
 74
     0
 49
-5.0
 74
     0
  0
LTYPE
  5
17AC21874A2FD7
330
17AC21874A2FB6
100
AcDbSymbolTableRecord
100
AcDbLinetypeTableRecord
  2
TRATTO
 70
     0
  3
- - - - - - - - -
 72
    65
 73
     2
 40
5.0
 49
2.5
 74
     0
 49
-2.5
 74
     0
  0
LTYPE
  5
17AC21874A2FD8
330
17AC21874A2FB6
100
AcDbSymbolTableRecord
100
AcDbLinetypeTableRecord
  2
TRATTINO
 70
     0
  3
- - - - - - - - -
 72
    65
 73
     2
 40
3.0
 49
2.0
 74
     0
 49
-1.0
 74
     0
  0
LTYPE
  5
17AC21874A2FD9
330
17AC21874A2FB6
100
AcDbSymbolTableRecord
100
AcDbLinetypeTableRecord
  2
TRATTI1
 70
     0
  3
- - - - - - - - - - - - - - - - - - - - - -
 72
    65
 73
     2
 40
4.0
 49
2.5
 74
     0
 49
-1.5
 74
     0
  0
LTYPE
  5
17AC21874A2FDA
330
17AC21874A2FB6
100
AcDbSymbolTableRecord
100
AcDbLinetypeTableRecord
  2
ASSI
 70
     0
  3
assi
 72
    65
 73
     4
 40
17.0
 49
8.0
 74
     0
 49
-4.0
 74
     0
 49
1.0
 74
     0
 49
-4.0
 74
     0
  0
LTYPE
  5
17AC21874A3C18
330
17AC21874A2FB6
100
AcDbSymbolTableRecord
100
AcDbLinetypeTableRecord
  2
HIDDEN
 70
     0
  3
Nascosta __ __ __ __ __ __ __ __ __ __ __ __ __ __
 72
    65
 73
     2
 40
0.375
 49
0.25
 74
     0
 49
-0.125
 74
     0
  0
LTYPE
  5
17AC21874A3C19
330
17AC21874A2FB6
100
AcDbSymbolTableRecord
100
AcDbLinetypeTableRecord
  2
PHANTOM2
 70
     0
  3
Linea-Lineette (.5x) ___ _ _ ___ _ _ ___ _ _ ___ _ _
 72
    65
 73
     6
 40
1.25
 49
0.625
 74
     0
 49
-0.125
 74
     0
 49
0.125
 74
     0
 49
-0.125
 74
     0
 49
0.125
 74
     0
 49
-0.125
 74
     0
  0
LTYPE
  5
17AC21874A3C1A
330
17AC21874A2FB6
100
AcDbSymbolTableRecord
100
AcDbLinetypeTableRecord
  2
CENTER
 70
     0
  3
Linea-Lineetta ____ _ ____ _ ____ _ ____ _ ____ _ ____
 72
    65
 73
     4
 40
2.0
 49
1.25
 74
     0
 49
-0.25
 74
     0
 49
0.25
 74
     0
 49
-0.25
 74
     0
  0
LTYPE
  5
17AC21874A3C4E
330
17AC21874A2FB6
100
AcDbSymbolTableRecord
100
AcDbLinetypeTableRecord
  2
AM_ISO02W050
 70
     0
  3
__ __ __ __ __ __ __ __ __ __ __ __ __ __ __
 72
    65
 73
     2
 40
7.5
 49
6.0
 74
     0
 49
-1.5
 74
     0
  0
LTYPE
  5
17AC21874A3C4F
330
17AC21874A2FB6
100
AcDbSymbolTableRecord
100
AcDbLinetypeTableRecord
  2
AM_ISO08W050
 70
     0
  3
____ . ____ . ____ . ____ . ____ . ____ . ____
 72
    65
 73
     4
 40
18.0
 49
12.0
 74
     0
 49
-1.5
 74
     0
 49
3.0
 74
     0
 49
-1.5
 74
     0
  0
LTYPE
  5
17AC21874A3C50
330
17AC21874A2FB6
100
AcDbSymbolTableRecord
100
AcDbLinetypeTableRecord
  2
AM_ISO09W050
 70
     0
  3
_____ . . _____ . . _____ . . ____ .. ____
 72
    65
 73
     6
 40
22.5
 49
12.0
 74
     0
 49
-1.5
 74
     0
 49
3.0
 74
     0
 49
-1.5
 74
     0
 49
3.0
 74
     0
 49
-1.5
 74
     0
  0
LTYPE
  5
17AC21874A3C51
330
17AC21874A2FB6
100
AcDbSymbolTableRecord
100
AcDbLinetypeTableRecord
  2
Amconstr
 70
     0
  3
_______________________
 72
    65
 73
     2
 40
9999.0
 49
9999.0
 74
     0
 49
0.0
 74
     0
  0
LTYPE
  5
17AC21874A3C52
330
17AC21874A2FB6
100
AcDbSymbolTableRecord
100
AcDbLinetypeTableRecord
  2
AM_ISO08W050x2
 70
     0
  3
__ . __ . __ . __ . __ . __
 72
    65
 73
     4
 40
9.0
 49
6.0
 74
     0
 49
-0.75
 74
     0
 49
1.5
 74
     0
 49
-0.75
 74
     0
  0
LTYPE
  5
17AC21874A3C53
330
17AC21874A2FB6
100
AcDbSymbolTableRecord
100
AcDbLinetypeTableRecord
  2
AM_ISO02W050x2
 70
     0
  3
 _ _ _ _ _ _ _ _ _ _ _ _
 72
    65
 73
     2
 40
3.75
 49
3.0
 74
     0
 49
-0.75
 74
     0
  0
LTYPE
  5
17AC21874A3C56
330
17AC21874A2FB6
100
AcDbSymbolTableRecord
100
AcDbLinetypeTableRecord
  2
Amzigzag
 70
     0
  3
/\/-/\/-/\/-/\/-/\/-/\/
 72
    65
 73
     2
 40
11.0001
 49
0.0001
 74
     4
 75
   135
340
17AC21874A3C55
 46
0.04
 50
0.0
 44
0.0
 45
0.0
 49
-11.0
 74
     0
  0
LTYPE
  5
17AC21874A3C57
330
17AC21874A2FB6
100
AcDbSymbolTableRecord
100
AcDbLinetypeTableRecord
  2
CENTER2
 70
     0
  3
Center (.5x) ___ _ ___ _ ___ _ ___ _ ___ _ ___
 72
    65
 73
     4
 40
1.125
 49
0.75
 74
     0
 49
-0.125
 74
     0
 49
0.125
 74
     0
 49
-0.125
 74
     0
  0
LTYPE
  5
17AC21874A3C58
330
17AC21874A2FB6
100
AcDbSymbolTableRecord
100
AcDbLinetypeTableRecord
  2
HIDDEN2
 70
     0
  3
Hidden (.5x) _ _ _ _ _ _ _ _ _ _ _ _ _ _ _ _ _
 72
    65
 73
     2
 40
0.1875
 49
0.125
 74
     0
 49
-0.0625
 74
     0
  0
LTYPE
  5
17AC21874A3C59
330
17AC21874A2FB6
100
AcDbSymbolTableRecord
100
AcDbLinetypeTableRecord
  2
Amzigzag2
 70
     0
  3
/\/-/\/-/\/-/\/-/\/-/\/
 72
    65
 73
     2
 40
0.4401
 49
0.0001
 74
     4
 75
   135
340
17AC21874A3C55
 46
0.0016
 50
0.0
 44
0.0
 45
0.0
 49
-0.4400000000000001
 74
     0
  0
LTYPE
  5
17AC21874A3C67
330
17AC21874A2FB6
100
AcDbSymbolTableRecord
100
AcDbLinetypeTableRecord
  2
ACANSTGB
 70
     0
  3
__ . . __ . .
 72
    65
 73
     6
 40
0.35433070866
 49
0.15748031496
 74
     0
 49
-0.03937007874
 74
     0
 49
0.03937007874
 74
     0
 49
-0.03937007874
 74
     0
 49
0.03937007874
 74
     0
 49
-0.03937007874
 74
     0
  0
LTYPE
  5
17AC21874A3C68
330
17AC21874A2FB6
100
AcDbSymbolTableRecord
100
AcDbLinetypeTableRecord
  2
ACANSTGL
 70
     0
  3
_ _ _ _ _
 72
    65
 73
     2
 40
0.11811023622
 49
0.07874015748
 74
     0
 49
-0.03937007874
 74
     0
  0
ENDTAB
  0
TABLE
  2
LAYER
  5
17AC21874A2FB3
102
{ACAD_XDICTIONARY
360
17AC21874A3D08
102
}
330
0
100
AcDbSymbolTable
 70
    30
  0
LAYER
  5
17AC21874A2FC0
330
17AC21874A2FB3
100
AcDbSymbolTableRecord
100
AcDbLayerTableRecord
  2
0
 70
     0
 62
     7
  6
CONTINUOUS
370
    -3
390
17AC21874A3923
  0
LAYER
  5
17AC21874A2FE0
330
17AC21874A2FB3
100
AcDbSymbolTableRecord
100
AcDbLayerTableRecord
  2
BOLLINI
 70
     0
 62
     4
  6
CONTINUOUS
370
    -3
390
17AC21874A3923
  0
LAYER
  5
17AC21874A2FE1
330
17AC21874A2FB3
100
AcDbSymbolTableRecord
100
AcDbLayerTableRecord
  2
LINEAFIN
 70
     0
 62
     3
  6
CONTINUOUS
370
    -3
390
17AC21874A3923
  0
LAYER
  5
17AC21874A2FE2
330
17AC21874A2FB3
100
AcDbSymbolTableRecord
100
AcDbLayerTableRecord
  2
FILETTO
 70
     0
 62
     3
  6
CONTINUOUS
370
    -3
390
17AC21874A3923
  0
LAYER
  5
17AC21874A2FE3
330
17AC21874A2FB3
100
AcDbSymbolTableRecord
100
AcDbLayerTableRecord
  2
COSTRUZIONE
 70
     0
 62
     7
  6
CONTINUOUS
370
    -3
390
17AC21874A3923
  0
LAYER
  5
17AC21874A2FE4
330
17AC21874A2FB3
100
AcDbSymbolTableRecord
100
AcDbLayerTableRecord
  2
TESTO
 70
     0
 62
   254
  6
CONTINUOUS
370
    -3
390
17AC21874A3923
  0
LAYER
  5
17AC21874A2FE5
330
17AC21874A2FB3
100
AcDbSymbolTableRecord
100
AcDbLayerTableRecord
  2
FILETTONAS
 70
     0
 62
     3
  6
TRATTINO
370
    -3
390
17AC21874A3923
  0
LAYER
  5
17AC21874A2FE6
330
17AC21874A2FB3
100
AcDbSymbolTableRecord
100
AcDbLayerTableRecord
  2
TOLLERANZE-G
 70
     0
 62
     3
  6
CONTINUOUS
370
    -3
390
17AC21874A3923
  0
LAYER
  5
17AC21874A2FE7
330
17AC21874A2FB3
100
AcDbSymbolTableRecord
100
AcDbLayerTableRecord
  2
BULLONI
 70
     0
 62
    30
  6
CONTINUOUS
370
    -3
390
17AC21874A3923
  0
LAYER
  5
17AC21874A2FE8
330
17AC21874A2FB3
100
AcDbSymbolTableRecord
100
AcDbLayerTableRecord
  2
VITE
 70
     0
 62
    30
  6
CONTINUOUS
370
    -3
390
17AC21874A3923
  0
LAYER
  5
17AC21874A2FE9
330
17AC21874A2FB3
100
AcDbSymbolTableRecord
100
AcDbLayerTableRecord
  2
DADO
 70
     0
 62
    30
  6
CONTINUOUS
370
    -3
390
17AC21874A3923
  0
LAYER
  5
17AC21874A2FEA
330
17AC21874A2FB3
100
AcDbSymbolTableRecord
100
AcDbLayerTableRecord
  2
CUSCINETTO
 70
     0
 62
   240
  6
CONTINUOUS
370
    -3
390
17AC21874A3923
  0
LAYER
  5
17AC21874A2FEB
330
17AC21874A2FB3
100
AcDbSymbolTableRecord
100
AcDbLayerTableRecord
  2
SEDI
 70
     0
 62
     7
  6
CONTINUOUS
370
    -3
390
17AC21874A3923
  0
LAYER
  5
17AC21874A2FEC
330
17AC21874A2FB3
100
AcDbSymbolTableRecord
100
AcDbLayerTableRecord
  2
FLANGIA
 70
     0
 62
     7
  6
CONTINUOUS
370
    -3
390
17AC21874A3923
  0
LAYER
  5
17AC21874A2FED
330
17AC21874A2FB3
100
AcDbSymbolTableRecord
100
AcDbLayerTableRecord
  2
NASCOSTO
 70
     0
 62
     6
  6
TRATTINO
370
    -3
390
17AC21874A3923
  0
LAYER
  5
17AC21874A2FEE
330
17AC21874A2FB3
100
AcDbSymbolTableRecord
100
AcDbLayerTableRecord
  2
SPINA
 70
     0
 62
     7
  6
CONTINUOUS
370
    -3
390
17AC21874A3923
  0
LAYER
  5
17AC21874A2FEF
330
17AC21874A2FB3
100
AcDbSymbolTableRecord
100
AcDbLayerTableRecord
  2
SIMBOLO
 70
     0
 62
     4
  6
CONTINUOUS
370
    -3
390
17AC21874A3923
  0
LAYER
  5
17AC21874A2FF0
330
17AC21874A2FB3
100
AcDbSymbolTableRecord
100
AcDbLayerTableRecord
  2
DISTINTA
 70
     0
 62
     7
  6
CONTINUOUS
370
    -3
390
17AC21874A3923
  0
LAYER
  5
17AC21874A2FF1
330
17AC21874A2FB3
100
AcDbSymbolTableRecord
100
AcDbLayerTableRecord
  2
CARTIGLIO
 70
     0
 62
     9
  6
CONTINUOUS
370
    -3
390
17AC21874A3923
  0
LAYER
  5
17AC21874A2FF2
330
17AC21874A2FB3
100
AcDbSymbolTableRecord
100
AcDbLayerTableRecord
  2
PROFILATO
 70
     0
 62
     7
  6
CONTINUOUS
370
    -3
390
17AC21874A3923
  0
LAYER
  5
17AC21874A2FF3
330
17AC21874A2FB3
100
AcDbSymbolTableRecord
100
AcDbLayerTableRecord
  2
SQUADRATURA
 70
     0
 62
     9
  6
CONTINUOUS
370
    -3
390
17AC21874A3923
  0
LAYER
  5
17AC21874A2FF4
330
17AC21874A2FB3
100
AcDbSymbolTableRecord
100
AcDbLayerTableRecord
  2
ASSE
 70
     0
 62
     1
  6
ASSI
370
    -3
390
17AC21874A3923
  0
LAYER
  5
17AC21874A2FF5
330
17AC21874A2FB3
100
AcDbSymbolTableRecord
100
AcDbLayerTableRecord
  2
SEZIONE
 70
     0
 62
     4
  6
CONTINUOUS
370
    -3
390
17AC21874A3923
  0
LAYER
  5
17AC21874A2FF6
330
17AC21874A2FB3
100
AcDbSymbolTableRecord
100
AcDbLayerTableRecord
  2
QUOTA
 70
     0
 62
     3
  6
CONTINUOUS
370
    -3
390
17AC21874A3923
  0
LAYER
  5
17AC21874A2FF7
330
17AC21874A2FB3
100
AcDbSymbolTableRecord
100
AcDbLayerTableRecord
  2
TRAVE
 70
     0
 62
     7
  6
CONTINUOUS
370
    -3
390
17AC21874A3923
  0
LAYER
  5
17AC21874A2FF8
330
17AC21874A2FB3
100
AcDbSymbolTableRecord
100
AcDbLayerTableRecord
  2
SALDATURA
 70
     0
 62
     2
  6
CONTINUOUS
370
    -3
390
17AC21874A3923
  0
LAYER
  5
17AC21874A2FF9
330
17AC21874A2FB3
100
AcDbSymbolTableRecord
100
AcDbLayerTableRecord
  2
DEFPOINTS
 70
     0
 62
     7
  6
CONTINUOUS
290
     0
370
    -3
390
17AC21874A3923
  0
LAYER
  5
17AC21874A2FFA
330
17AC21874A2FB3
100
AcDbSymbolTableRecord
100
AcDbLayerTableRecord
  2
DATI
 70
     1
 62
   254
  6
CONTINUOUS
370
    -3
390
17AC21874A3923
  0
LAYER
  5
17AC21874A3D07
330
17AC21874A2FB3
100
AcDbSymbolTableRecord
100
AcDbLayerTableRecord
  2
AM_0
 70
     0
 62
     7
  6
CONTINUOUS
370
    30
390
17AC21874A3923
  0
LAYER
  5
17AC21874A3D0A
330
17AC21874A2FB3
100
AcDbSymbolTableRecord
100
AcDbLayerTableRecord
  2
AM_4
 70
     0
 62
     3
  6
CONTINUOUS
370
    15
390
17AC21874A3923
  0
ENDTAB
  0
TABLE
  2
STYLE
  5
17AC21874A2FB4
330
0
100
AcDbSymbolTable
 70
     8
  0
STYLE
  5
17AC21874A2FC1
330
17AC21874A2FB4
100
AcDbSymbolTableRecord
100
AcDbTextStyleTableRecord
  2
STANDARD
 70
     0
 40
0.0
 41
1.0
 50
0.0
 71
     0
 42
0.2
  3
TXT.SHX
  4

  0
STYLE
  5
17AC21874A2FD1
330
17AC21874A2FB4
100
AcDbSymbolTableRecord
100
AcDbTextStyleTableRecord
  2
SANSSERIFBOLD
 70
     0
 40
0.0
 41
1.0
 50
0.0
 71
     0
 42
2.5
  3
sasb____.pfb
  4

  0
STYLE
  5
17AC21874A2FD2
330
17AC21874A2FB4
100
AcDbSymbolTableRecord
100
AcDbTextStyleTableRecord
  2
ROMANS
 70
     0
 40
0.0
 41
0.8
 50
0.0
 71
     0
 42
30.0
  3
romans
  4

  0
STYLE
  5
17AC21874A2FD3
330
17AC21874A2FB4
100
AcDbSymbolTableRecord
100
AcDbTextStyleTableRecord
  2
ROMANC
 70
     0
 40
2.7
 41
0.8
 50
0.0
 71
     0
 42
8.808067653947915
  3
romanc
  4

  0
STYLE
  5
17AC21874A2FD4
330
17AC21874A2FB4
100
AcDbSymbolTableRecord
100
AcDbTextStyleTableRecord
  2
ROMANT
 70
     0
 40
3.5
 41
1.0
 50
0.0
 71
     0
 42
8.808067653947915
  3
romant
  4

  0
STYLE
  5
17AC21874A3C55
330
17AC21874A2FB4
100
AcDbSymbolTableRecord
100
AcDbTextStyleTableRecord
  2

 70
     1
 40
0.0
 41
1.0
 50
0.0
 71
     0
 42
30.0
  3
ltypeshp.shx
  4

  0
STYLE
  5
17AC21874A3C5A
330
17AC21874A2FB4
100
AcDbSymbolTableRecord
100
AcDbTextStyleTableRecord
  2
ACANSTS
 70
     0
 40
1.0
 41
1.0
 50
0.0
 71
     0
 42
30.0
  3
romans.shx
  4

  0
STYLE
  5
17AC21874A3C66
330
17AC21874A2FB4
100
AcDbSymbolTableRecord
100
AcDbTextStyleTableRecord
  2
ACANSGDT
 70
     0
 40
0.0
 41
1.0
 50
0.0
 71
     0
 42
30.0
  3
amgdtans.shx
  4

  0
ENDTAB
  0
TABLE
  2
VIEW
  5
17AC21874A2FB7
330
0
100
AcDbSymbolTable
 70
     0
  0
ENDTAB
  0
TABLE
  2
UCS
  5
17AC21874A2FB8
330
0
100
AcDbSymbolTable
 70
     0
  0
ENDTAB
  0
TABLE
  2
APPID
  5
17AC21874A2FBA
330
0
100
AcDbSymbolTable
 70
     9
  0
APPID
  5
17AC21874A2FC2
330
17AC21874A2FBA
100
AcDbSymbolTableRecord
100
AcDbRegAppTableRecord
  2
ACAD
 70
     0
  0
APPID
  5
17AC21874A2FDD
330
17AC21874A2FBA
100
AcDbSymbolTableRecord
100
AcDbRegAppTableRecord
  2
AVE_RENDER
 70
     0
  0
APPID
  5
17AC21874A3BEB
330
17AC21874A2FBA
100
AcDbSymbolTableRecord
100
AcDbRegAppTableRecord
  2
MCAD_NO_VIS
 70
     0
  0
APPID
  5
17AC21874A3BEC
330
17AC21874A2FBA
100
AcDbSymbolTableRecord
100
AcDbRegAppTableRecord
  2
ACAD_TEMP_GRAPHIC
 70
     0
  0
APPID
  5
17AC21874A3C1C
330
17AC21874A2FBA
100
AcDbSymbolTableRecord
100
AcDbRegAppTableRecord
  2
AD_DRAW
 70
     0
  0
APPID
  5
17AC21874A3C1F
330
17AC21874A2FBA
100
AcDbSymbolTableRecord
100
AcDbRegAppTableRecord
  2
ACATTRIBSERVICES
 70
     0
  0
APPID
  5
17AC21874A3C3D
330
17AC21874A2FBA
100
AcDbSymbolTableRecord
100
AcDbRegAppTableRecord
  2
DESIGNERASSEMBLIES
 70
     0
  0
APPID
  5
17AC21874A3C43
330
17AC21874A2FBA
100
AcDbSymbolTableRecord
100
AcDbRegAppTableRecord
  2
ACADM_DIM_EDIT
 70
     0
  0
APPID
  5
17AC21874A3C44
330
17AC21874A2FBA
100
AcDbSymbolTableRecord
100
AcDbRegAppTableRecord
  2
AMDT_DM_ADJ
 70
     0
  0
ENDTAB
  0
TABLE
  2
DIMSTYLE
  5
17AC21874A2FBB
330
0
100
AcDbSymbolTable
 70
     8
100
AcDbDimStyleTable
 71
     1
340
17AC21874A2FDF
  0
DIMSTYLE
105
17AC21874A2FDE
330
17AC21874A2FBB
100
AcDbSymbolTableRecord
100
AcDbDimStyleTableRecord
  2
SCALA-1
 70
     0
 41
3.0
 42
2.0
 43
10.0
 44
2.0
 47
0.1
 48
0.15
 73
     0
 74
     0
 77
     1
 78
     8
140
3.0
141
0.5
146
0.6666666666666666
147
1.0
172
     1
176
   256
177
     5
271
     2
272
     2
275
     1
279
     2
284
     8
285
     8
286
     8
340
17AC21874A2FD2
  0
DIMSTYLE
105
17AC21874A2FDF
102
{ACAD_REACTORS
330
17AC21874A3AD9
330
17AC21874A3AEF
330
17AC21874A3B05
330
17AC21874A3B1B
330
17AC21874A3B31
102
}
330
17AC21874A2FBB
100
AcDbSymbolTableRecord
100
AcDbDimStyleTableRecord
  2
BASE
 70
     0
 41
3.0
 42
2.0
 43
10.0
 44
2.0
 47
0.1
 48
0.15
 73
     0
 74
     0
 77
     1
 78
     8
140
3.0
141
0.5
146
0.6666666666666666
147
1.0
172
     1
176
   256
177
   256
178
   254
271
     2
272
     2
275
     1
279
     2
284
     8
285
     8
286
     8
340
17AC21874A2FD2
  0
DIMSTYLE
105
17AC21874A3C71
330
17AC21874A2FBB
100
AcDbSymbolTableRecord
100
AcDbDimStyleTableRecord
  2
AM_ANSI
 70
     0
  4
mm
 41
0.1
 42
0.05
 43
0.5
 44
0.1
 47
0.1
 48
0.1
 78
     7
 79
     2
140
0.12
141
0.0
146
0.71
147
0.06
176
   256
177
   256
178
     2
274
     4
284
     7
340
17AC21874A2FC1
371
    -1
372
    -1
  0
DIMSTYLE
105
17AC21874A3C72
330
17AC21874A2FBB
100
AcDbSymbolTableRecord
100
AcDbDimStyleTableRecord
  2
AM_ANSI$3
 70
     0
  4
mm
 41
0.1
 42
0.05
 43
0.5
 44
0.1
 47
0.1
 48
0.1
 78
     7
 79
     2
140
0.12
141
0.0
146
0.71
147
0.06
176
   256
177
   256
178
     2
274
     4
284
     7
288
     1
289
     0
340
17AC21874A2FC1
371
    -1
372
    -1
  0
DIMSTYLE
105
17AC21874A3C73
330
17AC21874A2FBB
100
AcDbSymbolTableRecord
100
AcDbDimStyleTableRecord
  2
AM_ANSI$4
 70
     0
  4
mm
 41
0.1
 42
0.05
 43
0.5
 44
0.1
 47
0.1
 48
0.1
 78
     7
 79
     2
140
0.12
141
0.0
146
0.71
147
0.06
176
   256
177
   256
178
     2
274
     4
284
     7
288
     1
289
     0
340
17AC21874A2FC1
371
    -1
372
    -1
  0
DIMSTYLE
105
17AC21874A3C74
330
17AC21874A2FBB
100
AcDbSymbolTableRecord
100
AcDbDimStyleTableRecord
  2
AM_ANSI$7
 70
     0
  4
mm
 41
0.1
 42
0.05
 43
0.5
 44
0.1
 47
0.1
 48
0.1
 78
     7
 79
     2
140
0.24
141
0.0
146
0.71
147
0.06
176
   256
177
   256
178
     2
274
     4
284
     7
340
17AC21874A2FC1
371
    -1
372
    -1
  0
DIMSTYLE
105
17AC21874A3C75
330
17AC21874A2FBB
100
AcDbSymbolTableRecord
100
AcDbDimStyleTableRecord
  2
AM_ANSI$SF
 70
     0
  4
mm
 41
0.1
 42
0.05
 43
0.5
 44
0.1
 47
0.1
 48
0.1
 75
     1
 76
     1
 78
     7
 79
     2
140
0.12
141
0.0
146
0.71
147
0.06
176
   256
177
   256
178
     2
274
     4
284
     7
340
17AC21874A2FC1
371
    -1
372
    -1
  0
DIMSTYLE
105
17AC21874A3C7A
330
17AC21874A2FBB
100
AcDbSymbolTableRecord
100
AcDbDimStyleTableRecord
  2
AM_ANSI$SH
 70
     0
  4
mm
 41
0.1
 42
0.05
 43
0.5
 44
0.1
 47
0.1
 48
0.1
 75
     1
 76
     1
 78
     7
 79
     2
140
0.12
141
0.0
146
0.71
147
0.06
173
     1
176
   256
177
   256
178
     2
274
     4
284
     7
340
17AC21874A2FC1
343
17AC21874A3C76
371
    -1
372
    -1
  0
ENDTAB
  0
TABLE
  2
BLOCK_RECORD
  5
17AC21874A2FB2
330
0
100
AcDbSymbolTable
 70
    16
  0
BLOCK_RECORD
  5
17AC21874A2FC9
330
17AC21874A2FB2
100
AcDbSymbolTableRecord
100
AcDbBlockTableRecord
  2
*MODEL_SPACE
340
17AC21874A3926
  0
BLOCK_RECORD
  5
17AC21874A2FC6
330
17AC21874A2FB2
100
AcDbSymbolTableRecord
100
AcDbBlockTableRecord
  2
*PAPER_SPACE
340
17AC21874A3927
  0
BLOCK_RECORD
  5
17AC21874A2FCD
330
17AC21874A2FB2
100
AcDbSymbolTableRecord
100
AcDbBlockTableRecord
  2
AVE_RENDER
340
0
102
{BLKREFS
331
151
331
152
331
153
102
}
  0
BLOCK_RECORD
  5
17AC21874A2FCE
330
17AC21874A2FB2
100
AcDbSymbolTableRecord
100
AcDbBlockTableRecord
  2
SCALA1
340
0
102
{BLKREFS
331
D132099FA66
102
}
  0
BLOCK_RECORD
  5
17AC21874A2FCF
330
17AC21874A2FB2
100
AcDbSymbolTableRecord
100
AcDbBlockTableRecord
  2
FR0
340
0
  0
BLOCK_RECORD
  5
17AC21874A2FD0
330
17AC21874A2FB2
100
AcDbSymbolTableRecord
100
AcDbBlockTableRecord
  2
FR1
340
0
  0
BLOCK_RECORD
  5
17AC21874A3476
330
17AC21874A2FB2
100
AcDbSymbolTableRecord
100
AcDbBlockTableRecord
  2
A$C1
340
0
  0
BLOCK_RECORD
  5
17AC21874A3545
330
17AC21874A2FB2
100
AcDbSymbolTableRecord
100
AcDbBlockTableRecord
  2
A$C6
340
0
102
{BLKREFS
331
17AC21874A3674
331
17AC21874A39EE
331
17AC21874A3A65
102
}
  0
BLOCK_RECORD
  5
17AC21874A354B
330
17AC21874A2FB2
100
AcDbSymbolTableRecord
100
AcDbBlockTableRecord
  2
A$C3
340
0
  0
BLOCK_RECORD
  5
17AC21874A39E0
330
17AC21874A2FB2
100
AcDbSymbolTableRecord
100
AcDbBlockTableRecord
  2
A$C7BA76C37
340
0
  0
BLOCK_RECORD
  5
17AC21874A3ADA
330
17AC21874A2FB2
100
AcDbSymbolTableRecord
100
AcDbBlockTableRecord
  2
*D8
340
0
  0
BLOCK_RECORD
  5
17AC21874A3AF0
330
17AC21874A2FB2
100
AcDbSymbolTableRecord
100
AcDbBlockTableRecord
  2
*D9
340
0
  0
BLOCK_RECORD
  5
17AC21874A3B06
330
17AC21874A2FB2
100
AcDbSymbolTableRecord
100
AcDbBlockTableRecord
  2
*D10
340
0
  0
BLOCK_RECORD
  5
17AC21874A3B1C
330
17AC21874A2FB2
100
AcDbSymbolTableRecord
100
AcDbBlockTableRecord
  2
*D11
340
0
  0
BLOCK_RECORD
  5
17AC21874A3B32
330
17AC21874A2FB2
100
AcDbSymbolTableRecord
100
AcDbBlockTableRecord
  2
*D12
340
0
  0
BLOCK_RECORD
  5
17AC21874A3C76
330
17AC21874A2FB2
100
AcDbSymbolTableRecord
100
AcDbBlockTableRecord
  2
GENAXEH
340
0
  0
ENDTAB
  0
ENDSEC
  0
SECTION
  2
BLOCKS
  0
BLOCK
  5
17AC21874A2FFD
330
17AC21874A2FC9
100
AcDbEntity
  8
0
100
AcDbBlockBegin
  2
*MODEL_SPACE
 70
     0
 10
0.0
 20
0.0
 30
0.0
  3
*MODEL_SPACE
  1

  0
ENDBLK
  5
17AC21874A2FFE
330
17AC21874A2FC9
100
AcDbEntity
  8
0
100
AcDbBlockEnd
  0
BLOCK
  5
17AC21874A2FFB
330
17AC21874A2FC6
100
AcDbEntity
 67
     1
  8
0
100
AcDbBlockBegin
  2
*PAPER_SPACE
 70
     0
 10
0.0
 20
0.0
 30
0.0
  3
*PAPER_SPACE
  1

  0
ENDBLK
  5
17AC21874A2FFC
330
17AC21874A2FC6
100
AcDbEntity
 67
     1
  8
0
100
AcDbBlockEnd
  0
BLOCK
  5
14F
330
17AC21874A2FCD
100
AcDbEntity
  8
0
100
AcDbBlockBegin
  2
AVE_RENDER
 70
     0
 10
0.0
 20
0.0
 30
0.0
  3
AVE_RENDER
  1
AVE_RENDER
  0
ENDBLK
  5
150
330
17AC21874A2FCD
100
AcDbEntity
  8
0
100
AcDbBlockEnd
  0
BLOCK
  5
D132099F947
330
17AC21874A2FCE
100
AcDbEntity
  8
0
100
AcDbBlockBegin
  2
SCALA1
 70
     0
 10
0.0
 20
0.0
 30
0.0
  3
SCALA1
  1

  0
ENDBLK
  5
D132099FA65
330
17AC21874A2FCE
100
AcDbEntity
  8
0
100
AcDbBlockEnd
  0
BLOCK
  5
17AC21874A2E96
330
17AC21874A2FCF
100
AcDbEntity
  8
0
100
AcDbBlockBegin
  2
FR0
 70
     0
 10
0.0
 20
0.0
 30
0.0
  3
FR0
  1

  0
LINE
  5
17AC21874A2E97
330
17AC21874A2FCF
100
AcDbEntity
  8
0
 62
     0
100
AcDbLine
 10
-1.0
 20
0.0
 30
0.0
 11
0.0
 21
0.0
 31
0.0
  0
ENDBLK
  5
17AC21874A2E98
330
17AC21874A2FCF
100
AcDbEntity
  8
0
100
AcDbBlockEnd
  0
BLOCK
  5
17AC21874A2E9A
330
17AC21874A2FD0
100
AcDbEntity
  8
0
100
AcDbBlockBegin
  2
FR1
 70
     0
 10
0.0
 20
0.0
 30
0.0
  3
FR1
  1

  0
SOLID
  5
17AC21874A2E9B
330
17AC21874A2FD0
100
AcDbEntity
  8
0
  6
ByBlock
 62
     0
100
AcDbTrace
 10
-1.0
 20
0.1666666666666572
 30
0.0
 11
-1.0
 21
-0.1666666666666572
 31
0.0
 12
0.0
 22
0.0
 32
0.0
 13
0.0
 23
0.0
 33
0.0
  0
ENDBLK
  5
17AC21874A2E9C
330
17AC21874A2FD0
100
AcDbEntity
  8
0
100
AcDbBlockEnd
  0
BLOCK
  5
17AC21874A348F
330
17AC21874A3476
100
AcDbEntity
  8
0
100
AcDbBlockBegin
  2
A$C1
 70
     0
 10
0.0
 20
0.0
 30
0.0
  3
A$C1
  1

  0
LINE
  5
17AC21874A3477
330
17AC21874A3476
100
AcDbEntity
  8
0
100
AcDbLine
 10
39.3023097603857
 20
472.3864086107662
 30
0.0
 11
40.76716001074851
 21
1172.38487590462
 31
0.0
  0
LINE
  5
17AC21874A3478
330
17AC21874A3476
100
AcDbEntity
  8
0
100
AcDbLine
 10
237.105785984402
 20
471.972475602042
 30
0.0
 11
238.5706362347648
 21
1171.970942895895
 31
0.0
  0
LINE
  5
17AC21874A3479
330
17AC21874A3476
100
AcDbEntity
  8
0
100
AcDbLine
 10
40.76716001074851
 20
1172.38487590462
 30
0.0
 11
238.3356400100827
 21
1171.971434660227
 31
0.0
  0
LINE
  5
17AC21874A347A
330
17AC21874A3476
100
AcDbEntity
  8
ASSE
100
AcDbLine
 10
140.3331450246476
 20
632.9685129220957
 30
0.0
 11
142.7742156786837
 21
1206.295750515469
 31
0.0
  0
LINE
  5
17AC21874A347B
330
17AC21874A3476
100
AcDbEntity
  8
0
100
AcDbLine
 10
241.1338910164202
 20
1069.959369070397
 30
0.0
 11
42.62089901740933
 21
1072.937803746969
 31
0.0
  0
CIRCLE
  5
17AC21874A347C
330
17AC21874A3476
100
AcDbEntity
  8
0
100
AcDbCircle
 10
221.8000647628958
 20
124.223262234238
 30
0.0
 40
119.206476113897
  0
LINE
  5
17AC21874A347D
330
17AC21874A3476
100
AcDbEntity
  8
ASSE
100
AcDbLine
 10
266.2847837054985
 20
1.392620816885028
 30
0.0
 11
178.2050504959231
 21
241.8604687131908
 31
0.0
  0
ARC
  5
17AC21874A347E
330
17AC21874A3476
100
AcDbEntity
  8
0
100
AcDbCircle
 10
189.5932168060094
 20
203.4118240828141
 30
0.0
 40
186.1129790891297
100
AcDbArc
 50
179.2845851432584
 51
262.9481919377377
  0
LINE
  5
17AC21874A347F
330
17AC21874A3476
100
AcDbEntity
  8
0
100
AcDbLine
 10
305.7720924033777
 20
336.0581427312582
 30
0.0
 11
238.8529064363226
 21
431.8324367259733
 31
0.0
  0
LINE
  5
17AC21874A3480
330
17AC21874A3476
100
AcDbEntity
  8
ASSE
100
AcDbLine
 10
275.8031849045199
 20
388.712958033394
 30
0.0
 11
0.7992511542418015
 21
301.1342774714615
 31
0.0
  0
LINE
  5
17AC21874A3481
330
17AC21874A3476
100
AcDbEntity
  8
ASSE
100
AcDbLine
 10
339.5699163938096
 20
167.8447382751515
 30
0.0
 11
102.8434740876089
 21
80.63113215531348
 31
0.0
  0
LINE
  5
17AC21874A3482
330
17AC21874A3476
100
AcDbEntity
  8
0
100
AcDbLine
 10
4.675703060668411
 20
510.432805190356
 30
0.0
 11
39.60723584342463
 21
545.501138732847
 31
0.0
  0
LINE
  5
17AC21874A3483
330
17AC21874A3476
100
AcDbEntity
  8
ASSE
100
AcDbLine
 10
102.655381716261
 20
460.0148320143432
 30
0.0
 11
176.4282961766659
 21
230.1835669607117
 31
0.0
  0
CIRCLE
  5
17AC21874A3484
330
17AC21874A3476
100
AcDbEntity
  8
0
100
AcDbCircle
 10
139.9959498964497
 20
346.6969484078422
 30
0.0
 40
117.5
  0
LINE
  5
17AC21874A3485
330
17AC21874A3476
100
AcDbEntity
  8
0
100
AcDbLine
 10
4.931715911031233
 20
379.4330553531124
 30
0.0
 11
3.651859070390628
 21
225.6913868057704
 31
0.0
  0
CIRCLE
  5
17AC21874A3486
330
17AC21874A3476
100
AcDbEntity
  8
0
100
AcDbCircle
 10
47.25214034327177
 20
215.5154489898087
 30
0.0
 40
45.0
  0
LINE
  5
17AC21874A3487
330
17AC21874A3476
100
AcDbEntity
  8
ASSE
100
AcDbLine
 10
49.41372257931039
 20
160.3225082984759
 30
0.0
 11
49.1513458693505
 21
294.5785947399661
 31
0.0
  0
LINE
  5
17AC21874A3488
330
17AC21874A3476
100
AcDbEntity
  8
ASSE
100
AcDbLine
 10
97.40748479541958
 20
214.6727489552882
 30
0.0
 11
0.0786352252691813
 21
214.4825391554089
 31
0.0
  0
LINE
  5
17AC21874A3489
330
17AC21874A3476
100
AcDbEntity
  8
0
100
AcDbLine
 10
3.486989718831637
 20
205.8866020858857
 30
0.0
 11
3.483040397936974
 21
205.4121934140753
 31
0.0
  0
LINE
  5
17AC21874A348A
330
17AC21874A3476
100
AcDbEntity
  8
0
100
AcDbLine
 10
237.105785984402
 20
471.972475602042
 30
0.0
 11
39.3023097603857
 21
472.3864086107662
 31
0.0
  0
LINE
  5
17AC21874A348B
330
17AC21874A3476
100
AcDbEntity
  8
0
100
AcDbLine
 10
4.931715911031233
 20
379.4330553531124
 30
0.0
 11
4.675703060668411
 21
510.432805190356
 31
0.0
  0
LINE
  5
17AC21874A348C
330
17AC21874A3476
100
AcDbEntity
  8
0
100
AcDbLine
 10
237.105785984402
 20
471.972475602042
 30
0.0
 11
237.0250807406799
 21
433.4063853864659
 31
0.0
  0
LINE
  5
17AC21874A348D
330
17AC21874A3476
100
AcDbEntity
  8
0
100
AcDbLine
 10
313.8937596159037
 20
198.8093086869319
 30
0.0
 11
305.7895851266965
 21
336.0520500395905
 31
0.0
  0
LINE
  5
17AC21874A348E
330
17AC21874A3476
100
AcDbEntity
  8
ASSE
 62
     1
100
AcDbLine
 39
0.1234
 10
139.6796224581382
 20
186.7409004678607
 30
0.0
 11
142.1440223174288
 21
643.2508585768013
 31
0.0
  0
ENDBLK
  5
17AC21874A3490
330
17AC21874A3476
100
AcDbEntity
  8
0
100
AcDbBlockEnd
  0
BLOCK
  5
17AC21874A3549
330
17AC21874A3545
100
AcDbEntity
  8
0
100
AcDbBlockBegin
  2
A$C6
 70
     0
 10
0.0
 20
0.0
 30
0.0
  3
A$C6
  1

  0
LINE
  5
17AC21874A3546
330
17AC21874A3545
100
AcDbEntity
  8
0
100
AcDbLine
 10
1.900637218473519
 20
0.8165157741112096
 30
0.0
 11
1700.64860396784
 21
0.8165157741112096
 31
0.0
  0
LINE
  5
17AC21874A3547
330
17AC21874A3545
100
AcDbEntity
  8
0
100
AcDbLine
 10
1.900637218473519
 20
14.30680798376833
 30
0.0
 11
1700.64860396784
 21
14.30680798376833
 31
0.0
  0
TEXT
  5
17AC21874A3548
330
17AC21874A3545
100
AcDbEntity
  8
TESTO
100
AcDbText
 10
8.733529025279011
 20
25.88597534847286
 30
0.0
 40
25.0
  1
DATI NON INPEGNATIVI con la possibilità di modifica da parte del costruttore
  7
ROMANC
100
AcDbText
  0
ENDBLK
  5
17AC21874A354A
330
17AC21874A3545
100
AcDbEntity
  8
0
100
AcDbBlockEnd
  0
BLOCK
  5
17AC21874A3691
330
17AC21874A354B
100
AcDbEntity
  8
0
100
AcDbBlockBegin
  2
A$C3
 70
     0
 10
0.0
 20
0.0
 30
0.0
  3
A$C3
  1

  0
LINE
  5
17AC21874A354C
330
17AC21874A354B
100
AcDbEntity
  8
0
100
AcDbLine
 10
1874.423618139278
 20
1786.994140062797
 30
0.0
 11
2320.699366122202
 21
2188.721451420778
 31
0.0
  0
LINE
  5
17AC21874A354D
330
17AC21874A354B
100
AcDbEntity
  8
0
100
AcDbLine
 10
2006.761859905687
 20
1639.980615810719
 30
0.0
 11
2452.291332224751
 21
2041.036146734003
 31
0.0
  0
LINE
  5
17AC21874A354E
330
17AC21874A354B
100
AcDbEntity
  8
ASSE
 62
     1
100
AcDbLine
 39
0.1234
 10
1729.836251279891
 20
1520.980128079762
 30
0.0
 11
2070.140234647398
 21
1825.283618075359
 31
0.0
  0
LINE
  5
17AC21874A354F
330
17AC21874A354B
100
AcDbEntity
  8
0
100
AcDbLine
 10
2127.037824183266
 20
487.7625252269703
 30
0.0
 11
1931.624795768617
 21
487.8451361466516
 31
0.0
  0
LINE
  5
17AC21874A3550
330
17AC21874A354B
100
AcDbEntity
  8
0
100
AcDbLine
 10
1931.624965206311
 20
368.3500772202111
 30
0.0
 11
2127.037788805189
 21
368.350077220211
 31
0.0
  0
LINE
  5
17AC21874A3551
330
17AC21874A354B
100
AcDbEntity
  8
ASSE
100
AcDbLine
 10
1929.047054775975
 20
428.3500772202112
 30
0.0
 11
2126.094396553285
 21
428.3500772202112
 31
0.0
  0
LINE
  5
17AC21874A3552
330
17AC21874A354B
100
AcDbEntity
  8
0
100
AcDbLine
 10
726.8117505572085
 20
1770.124350825376
 30
0.0
 11
2794.061653233957
 21
1770.124350825376
 31
0.0
  0
LINE
  5
17AC21874A3553
330
17AC21874A354B
100
AcDbEntity
  8
0
100
AcDbLine
 10
2742.939783355347
 20
255.0171298784401
 30
0.0
 11
1343.472019770056
 21
255.0171260848929
 31
0.0
  0
LINE
  5
17AC21874A3554
330
17AC21874A354B
100
AcDbEntity
  8
0
100
AcDbLine
 10
3240.088435723589
 20
103.8182220790929
 30
0.0
 11
484.7335009121912
 21
103.8182220790929
 31
0.0
  0
LINE
  5
17AC21874A3555
330
17AC21874A354B
100
AcDbEntity
  8
0
100
AcDbLine
 10
3244.295764541021
 20
130.1216330601125
 30
0.0
 11
484.7335009121912
 21
130.1216330601125
 31
0.0
  0
CIRCLE
  5
17AC21874A3556
330
17AC21874A354B
100
AcDbEntity
  8
0
100
AcDbCircle
 10
2126.061653233957
 20
1031.017127387372
 30
0.0
 40
442.5963020646904
  0
LINE
  5
17AC21874A3557
330
17AC21874A354B
100
AcDbEntity
  8
ASSE
100
AcDbLine
 10
1704.561653233957
 20
1031.017127387372
 30
0.0
 11
2499.055617930725
 21
1031.017127387372
 31
0.0
  0
CIRCLE
  5
17AC21874A3558
330
17AC21874A354B
100
AcDbEntity
  8
ASSE
100
AcDbCircle
 10
2126.061653233957
 20
1031.017127387372
 30
0.0
 40
400.0
  0
LWPOLYLINE
  5
17AC21874A3559
330
17AC21874A354B
100
AcDbEntity
  8
SQUADRATURA
100
AcDbPolyline
 90
        4
 70
     1
 43
0.0
 10
56.87240962619807
 20
-213.9104967373242
 10
4056.872409626198
 20
-213.9104967373242
 10
4056.872409626198
 20
2556.089503262676
 10
56.87240962619807
 20
2556.089503262676
  0
LWPOLYLINE
  5
17AC21874A355F
330
17AC21874A354B
100
AcDbEntity
  8
SQUADRATURA
100
AcDbPolyline
 90
        4
 70
     1
 43
0.0
 10
6.872409626198077
 20
-263.9104967373242
 10
4106.872409626197
 20
-263.9104967373242
 10
4106.872409626197
 20
2606.089503262676
 10
6.872409626198077
 20
2606.089503262676
  0
LINE
  5
17AC21874A3565
330
17AC21874A354B
100
AcDbEntity
  8
0
100
AcDbLine
 10
631.8117505572086
 20
1675.124350825376
 30
0.0
 11
631.8117505572084
 21
488.0073319235235
 31
0.0
  0
ARC
  5
17AC21874A3566
330
17AC21874A354B
100
AcDbEntity
  8
0
100
AcDbCircle
 10
1252.905024342942
 20
1084.863155641498
 30
0.0
 40
363.460861551727
100
AcDbArc
 50
125.5791304990307
 51
225.9684981198393
  0
CIRCLE
  5
17AC21874A3567
330
17AC21874A354B
100
AcDbEntity
  8
COSTRUZIONE
100
AcDbCircle
 10
1074.44003672643
 20
1084.517127387372
 30
0.0
 40
12.5
  0
LINE
  5
17AC21874A3568
330
17AC21874A354B
100
AcDbEntity
  8
0
100
AcDbLine
 10
1109.84568248472
 20
1084.505117293582
 30
0.0
 11
1109.84568248472
 21
1110.237193178271
 31
0.0
  0
LINE
  5
17AC21874A3569
330
17AC21874A354B
100
AcDbEntity
  8
0
100
AcDbLine
 10
868.8456824847204
 20
1110.237193178271
 30
0.0
 11
868.8456824847204
 21
1060.084304665889
 31
0.0
  0
CIRCLE
  5
17AC21874A356A
330
17AC21874A354B
100
AcDbEntity
  8
COSTRUZIONE
100
AcDbCircle
 10
954.1502972999355
 20
1084.554999843422
 30
0.0
 40
30.0
  0
CIRCLE
  5
17AC21874A356B
330
17AC21874A354B
100
AcDbEntity
  8
COSTRUZIONE
100
AcDbCircle
 10
1074.44003672643
 20
1084.517127387372
 30
0.0
 40
34.0
  0
LINE
  5
17AC21874A356C
330
17AC21874A354B
100
AcDbEntity
  8
ASSE
100
AcDbLine
 10
1253.061653233958
 20
1501.210285534012
 30
0.0
 11
1253.061653233958
 21
618.271699746987
 31
0.0
  0
ARC
  5
17AC21874A356D
330
17AC21874A354B
100
AcDbEntity
  8
0
100
AcDbCircle
 10
1254.44003672643
 20
1081.073665876606
 30
0.0
 40
140.0
100
AcDbArc
 50
90.59465486375167
 51
269.5049812457956
  0
ARC
  5
17AC21874A356E
330
17AC21874A354B
100
AcDbEntity
  8
ASSE
100
AcDbCircle
 10
1254.44003672643
 20
1084.517127387372
 30
0.0
 40
180.0
100
AcDbArc
 50
90.43820411405285
 51
269.6171789120712
  0
ARC
  5
17AC21874A356F
330
17AC21874A354B
100
AcDbEntity
  8
ASSE
100
AcDbCircle
 10
1254.150297299935
 20
1084.554999843422
 30
0.0
 40
300.0
100
AcDbArc
 50
90.21544221570408
 51
190.7251485157184
  0
LINE
  5
17AC21874A3570
330
17AC21874A354B
100
AcDbEntity
  8
ASSE
 62
     1
100
AcDbLine
 39
0.1234
 10
1251.641608507461
 20
1085.271348026132
 30
0.0
 11
1053.490353822771
 21
1428.479388723534
 31
0.0
  0
LINE
  5
17AC21874A3571
330
17AC21874A354B
100
AcDbEntity
  8
ASSE
 62
     1
100
AcDbLine
 39
0.1234
 10
1254.532222438066
 20
1085.271348026132
 30
0.0
 11
1452.683477122756
 21
1428.479388723534
 31
0.0
  0
LINE
  5
17AC21874A3572
330
17AC21874A354B
100
AcDbEntity
  8
0
100
AcDbLine
 10
1396.328148460807
 20
1084.505117293582
 30
0.0
 11
1396.328148460807
 21
1110.237193178271
 31
0.0
  0
CIRCLE
  5
17AC21874A3573
330
17AC21874A354B
100
AcDbEntity
  8
COSTRUZIONE
100
AcDbCircle
 10
1431.733794219097
 20
1084.517127387372
 30
0.0
 40
12.5
  0
CIRCLE
  5
17AC21874A3574
330
17AC21874A354B
100
AcDbEntity
  8
COSTRUZIONE
100
AcDbCircle
 10
1431.733794219097
 20
1084.517127387372
 30
0.0
 40
34.0
  0
CIRCLE
  5
17AC21874A3575
330
17AC21874A354B
100
AcDbEntity
  8
COSTRUZIONE
100
AcDbCircle
 10
1552.023533645592
 20
1084.554999843422
 30
0.0
 40
30.0
  0
LINE
  5
17AC21874A3576
330
17AC21874A354B
100
AcDbEntity
  8
0
100
AcDbLine
 10
1637.328148460807
 20
1110.237193178271
 30
0.0
 11
1637.328148460807
 21
1060.084304665889
 31
0.0
  0
ARC
  5
17AC21874A3577
330
17AC21874A354B
100
AcDbEntity
  8
ASSE
100
AcDbCircle
 10
1251.733794219097
 20
1084.517127387372
 30
0.0
 40
180.0
100
AcDbArc
 50
270.3828210879288
 51
89.56179588594714
  0
ARC
  5
17AC21874A3578
330
17AC21874A354B
100
AcDbEntity
  8
0
100
AcDbCircle
 10
1251.733794219097
 20
1081.073665876606
 30
0.0
 40
140.0
100
AcDbArc
 50
270.4950187542043
 51
89.40534513624832
  0
ARC
  5
17AC21874A3579
330
17AC21874A354B
100
AcDbEntity
  8
ASSE
100
AcDbCircle
 10
1252.023533645592
 20
1084.554999843422
 30
0.0
 40
300.0
100
AcDbArc
 50
270.1902287687437
 51
89.78455778429593
  0
LINE
  5
17AC21874A357A
330
17AC21874A354B
100
AcDbEntity
  8
ASSE
 62
     1
100
AcDbLine
 39
0.1234
 10
1042.202793054041
 20
624.5201371109426
 30
0.0
 11
1107.605496013139
 21
831.8150090258743
 31
0.0
  0
LINE
  5
17AC21874A357B
330
17AC21874A354B
100
AcDbEntity
  8
ASSE
 62
     1
100
AcDbLine
 39
0.1234
 10
1187.60784982625
 20
465.1769822556944
 30
0.0
 11
1041.391259130902
 21
624.8046754684123
 31
0.0
  0
LINE
  5
17AC21874A357C
330
17AC21874A354B
100
AcDbEntity
  8
ASSE
 62
     1
100
AcDbLine
 39
0.1234
 10
1625.111233870486
 20
516.079784114425
 30
0.0
 11
1605.811291341637
 21
731.6900901143183
 31
0.0
  0
LINE
  5
17AC21874A357D
330
17AC21874A354B
100
AcDbEntity
  8
ASSE
 62
     1
100
AcDbLine
 39
0.1234
 10
1606.283488585829
 20
730.9713557072844
 30
0.0
 11
1784.08981445778
 21
856.0057028143944
 31
0.0
  0
LINE
  5
17AC21874A357E
330
17AC21874A354B
100
AcDbEntity
  8
ASSE
100
AcDbLine
 10
10.74826461755629
 20
428.3500772202112
 30
0.0
 11
1160.839243698995
 21
428.3500772202112
 31
0.0
  0
LINE
  5
17AC21874A357F
330
17AC21874A354B
100
AcDbEntity
  8
0
100
AcDbLine
 10
737.2056471131986
 20
488.3500772202112
 30
0.0
 11
473.237405982622
 21
488.350077220211
 31
0.0
  0
LINE
  5
17AC21874A3580
330
17AC21874A354B
100
AcDbEntity
  8
0
100
AcDbLine
 10
1345.111995634772
 20
255.0171260848929
 30
0.0
 11
726.8117505572085
 21
255.0171260848927
 31
0.0
  0
LINE
  5
17AC21874A3581
330
17AC21874A354B
100
AcDbEntity
  8
0
100
AcDbLine
 10
708.5281308813724
 20
391.4083107827146
 30
0.0
 11
788.4521063908928
 21
391.4083107827145
 31
0.0
  0
LINE
  5
17AC21874A3582
330
17AC21874A354B
100
AcDbEntity
  8
0
100
AcDbLine
 10
788.6931325950304
 20
391.5465796820154
 30
0.0
 11
708.6190114315654
 21
290.9752270189647
 31
0.0
  0
ARC
  5
17AC21874A3583
330
17AC21874A354B
100
AcDbEntity
  8
0
100
AcDbCircle
 10
749.0926706483524
 20
218.6136284381027
 30
0.0
 40
83.07217110933803
100
AcDbArc
 50
61.18683045304436
 51
118.8131695469594
  0
SOLID
  5
17AC21874A3584
330
17AC21874A354B
100
AcDbEntity
  8
0
100
AcDbTrace
 10
484.9486299778787
 20
104.797947892999
 30
0.0
 11
484.9486299778787
 21
104.797947892999
 31
0.0
 12
484.9486299778787
 22
129.7979478929994
 32
0.0
 13
510.1098516526731
 23
129.7979478929992
 33
0.0
  0
SOLID
  5
17AC21874A3585
330
17AC21874A354B
100
AcDbEntity
  8
0
100
AcDbTrace
 10
510.1098516526731
 20
129.7979478929992
 30
0.0
 11
510.1098516526731
 21
104.7979478929987
 31
0.0
 12
484.9486299778787
 22
104.797947892999
 32
0.0
 13
484.9486299778787
 23
104.797947892999
 33
0.0
  0
LINE
  5
17AC21874A3586
330
17AC21874A354B
100
AcDbEntity
  8
0
100
AcDbLine
 10
484.7335009121912
 20
488.3500772202112
 30
0.0
 11
140.8286860382691
 21
488.350077220211
 31
0.0
  0
LINE
  5
17AC21874A3587
330
17AC21874A354B
100
AcDbEntity
  8
0
100
AcDbLine
 10
374.3959324939592
 20
383.0019766122532
 30
0.0
 11
475.1936612915001
 21
383.0019766122532
 31
0.0
  0
LINE
  5
17AC21874A3588
330
17AC21874A354B
100
AcDbEntity
  8
0
100
AcDbLine
 10
475.1936612915001
 20
272.4974562596208
 30
0.0
 11
374.3959324939592
 21
272.4974562596208
 31
0.0
  0
LINE
  5
17AC21874A3589
330
17AC21874A354B
100
AcDbEntity
  8
0
100
AcDbLine
 10
374.3959324939592
 20
272.4974562596208
 30
0.0
 11
374.3959324939592
 21
383.0019766122532
 31
0.0
  0
LINE
  5
17AC21874A358A
330
17AC21874A354B
100
AcDbEntity
  8
0
100
AcDbLine
 10
140.6958163949098
 20
487.4173061773535
 30
0.0
 11
140.6958163949098
 21
367.8368932702178
 31
0.0
  0
LINE
  5
17AC21874A358B
330
17AC21874A354B
100
AcDbEntity
  8
0
100
AcDbLine
 10
374.8621075393608
 20
368.3500772202112
 30
0.0
 11
140.8286860382691
 21
368.3500772202113
 31
0.0
  0
LINE
  5
17AC21874A358C
330
17AC21874A354B
100
AcDbEntity
  8
0
100
AcDbLine
 10
475.1936612915001
 20
382.0240610730798
 30
0.0
 11
475.1936612915001
 21
272.4974562596208
 31
0.0
  0
LINE
  5
17AC21874A358D
330
17AC21874A354B
100
AcDbEntity
  8
0
100
AcDbLine
 10
549.2054117185748
 20
391.5465796820154
 30
0.0
 11
478.6814234149519
 21
307.8594687069226
 31
0.0
  0
LINE
  5
17AC21874A358E
330
17AC21874A354B
100
AcDbEntity
  8
0
100
AcDbLine
 10
629.2795218259712
 20
390.8124822173222
 30
0.0
 11
549.2054117185748
 21
291.7093244836587
 31
0.0
  0
LINE
  5
17AC21874A358F
330
17AC21874A354B
100
AcDbEntity
  8
0
100
AcDbLine
 10
708.6190114315654
 20
391.5465796820154
 30
0.0
 11
629.2795218259712
 21
292.4434219483528
 31
0.0
  0
LINE
  5
17AC21874A3590
330
17AC21874A354B
100
AcDbEntity
  8
0
100
AcDbLine
 10
478.6689125794932
 20
291.4083107827146
 30
0.0
 11
478.6689125794932
 21
391.4657984428986
 31
0.0
  0
ARC
  5
17AC21874A3591
330
17AC21874A354B
100
AcDbEntity
  8
0
100
AcDbCircle
 10
589.0934420188159
 20
218.7625354626543
 30
0.0
 40
83.07217110933803
100
AcDbArc
 50
61.18683045304436
 51
118.8131695469594
  0
LINE
  5
17AC21874A3592
330
17AC21874A354B
100
AcDbEntity
  8
0
100
AcDbLine
 10
549.4180199246061
 20
291.4083107827147
 30
0.0
 11
478.6689125794932
 21
291.4083107827146
 31
0.0
  0
LINE
  5
17AC21874A3593
330
17AC21874A354B
100
AcDbEntity
  8
0
100
AcDbLine
 10
726.8117505572085
 20
255.0171260848927
 30
0.0
 11
688.7311847632918
 21
293.0976918788095
 31
0.0
  0
LINE
  5
17AC21874A3594
330
17AC21874A354B
100
AcDbEntity
  8
0
100
AcDbLine
 10
709.1671934425581
 20
291.4083107827146
 30
0.0
 11
629.2851714772082
 21
291.4083107827147
 31
0.0
  0
LINE
  5
17AC21874A3595
330
17AC21874A354B
100
AcDbEntity
  8
0
100
AcDbLine
 10
478.3427138428928
 20
391.4083107827146
 30
0.0
 11
629.5752584086008
 21
391.4083107827146
 31
0.0
  0
ARC
  5
17AC21874A3596
330
17AC21874A354B
100
AcDbEntity
  8
0
100
AcDbCircle
 10
668.5819453218019
 20
464.3340774783164
 30
0.0
 40
83.07217110933803
100
AcDbArc
 50
241.1868304530405
 51
298.8131695469556
  0
LINE
  5
17AC21874A3597
330
17AC21874A354B
100
AcDbEntity
  8
0
100
AcDbLine
 10
1009.751747743265
 20
131.0425387831926
 30
0.0
 11
1008.715384567641
 21
131.0425387831926
 31
0.0
  0
LINE
  5
17AC21874A3598
330
17AC21874A354B
100
AcDbEntity
  8
0
100
AcDbLine
 10
1069.868528982192
 20
104.0915370338641
 30
0.0
 11
1066.41038781797
 21
104.0915370338641
 31
0.0
  0
LINE
  5
17AC21874A3599
330
17AC21874A354B
100
AcDbEntity
  8
0
100
AcDbLine
 10
1069.868528982192
 20
131.0425387831926
 30
0.0
 11
1066.878650829713
 21
131.0425387831926
 31
0.0
  0
ARC
  5
17AC21874A359A
330
17AC21874A354B
100
AcDbEntity
  8
COSTRUZIONE
100
AcDbCircle
 10
1402.194212799278
 20
825.4562759351925
 30
0.0
 40
55.0
100
AcDbArc
 50
250.19527081676
 51
260.7628283241809
  0
ARC
  5
17AC21874A359B
330
17AC21874A354B
100
AcDbEntity
  8
0
100
AcDbCircle
 10
1253.268806602585
 20
1084.863155641498
 30
0.0
 40
363.4608615517271
100
AcDbArc
 50
290.4538626934876
 51
294.4365429116271
  0
LINE
  5
17AC21874A359C
330
17AC21874A354B
100
AcDbEntity
  8
0
100
AcDbLine
 10
1931.624965206311
 20
289.888867858629
 30
0.0
 11
1042.243721862913
 21
289.888867858629
 31
0.0
  0
ARC
  5
17AC21874A359D
330
17AC21874A354B
100
AcDbEntity
  8
0
100
AcDbCircle
 10
1605.899780394753
 20
730.7015300814785
 30
0.0
 40
226.7922906098605
100
AcDbArc
 50
166.372877831298
 51
352.4025269741017
  0
ARC
  5
17AC21874A359E
330
17AC21874A354B
100
AcDbEntity
  8
0
100
AcDbCircle
 10
1605.899780394753
 20
730.7015300814785
 30
0.0
 40
202.5
100
AcDbArc
 50
173.3985034545917
 51
263.8362601111093
  0
LINE
  5
17AC21874A359F
330
17AC21874A354B
100
AcDbEntity
  8
ASSE
100
AcDbLine
 10
859.6353186168313
 20
1084.517127387372
 30
0.0
 11
1664.081291229798
 21
1084.517127387372
 31
0.0
  0
CIRCLE
  5
17AC21874A35A0
330
17AC21874A354B
100
AcDbEntity
  8
COSTRUZIONE
100
AcDbCircle
 10
1402.371933274681
 20
825.224330487263
 30
0.0
 40
30.0
  0
LINE
  5
17AC21874A35A1
330
17AC21874A354B
100
AcDbEntity
  8
0
100
AcDbLine
 10
1360.393486012252
 20
969.23187942399
 30
0.0
 11
1470.936596555829
 21
777.8651615461144
 31
0.0
  0
LINE
  5
17AC21874A35A2
330
17AC21874A354B
100
AcDbEntity
  8
0
100
AcDbLine
 10
1410.190315903038
 20
742.7750325426054
 30
0.0
 11
1299.596362787712
 21
934.2297665441087
 31
0.0
  0
LINE
  5
17AC21874A35A3
330
17AC21874A354B
100
AcDbEntity
  8
ASSE
100
AcDbLine
 10
1449.615065442002
 20
743.3636617090788
 30
0.0
 11
1252.792029537707
 21
1084.093881788387
 31
0.0
  0
CIRCLE
  5
17AC21874A35A4
330
17AC21874A354B
100
AcDbEntity
  8
0
100
AcDbCircle
 10
1042.061653233957
 20
624.0727922826184
 30
0.0
 40
40.0
  0
ARC
  5
17AC21874A35A5
330
17AC21874A354B
100
AcDbEntity
  8
0
100
AcDbCircle
 10
1042.134864980658
 20
623.9788942045827
 30
0.0
 40
229.5419434154636
100
AcDbArc
 50
269.950901941516
 51
63.18564370039023
  0
ARC
  5
17AC21874A35A6
330
17AC21874A354B
100
AcDbEntity
  8
0
100
AcDbCircle
 10
844.2553493328842
 20
579.2158319639229
 30
0.0
 40
40.0
100
AcDbArc
 50
287.2146363261251
 51
96.40019837196073
  0
LINE
  5
17AC21874A35A7
330
17AC21874A354B
100
AcDbEntity
  8
ASSE
100
AcDbLine
 10
1042.061653233953
 20
624.0727922826213
 30
0.0
 11
822.3268024448456
 21
575.4021203626138
 31
0.0
  0
ARC
  5
17AC21874A35A8
330
17AC21874A354B
100
AcDbEntity
  8
0
100
AcDbCircle
 10
1042.061653233957
 20
624.0727922826229
 30
0.0
 40
202.5
100
AcDbArc
 50
323.8380241587128
 51
63.63983008290138
  0
ARC
  5
17AC21874A35A9
330
17AC21874A354B
100
AcDbEntity
  8
0
100
AcDbCircle
 10
1042.061653233957
 20
624.0727922826229
 30
0.0
 40
202.5
100
AcDbArc
 50
204.0881170192151
 51
301.1841930444201
  0
LINE
  5
17AC21874A35AA
330
17AC21874A354B
100
AcDbEntity
  8
0
100
AcDbLine
 10
1042.243721862913
 20
289.888867858629
 30
0.0
 11
1042.243721862913
 21
394.4370350673489
 31
0.0
  0
LINE
  5
17AC21874A35AB
330
17AC21874A354B
100
AcDbEntity
  8
0
100
AcDbLine
 10
1042.625083080555
 20
396.0642765466591
 30
0.0
 11
1042.625083080555
 21
314.4840781700477
 31
0.0
  0
LINE
  5
17AC21874A35AC
330
17AC21874A354B
100
AcDbEntity
  8
0
100
AcDbLine
 10
868.7672427024267
 20
391.5465796820154
 30
0.0
 11
788.6931325950304
 21
291.7093244836587
 31
0.0
  0
LINE
  5
17AC21874A35AD
330
17AC21874A354B
100
AcDbEntity
  8
0
100
AcDbLine
 10
948.8413528098231
 20
391.5465796820154
 30
0.0
 11
868.7672427024267
 21
291.7093244836587
 31
0.0
  0
LINE
  5
17AC21874A35AE
330
17AC21874A354B
100
AcDbEntity
  8
0
100
AcDbLine
 10
1028.915462917219
 20
391.5465796820154
 30
0.0
 11
948.8413528098231
 21
291.7093244836587
 31
0.0
  0
LINE
  5
17AC21874A35AF
330
17AC21874A354B
100
AcDbEntity
  8
0
100
AcDbLine
 10
1028.668912579493
 20
391.4083107827146
 30
0.0
 11
1028.668912579493
 21
291.4083107827146
 31
0.0
  0
LINE
  5
17AC21874A35B0
330
17AC21874A354B
100
AcDbEntity
  8
0
100
AcDbLine
 10
1042.420495371627
 20
390.3248466615141
 30
0.0
 11
1042.420495371627
 21
323.8449425027029
 31
0.0
  0
ARC
  5
17AC21874A35B1
330
17AC21874A354B
100
AcDbEntity
  8
0
100
AcDbCircle
 10
908.8057239890249
 20
218.7139355349227
 30
0.0
 40
83.07217110933803
100
AcDbArc
 50
61.18683045304436
 51
118.8131695469594
  0
LINE
  5
17AC21874A35B2
330
17AC21874A354B
100
AcDbEntity
  8
0
100
AcDbLine
 10
868.8182775167284
 20
291.4083107827146
 30
0.0
 11
788.8853312977667
 21
291.4083107827146
 31
0.0
  0
LINE
  5
17AC21874A35B3
330
17AC21874A354B
100
AcDbEntity
  8
0
100
AcDbLine
 10
1028.668912579493
 20
291.4083107827146
 30
0.0
 11
948.8404130439617
 21
291.4083107827146
 31
0.0
  0
LINE
  5
17AC21874A35B4
330
17AC21874A354B
100
AcDbEntity
  8
0
100
AcDbLine
 10
1042.42048431556
 20
361.6255635063124
 30
0.0
 11
1028.915462917219
 21
361.6255635063124
 31
0.0
  0
LINE
  5
17AC21874A35B5
330
17AC21874A354B
100
AcDbEntity
  8
0
100
AcDbLine
 10
868.6716220649143
 20
391.4083107827146
 30
0.0
 11
948.8489765563961
 21
391.4083107827146
 31
0.0
  0
LINE
  5
17AC21874A35B6
330
17AC21874A354B
100
AcDbEntity
  8
0
100
AcDbLine
 10
894.540194480488
 20
488.2835639904584
 30
0.0
 11
737.2056471131986
 21
488.3500772202112
 31
0.0
  0
ARC
  5
17AC21874A35B7
330
17AC21874A354B
100
AcDbEntity
  8
0
100
AcDbCircle
 10
828.7301765926649
 20
464.3340774783164
 30
0.0
 40
83.07217110933803
100
AcDbArc
 50
241.1868304530405
 51
298.8131695469556
  0
ARC
  5
17AC21874A35B8
330
17AC21874A354B
100
AcDbEntity
  8
0
100
AcDbCircle
 10
988.8784078635245
 20
464.3340774783164
 30
0.0
 40
83.07217110933803
100
AcDbArc
 50
241.1868304530405
 51
298.8131695469556
  0
LINE
  5
17AC21874A35B9
330
17AC21874A354B
100
AcDbEntity
  8
0
100
AcDbLine
 10
1028.646331222723
 20
391.4083107827146
 30
0.0
 11
1028.668912579493
 21
391.4083107827146
 31
0.0
  0
LINE
  5
17AC21874A35BA
330
17AC21874A354B
100
AcDbEntity
  8
0
100
AcDbLine
 10
1229.601592249388
 20
488.1419166783835
 30
0.0
 11
1141.547700737208
 21
488.1791414889213
 31
0.0
  0
ARC
  5
17AC21874A35BB
330
17AC21874A354B
100
AcDbEntity
  8
0
100
AcDbCircle
 10
1178.840578322212
 20
474.748394906637
 30
0.0
 40
40.0
100
AcDbArc
 50
47.84560140389309
 51
217.0311634497287
  0
ARC
  5
17AC21874A35BC
330
17AC21874A354B
100
AcDbEntity
  8
0
100
AcDbCircle
 10
1042.061653233957
 20
624.0727922826229
 30
0.0
 40
202.5
100
AcDbArc
 50
84.26056701391635
 51
181.4712159324161
  0
ARC
  5
17AC21874A35BD
330
17AC21874A354B
100
AcDbEntity
  8
COSTRUZIONE
100
AcDbCircle
 10
1104.325719919202
 20
825.5693089957127
 30
0.0
 40
54.6754592179717
100
AcDbArc
 50
99.2530562231548
 51
179.3709484361758
  0
ARC
  5
17AC21874A35BE
330
17AC21874A354B
100
AcDbEntity
  8
ASSE
100
AcDbCircle
 10
1251.599718170469
 20
1073.985445727619
 30
0.0
 40
289.432967172425
100
AcDbArc
 50
227.7375652325883
 51
270.3077373070868
  0
LINE
  5
17AC21874A35BF
330
17AC21874A354B
100
AcDbEntity
  8
0
100
AcDbLine
 10
878.8456824847203
 20
1050.084304665889
 30
0.0
 11
1099.947327972177
 21
1050.084304665889
 31
0.0
  0
LINE
  5
17AC21874A35C0
330
17AC21874A354B
100
AcDbEntity
  8
0
100
AcDbLine
 10
1038.894411192155
 20
764.2040833369987
 30
0.0
 11
1082.322436833374
 21
739.1178557401485
 31
0.0
  0
LINE
  5
17AC21874A35C1
330
17AC21874A354B
100
AcDbEntity
  8
0
100
AcDbLine
 10
1145.780344933275
 20
969.23187942399
 30
0.0
 11
1035.237234389698
 21
777.8651615461144
 31
0.0
  0
LINE
  5
17AC21874A35C2
330
17AC21874A354B
100
AcDbEntity
  8
ASSE
100
AcDbLine
 10
1056.558765503525
 20
743.3636617090788
 30
0.0
 11
1253.381801407821
 21
1084.093881788387
 31
0.0
  0
LINE
  5
17AC21874A35C3
330
17AC21874A354B
100
AcDbEntity
  8
0
100
AcDbLine
 10
1038.894411192155
 20
764.2040833369987
 30
0.0
 11
1035.237234389698
 21
777.8651615461144
 31
0.0
  0
ARC
  5
17AC21874A35C4
330
17AC21874A354B
100
AcDbEntity
  8
0
100
AcDbCircle
 10
1252.905024342942
 20
1084.863155641498
 30
0.0
 40
363.4608615517271
100
AcDbArc
 50
222.7628576619471
 51
224.9217064127199
  0
LINE
  5
17AC21874A35C5
330
17AC21874A354B
100
AcDbEntity
  8
0
100
AcDbLine
 10
878.8456824847203
 20
1050.084304665889
 30
0.0
 11
868.8456824847204
 21
1060.084304665889
 31
0.0
  0
ARC
  5
17AC21874A35C6
330
17AC21874A354B
100
AcDbEntity
  8
COSTRUZIONE
100
AcDbCircle
 10
954.4400367264302
 20
1084.713337928341
 30
0.0
 40
55.0
100
AcDbArc
 50
220.4336995249707
 51
319.4992555805044
  0
ARC
  5
17AC21874A35C7
330
17AC21874A354B
100
AcDbEntity
  8
0
100
AcDbCircle
 10
1252.905024342942
 20
1084.863155641498
 30
0.0
 40
363.4608615517274
100
AcDbArc
 50
194.4753810305746
 51
197.9142808491638
  0
ARC
  5
17AC21874A35C8
330
17AC21874A354B
100
AcDbEntity
  8
0
100
AcDbCircle
 10
1252.905024342942
 20
1084.863155641498
 30
0.0
 40
363.4608615517271
100
AcDbArc
 50
194.4753810305746
 51
197.9142808491638
  0
LINE
  5
17AC21874A35C9
330
17AC21874A354B
100
AcDbEntity
  8
ASSE
100
AcDbLine
 10
932.9400367264302
 20
1084.517127387372
 30
0.0
 11
975.9400367264301
 21
1084.517127387372
 31
0.0
  0
CIRCLE
  5
17AC21874A35CA
330
17AC21874A354B
100
AcDbEntity
  8
COSTRUZIONE
100
AcDbCircle
 10
1103.801897670847
 20
825.224330487263
 30
0.0
 40
30.0
  0
LINE
  5
17AC21874A35CB
330
17AC21874A354B
100
AcDbEntity
  8
0
100
AcDbLine
 10
1095.98351504249
 20
742.7750325426054
 30
0.0
 11
1206.577468157815
 21
934.2297665441087
 31
0.0
  0
ARC
  5
17AC21874A35CC
330
17AC21874A354B
100
AcDbEntity
  8
0
100
AcDbCircle
 10
1252.905024342942
 20
1084.863155641498
 30
0.0
 40
363.460861551727
100
AcDbArc
 50
264.3273816508103
 51
270.0336753326169
  0
LINE
  5
17AC21874A35CD
330
17AC21874A354B
100
AcDbEntity
  8
0
100
AcDbLine
 10
1095.98351504249
 20
742.7750325426054
 30
0.0
 11
1082.322436833374
 21
739.1178557401485
 31
0.0
  0
LINE
  5
17AC21874A35CE
330
17AC21874A354B
100
AcDbEntity
  8
ASSE
100
AcDbLine
 10
1093.225424134091
 20
806.8391517977522
 30
0.0
 11
1114.733812158407
 21
844.073400072633
 31
0.0
  0
ARC
  5
17AC21874A35CF
330
17AC21874A354B
100
AcDbEntity
  8
COSTRUZIONE
100
AcDbCircle
 10
1104.271954246779
 20
825.600107320356
 30
0.0
 40
54.6754592179717
100
AcDbArc
 50
326.2285063499481
 51
356.0459554032313
  0
LINE
  5
17AC21874A35D0
330
17AC21874A354B
100
AcDbEntity
  8
0
100
AcDbLine
 10
1181.7231557498
 20
960.0179987194923
 30
0.0
 11
1159.441423142391
 21
972.8890562264469
 31
0.0
  0
CIRCLE
  5
17AC21874A35D1
330
17AC21874A354B
100
AcDbEntity
  8
COSTRUZIONE
100
AcDbCircle
 10
1164.003026586201
 20
929.3658060046272
 30
0.0
 40
34.0
  0
ARC
  5
17AC21874A35D2
330
17AC21874A354B
100
AcDbEntity
  8
0
100
AcDbCircle
 10
1252.577955376606
 20
1084.341194116634
 30
0.0
 40
246.0969599215255
100
AcDbArc
 50
231.7461700901939
 51
231.9143724909471
  0
LINE
  5
17AC21874A35D3
330
17AC21874A354B
100
AcDbEntity
  8
0
100
AcDbLine
 10
1202.920291355358
 20
947.8908447532244
 30
0.0
 11
1181.490140823287
 21
960.2699853138314
 31
0.0
  0
CIRCLE
  5
17AC21874A35D4
330
17AC21874A354B
100
AcDbEntity
  8
COSTRUZIONE
100
AcDbCircle
 10
1164.003026586201
 20
929.3658060046272
 30
0.0
 40
12.5
  0
LINE
  5
17AC21874A35D5
330
17AC21874A354B
100
AcDbEntity
  8
0
100
AcDbLine
 10
1206.577468157815
 20
934.2297665441087
 30
0.0
 11
1202.920291355358
 21
947.8908447532244
 31
0.0
  0
LINE
  5
17AC21874A35D6
330
17AC21874A354B
100
AcDbEntity
  8
0
100
AcDbLine
 10
1099.947327972177
 20
1050.084304665889
 30
0.0
 11
1109.947327972177
 21
1060.084304665889
 31
0.0
  0
LINE
  5
17AC21874A35D7
330
17AC21874A354B
100
AcDbEntity
  8
0
100
AcDbLine
 10
1109.947327972177
 20
1060.084304665889
 30
0.0
 11
1109.947327972177
 21
1084.832930341803
 31
0.0
  0
LINE
  5
17AC21874A35D8
330
17AC21874A354B
100
AcDbEntity
  8
0
100
AcDbLine
 10
1145.780344933275
 20
969.23187942399
 30
0.0
 11
1159.441423142391
 21
972.8890562264469
 31
0.0
  0
LINE
  5
17AC21874A35D9
330
17AC21874A354B
100
AcDbEntity
  8
0
100
AcDbLine
 10
1324.450675195727
 20
960.0179987194923
 30
0.0
 11
1346.732407803136
 21
972.8890562264469
 31
0.0
  0
LINE
  5
17AC21874A35DA
330
17AC21874A354B
100
AcDbEntity
  8
0
100
AcDbLine
 10
1303.253539590169
 20
947.8908447532244
 30
0.0
 11
1324.683690122241
 21
960.2699853138314
 31
0.0
  0
LINE
  5
17AC21874A35DB
330
17AC21874A354B
100
AcDbEntity
  8
0
100
AcDbLine
 10
1299.596362787712
 20
934.2297665441087
 30
0.0
 11
1303.253539590169
 21
947.8908447532244
 31
0.0
  0
CIRCLE
  5
17AC21874A35DC
330
17AC21874A354B
100
AcDbEntity
  8
COSTRUZIONE
100
AcDbCircle
 10
1342.170804359327
 20
929.3658060046272
 30
0.0
 40
34.0
  0
CIRCLE
  5
17AC21874A35DD
330
17AC21874A354B
100
AcDbEntity
  8
COSTRUZIONE
100
AcDbCircle
 10
1342.170804359327
 20
929.3658060046272
 30
0.0
 40
12.5
  0
LINE
  5
17AC21874A35DE
330
17AC21874A354B
100
AcDbEntity
  8
0
100
AcDbLine
 10
1360.393486012252
 20
969.23187942399
 30
0.0
 11
1346.732407803136
 21
972.8890562264469
 31
0.0
  0
LINE
  5
17AC21874A35DF
330
17AC21874A354B
100
AcDbEntity
  8
0
100
AcDbLine
 10
1931.624965206311
 20
633.7936504052249
 30
0.0
 11
1931.624965206311
 21
289.888867858629
 31
0.0
  0
ARC
  5
17AC21874A35E0
330
17AC21874A354B
100
AcDbEntity
  8
0
100
AcDbCircle
 10
1605.899780394753
 20
730.7015300814785
 30
0.0
 40
202.5
100
AcDbArc
 50
286.3190656846557
 51
357.9434641718678
  0
ARC
  5
17AC21874A35E1
330
17AC21874A354B
100
AcDbEntity
  8
0
100
AcDbCircle
 10
1623.953992853183
 20
529.0079619824787
 30
0.0
 40
40.0
100
AcDbArc
 50
10.85008350538458
 51
179.8916855389184
  0
CIRCLE
  5
17AC21874A35E2
330
17AC21874A354B
100
AcDbEntity
  8
COSTRUZIONE
100
AcDbCircle
 10
1726.061653233957
 20
1031.017127387372
 30
0.0
 40
20.0
  0
ARC
  5
17AC21874A35E3
330
17AC21874A354B
100
AcDbEntity
  8
0
100
AcDbCircle
 10
1605.899780394753
 20
730.7015300814785
 30
0.0
 40
202.5
100
AcDbArc
 50
61.73673308530024
 51
143.9659420344717
  0
ARC
  5
17AC21874A35E4
330
17AC21874A354B
100
AcDbEntity
  8
0
100
AcDbCircle
 10
1422.200920411877
 20
815.9129074966562
 30
0.0
 40
40.0
100
AcDbArc
 50
335.6008070564327
 51
58.23696749045968
  0
LINE
  5
17AC21874A35E5
330
17AC21874A354B
100
AcDbEntity
  8
ASSE
100
AcDbLine
 10
1605.899780394753
 20
730.7015300814785
 30
0.0
 11
1401.735032349518
 21
825.4063061599962
 31
0.0
  0
LINE
  5
17AC21874A35E6
330
17AC21874A354B
100
AcDbEntity
  8
0
100
AcDbLine
 10
1467.279419753372
 20
764.2040833369987
 30
0.0
 11
1470.936596555829
 21
777.8651615461144
 31
0.0
  0
LINE
  5
17AC21874A35E7
330
17AC21874A354B
100
AcDbEntity
  8
0
100
AcDbLine
 10
1467.279419753372
 20
764.2040833369987
 30
0.0
 11
1423.851394112153
 21
739.1178557401485
 31
0.0
  0
LINE
  5
17AC21874A35E8
330
17AC21874A354B
100
AcDbEntity
  8
0
100
AcDbLine
 10
1410.190315903038
 20
742.7750325426054
 30
0.0
 11
1423.851394112153
 21
739.1178557401485
 31
0.0
  0
LINE
  5
17AC21874A35E9
330
17AC21874A354B
100
AcDbEntity
  8
ASSE
100
AcDbLine
 10
1412.948406811436
 20
806.8391517977522
 30
0.0
 11
1391.44001878712
 21
844.073400072633
 31
0.0
  0
ARC
  5
17AC21874A35EA
330
17AC21874A354B
100
AcDbEntity
  8
COSTRUZIONE
100
AcDbCircle
 10
1402.194212799278
 20
825.4562759351925
 30
0.0
 40
55.0
100
AcDbArc
 50
340.4466061137073
 51
12.19445648304861
  0
CIRCLE
  5
17AC21874A35EB
330
17AC21874A354B
100
AcDbEntity
  8
0
100
AcDbCircle
 10
1605.899780394753
 20
730.7015300814785
 30
0.0
 40
40.0
  0
ARC
  5
17AC21874A35EC
330
17AC21874A354B
100
AcDbEntity
  8
COSTRUZIONE
100
AcDbCircle
 10
1551.733794219097
 20
1084.517127387372
 30
0.0
 40
55.0
100
AcDbArc
 50
218.8205344738233
 51
320.7499217354443
  0
LINE
  5
17AC21874A35ED
330
17AC21874A354B
100
AcDbEntity
  8
ASSE
100
AcDbLine
 10
1573.233794219097
 20
1084.517127387372
 30
0.0
 11
1530.233794219097
 21
1084.517127387372
 31
0.0
  0
LINE
  5
17AC21874A35EE
330
17AC21874A354B
100
AcDbEntity
  8
0
100
AcDbLine
 10
1627.328148460807
 20
1050.084304665889
 30
0.0
 11
1406.22650297335
 21
1050.084304665889
 31
0.0
  0
ARC
  5
17AC21874A35EF
330
17AC21874A354B
100
AcDbEntity
  8
COSTRUZIONE
100
AcDbCircle
 10
1402.194212799278
 20
825.4562759351925
 30
0.0
 40
55.0
100
AcDbArc
 50
34.39345654693871
 51
79.51216216924096
  0
LINE
  5
17AC21874A35F0
330
17AC21874A354B
100
AcDbEntity
  8
0
100
AcDbLine
 10
1406.22650297335
 20
1050.084304665889
 30
0.0
 11
1396.22650297335
 21
1060.084304665889
 31
0.0
  0
LINE
  5
17AC21874A35F1
330
17AC21874A354B
100
AcDbEntity
  8
0
100
AcDbLine
 10
1396.22650297335
 20
1060.084304665889
 30
0.0
 11
1396.22650297335
 21
1084.832930341803
 31
0.0
  0
ARC
  5
17AC21874A35F2
330
17AC21874A354B
100
AcDbEntity
  8
0
100
AcDbCircle
 10
1253.268806602585
 20
1084.863155641498
 30
0.0
 40
363.4608615517271
100
AcDbArc
 50
334.9616611092259
 51
354.5042933322236
  0
LINE
  5
17AC21874A35F3
330
17AC21874A354B
100
AcDbEntity
  8
0
100
AcDbLine
 10
1627.328148460807
 20
1050.084304665889
 30
0.0
 11
1637.328148460807
 21
1060.084304665889
 31
0.0
  0
CIRCLE
  5
17AC21874A35F4
330
17AC21874A354B
100
AcDbEntity
  8
COSTRUZIONE
100
AcDbCircle
 10
1843.218940759337
 20
748.1744149127526
 30
0.0
 40
20.0
  0
ARC
  5
17AC21874A35F5
330
17AC21874A354B
100
AcDbEntity
  8
0
100
AcDbCircle
 10
1605.899780394753
 20
730.7015300814785
 30
0.0
 40
235.8053493334519
100
AcDbArc
 50
351.1356391958449
 51
351.5395815374492
  0
LINE
  5
17AC21874A35F6
330
17AC21874A354B
100
AcDbEntity
  8
ASSE
100
AcDbLine
 10
1828.016144963827
 20
732.9716191172429
 30
0.0
 11
1858.421736554849
 21
763.377210708264
 31
0.0
  0
LINE
  5
17AC21874A35F7
330
17AC21874A354B
100
AcDbEntity
  8
TESTO
100
AcDbLine
 10
77.27355472708859
 20
1892.041097937514
 30
0.0
 11
903.8001363861667
 21
1892.041097937514
 31
0.0
  0
LINE
  5
17AC21874A35F8
330
17AC21874A354B
100
AcDbEntity
  8
TESTO
100
AcDbLine
 10
77.27355472708859
 20
1997.756372447874
 30
0.0
 11
792.9034856567096
 21
1997.756372447874
 31
0.0
  0
LINE
  5
17AC21874A35F9
330
17AC21874A354B
100
AcDbEntity
  8
TESTO
100
AcDbLine
 10
77.27355472708859
 20
2193.928006047391
 30
0.0
 11
1267.679759386262
 21
2193.928006047391
 31
0.0
  0
LINE
  5
17AC21874A35FA
330
17AC21874A354B
100
AcDbEntity
  8
TESTO
100
AcDbLine
 10
77.27355472708859
 20
2300.10721064544
 30
0.0
 11
1181.632345423221
 21
2300.10721064544
 31
0.0
  0
LINE
  5
17AC21874A35FB
330
17AC21874A354B
100
AcDbEntity
  8
TESTO
100
AcDbLine
 10
80.73907506238446
 20
2415.036795177015
 30
0.0
 11
1082.274427550918
 21
2415.036795177015
 31
0.0
  0
TEXT
  5
17AC21874A35FC
330
17AC21874A354B
100
AcDbEntity
  8
TESTO
100
AcDbText
 10
77.7408463943566
 20
2025.747529528387
 30
0.0
 40
50.0
  1
Altezza 100 mm
  7
ROMANC
100
AcDbText
  0
LINE
  5
17AC21874A35FD
330
17AC21874A354B
100
AcDbEntity
  8
TESTO
100
AcDbLine
 10
77.27355472708859
 20
2013.757566629757
 30
0.0
 11
792.9034856567096
 21
2013.757566629757
 31
0.0
  0
TEXT
  5
17AC21874A35FE
330
17AC21874A354B
100
AcDbEntity
  8
0
100
AcDbText
 10
77.74084639435656
 20
2447.167046374645
 30
0.0
 40
80.0
  1
ETICAP SYSTEM
  7
ROMANC
100
AcDbText
  0
TEXT
  5
17AC21874A35FF
330
17AC21874A354B
100
AcDbEntity
  8
TESTO
100
AcDbText
 10
77.7408463943566
 20
2329.984829943841
 30
0.0
 40
50.0
  1
Modello PF3 8T 3S-6P SU
  7
ROMANC
100
AcDbText
  0
TEXT
  5
17AC21874A3600
330
17AC21874A354B
100
AcDbEntity
  8
TESTO
100
AcDbText
 10
77.7408463943566
 20
2224.423931598179
 30
0.0
 40
50.0
  1
Lunghezza nastro 3500 mm
  7
ROMANC
100
AcDbText
  0
TEXT
  5
17AC21874A3601
330
17AC21874A354B
100
AcDbEntity
  8
TESTO
100
AcDbText
 10
77.7408463943566
 20
1922.528984602022
 30
0.0
 40
50.0
  1
Larghezza 120 mm
  7
ROMANC
100
AcDbText
  0
LINE
  5
17AC21874A3602
330
17AC21874A354B
100
AcDbEntity
  8
TESTO
100
AcDbLine
 10
80.73907506238445
 20
2432.815888962647
 30
0.0
 11
1082.274427550918
 21
2432.815888962647
 31
0.0
  0
LINE
  5
17AC21874A3603
330
17AC21874A354B
100
AcDbEntity
  8
TESTO
100
AcDbLine
 10
77.27355472708859
 20
2316.108404827325
 30
0.0
 11
1181.632345423221
 21
2316.108404827325
 31
0.0
  0
LINE
  5
17AC21874A3604
330
17AC21874A354B
100
AcDbEntity
  8
TESTO
100
AcDbLine
 10
77.27355472708859
 20
2213.485013400791
 30
0.0
 11
1267.679759386262
 21
2213.485013400791
 31
0.0
  0
LINE
  5
17AC21874A3605
330
17AC21874A354B
100
AcDbEntity
  8
TESTO
100
AcDbLine
 10
77.27355472708859
 20
1909.820205687169
 30
0.0
 11
903.8001363861667
 21
1909.820205687169
 31
0.0
  0
LINE
  5
17AC21874A3606
330
17AC21874A354B
100
AcDbEntity
  8
0
100
AcDbLine
 10
631.8117505572086
 20
1675.124350825376
 30
0.0
 11
726.8117505572085
 21
1770.124350825376
 31
0.0
  0
LINE
  5
17AC21874A3607
330
17AC21874A354B
100
AcDbEntity
  8
TESTO
100
AcDbLine
 10
77.27355472708859
 20
2098.416261514728
 30
0.0
 11
707.9982435449373
 21
2098.416261514728
 31
0.0
  0
LINE
  5
17AC21874A3608
330
17AC21874A354B
100
AcDbEntity
  8
TESTO
100
AcDbLine
 10
77.27355472708859
 20
2110.861628561072
 30
0.0
 11
707.9982435449373
 21
2110.861628561072
 31
0.0
  0
TEXT
  5
17AC21874A3609
330
17AC21874A354B
100
AcDbEntity
  8
TESTO
100
AcDbText
 10
77.7408463943566
 20
2122.960685844272
 30
0.0
 40
50.0
  1
Sezione nastro
  7
ROMANC
100
AcDbText
  0
ARC
  5
17AC21874A360A
330
17AC21874A354B
100
AcDbEntity
  8
0
100
AcDbCircle
 10
1253.268806602585
 20
1084.863155641498
 30
0.0
 40
363.4608615517271
100
AcDbArc
 50
65.56375928195945
 51
90.03468512156905
  0
LINE
  5
17AC21874A360B
330
17AC21874A354B
100
AcDbEntity
  8
0
100
AcDbLine
 10
1360.393486012252
 20
1200.3864030261
 30
0.0
 11
1470.936596555829
 21
1391.753120903976
 31
0.0
  0
CIRCLE
  5
17AC21874A360C
330
17AC21874A354B
100
AcDbEntity
  8
COSTRUZIONE
100
AcDbCircle
 10
1402.371933274681
 20
1344.393951962827
 30
0.0
 40
30.0
  0
ARC
  5
17AC21874A360D
330
17AC21874A354B
100
AcDbEntity
  8
COSTRUZIONE
100
AcDbCircle
 10
1402.194212799278
 20
1344.162006514898
 30
0.0
 40
55.0
100
AcDbArc
 50
99.23717167581909
 51
201.16655893744
  0
LINE
  5
17AC21874A360E
330
17AC21874A354B
100
AcDbEntity
  8
0
100
AcDbLine
 10
1410.190315903038
 20
1426.843249907484
 30
0.0
 11
1299.596362787712
 21
1235.388515905981
 31
0.0
  0
LINE
  5
17AC21874A360F
330
17AC21874A354B
100
AcDbEntity
  8
0
100
AcDbLine
 10
1038.894411192155
 20
1405.414199113091
 30
0.0
 11
1082.322436833374
 21
1430.500426709941
 31
0.0
  0
LINE
  5
17AC21874A3610
330
17AC21874A354B
100
AcDbEntity
  8
0
100
AcDbLine
 10
1099.84568248472
 20
1120.237193178271
 30
0.0
 11
878.8456824847203
 21
1120.237193178271
 31
0.0
  0
LINE
  5
17AC21874A3611
330
17AC21874A354B
100
AcDbEntity
  8
0
100
AcDbLine
 10
1145.780344933275
 20
1200.3864030261
 30
0.0
 11
1035.237234389698
 21
1391.753120903976
 31
0.0
  0
ARC
  5
17AC21874A3612
330
17AC21874A354B
100
AcDbEntity
  8
COSTRUZIONE
100
AcDbCircle
 10
1103.979618146249
 20
1344.162006514898
 30
0.0
 40
55.0
100
AcDbArc
 50
160.4466061137073
 51
259.512162169241
  0
LINE
  5
17AC21874A3613
330
17AC21874A354B
100
AcDbEntity
  8
0
100
AcDbLine
 10
868.8456824847204
 20
1110.237193178271
 30
0.0
 11
878.8456824847203
 21
1120.237193178271
 31
0.0
  0
ARC
  5
17AC21874A3614
330
17AC21874A354B
100
AcDbEntity
  8
COSTRUZIONE
100
AcDbCircle
 10
954.4400367264302
 20
1084.517127387372
 30
0.0
 40
55.0
100
AcDbArc
 50
40.50074441949564
 51
139.5663004750293
  0
LINE
  5
17AC21874A3615
330
17AC21874A354B
100
AcDbEntity
  8
0
100
AcDbLine
 10
1038.894411192155
 20
1405.414199113091
 30
0.0
 11
1035.237234389698
 21
1391.753120903976
 31
0.0
  0
ARC
  5
17AC21874A3616
330
17AC21874A354B
100
AcDbEntity
  8
COSTRUZIONE
100
AcDbCircle
 10
1103.979618146249
 20
1344.162006514898
 30
0.0
 40
55.0
100
AcDbArc
 50
338.8334410625601
 51
80.76282832418092
  0
CIRCLE
  5
17AC21874A3617
330
17AC21874A354B
100
AcDbEntity
  8
COSTRUZIONE
100
AcDbCircle
 10
1103.801897670847
 20
1344.393951962827
 30
0.0
 40
30.0
  0
LINE
  5
17AC21874A3618
330
17AC21874A354B
100
AcDbEntity
  8
0
100
AcDbLine
 10
1095.98351504249
 20
1426.843249907484
 30
0.0
 11
1206.577468157815
 21
1235.388515905981
 31
0.0
  0
LINE
  5
17AC21874A3619
330
17AC21874A354B
100
AcDbEntity
  8
0
100
AcDbLine
 10
1181.7231557498
 20
1209.600283730598
 30
0.0
 11
1159.441423142391
 21
1196.729226223643
 31
0.0
  0
CIRCLE
  5
17AC21874A361A
330
17AC21874A354B
100
AcDbEntity
  8
COSTRUZIONE
100
AcDbCircle
 10
1164.003026586201
 20
1240.252476445463
 30
0.0
 40
34.0
  0
LINE
  5
17AC21874A361B
330
17AC21874A354B
100
AcDbEntity
  8
0
100
AcDbLine
 10
1099.84568248472
 20
1120.237193178271
 30
0.0
 11
1109.84568248472
 21
1110.237193178271
 31
0.0
  0
LINE
  5
17AC21874A361C
330
17AC21874A354B
100
AcDbEntity
  8
0
100
AcDbLine
 10
1145.780344933275
 20
1200.3864030261
 30
0.0
 11
1159.441423142391
 21
1196.729226223643
 31
0.0
  0
LINE
  5
17AC21874A361D
330
17AC21874A354B
100
AcDbEntity
  8
0
100
AcDbLine
 10
1202.920291355358
 20
1221.727437696866
 30
0.0
 11
1181.490140823287
 21
1209.348297136259
 31
0.0
  0
CIRCLE
  5
17AC21874A361E
330
17AC21874A354B
100
AcDbEntity
  8
COSTRUZIONE
100
AcDbCircle
 10
1164.003026586201
 20
1239.124782599478
 30
0.0
 40
12.5
  0
LINE
  5
17AC21874A361F
330
17AC21874A354B
100
AcDbEntity
  8
0
100
AcDbLine
 10
1206.577468157815
 20
1235.388515905981
 30
0.0
 11
1202.920291355358
 21
1221.727437696866
 31
0.0
  0
CIRCLE
  5
17AC21874A3620
330
17AC21874A354B
100
AcDbEntity
  8
COSTRUZIONE
100
AcDbCircle
 10
1342.170804359327
 20
1240.252476445463
 30
0.0
 40
34.0
  0
LINE
  5
17AC21874A3621
330
17AC21874A354B
100
AcDbEntity
  8
0
100
AcDbLine
 10
1324.450675195727
 20
1209.600283730598
 30
0.0
 11
1346.732407803136
 21
1196.729226223643
 31
0.0
  0
LINE
  5
17AC21874A3622
330
17AC21874A354B
100
AcDbEntity
  8
0
100
AcDbLine
 10
1360.393486012252
 20
1200.3864030261
 30
0.0
 11
1346.732407803136
 21
1196.729226223643
 31
0.0
  0
LINE
  5
17AC21874A3623
330
17AC21874A354B
100
AcDbEntity
  8
0
100
AcDbLine
 10
1303.253539590169
 20
1221.727437696866
 30
0.0
 11
1324.683690122241
 21
1209.348297136259
 31
0.0
  0
LINE
  5
17AC21874A3624
330
17AC21874A354B
100
AcDbEntity
  8
0
100
AcDbLine
 10
1299.596362787712
 20
1235.388515905981
 30
0.0
 11
1303.253539590169
 21
1221.727437696866
 31
0.0
  0
CIRCLE
  5
17AC21874A3625
330
17AC21874A354B
100
AcDbEntity
  8
COSTRUZIONE
100
AcDbCircle
 10
1342.170804359327
 20
1239.124782599478
 30
0.0
 40
12.5
  0
ARC
  5
17AC21874A3626
330
17AC21874A354B
100
AcDbEntity
  8
0
100
AcDbCircle
 10
1252.905024342942
 20
1084.863155641498
 30
0.0
 40
363.4608615517271
100
AcDbArc
 50
89.96531487843093
 51
114.4362407180405
  0
LINE
  5
17AC21874A3627
330
17AC21874A354B
100
AcDbEntity
  8
0
100
AcDbLine
 10
1095.98351504249
 20
1426.843249907484
 30
0.0
 11
1082.322436833374
 21
1430.500426709941
 31
0.0
  0
LINE
  5
17AC21874A3628
330
17AC21874A354B
100
AcDbEntity
  8
0
100
AcDbLine
 10
1951.983982402593
 20
1497.899119291323
 30
0.0
 11
1978.156502269222
 21
1611.766990284463
 31
0.0
  0
LINE
  5
17AC21874A3629
330
17AC21874A354B
100
AcDbEntity
  8
ASSE
100
AcDbLine
 10
1970.947850686855
 20
1555.440727635844
 30
0.0
 11
1721.564356796096
 21
1700.716540632825
 31
0.0
  0
ARC
  5
17AC21874A362A
330
17AC21874A354B
100
AcDbEntity
  8
0
100
AcDbCircle
 10
1775.67481796849
 20
1495.132257783848
 30
0.0
 40
186.1129790891297
100
AcDbArc
 50
131.3973102662534
 51
215.0609170607328
  0
CIRCLE
  5
17AC21874A362B
330
17AC21874A354B
100
AcDbEntity
  8
0
100
AcDbCircle
 10
1848.708080768366
 20
1628.010616678519
 30
0.0
 40
117.5
  0
LINE
  5
17AC21874A362C
330
17AC21874A354B
100
AcDbEntity
  8
ASSE
100
AcDbLine
 10
1907.730074222216
 20
1731.700852794605
 30
0.0
 11
1786.706535192561
 21
1522.851250676544
 31
0.0
  0
LINE
  5
17AC21874A362D
330
17AC21874A354B
100
AcDbEntity
  8
ASSE
100
AcDbLine
 10
1677.240238388342
 20
1302.768049926516
 30
0.0
 11
1796.560251454166
 21
1529.363636282743
 31
0.0
  0
CIRCLE
  5
17AC21874A362E
330
17AC21874A354B
100
AcDbEntity
  8
0
100
AcDbCircle
 10
1737.619592483406
 20
1418.167317128725
 30
0.0
 40
118.9035679976518
  0
LINE
  5
17AC21874A362F
330
17AC21874A354B
100
AcDbEntity
  8
ASSE
100
AcDbLine
 10
1849.863279814215
 20
1360.02452247212
 30
0.0
 11
1626.419164234657
 21
1477.149877507851
 31
0.0
  0
ARC
  5
17AC21874A3630
330
17AC21874A354B
100
AcDbEntity
  8
0
100
AcDbCircle
 10
1253.268806602585
 20
1084.863155641498
 30
0.0
 40
363.4608615517271
100
AcDbArc
 50
5.603471868459124
 51
54.42086950096925
  0
ARC
  5
17AC21874A3631
330
17AC21874A354B
100
AcDbEntity
  8
COSTRUZIONE
100
AcDbCircle
 10
1402.194212799278
 20
1344.162006514898
 30
0.0
 40
55.0
100
AcDbArc
 50
280.487837830759
 51
19.55339388629271
  0
ARC
  5
17AC21874A3632
330
17AC21874A354B
100
AcDbEntity
  8
COSTRUZIONE
100
AcDbCircle
 10
1551.733794219097
 20
1084.517127387372
 30
0.0
 40
55.0
100
AcDbArc
 50
40.43369952497068
 51
139.4992555805043
  0
LINE
  5
17AC21874A3633
330
17AC21874A354B
100
AcDbEntity
  8
0
100
AcDbLine
 10
1406.328148460807
 20
1120.237193178271
 30
0.0
 11
1627.328148460807
 21
1120.237193178271
 31
0.0
  0
LINE
  5
17AC21874A3634
330
17AC21874A354B
100
AcDbEntity
  8
0
100
AcDbLine
 10
1406.328148460807
 20
1120.237193178271
 30
0.0
 11
1396.328148460807
 21
1110.237193178271
 31
0.0
  0
LINE
  5
17AC21874A3635
330
17AC21874A354B
100
AcDbEntity
  8
0
100
AcDbLine
 10
1637.328148460807
 20
1110.237193178271
 30
0.0
 11
1627.328148460807
 21
1120.237193178271
 31
0.0
  0
LINE
  5
17AC21874A3636
330
17AC21874A354B
100
AcDbEntity
  8
0
100
AcDbLine
 10
1467.279419753372
 20
1405.414199113091
 30
0.0
 11
1470.936596555829
 21
1391.753120903976
 31
0.0
  0
LINE
  5
17AC21874A3637
330
17AC21874A354B
100
AcDbEntity
  8
0
100
AcDbLine
 10
1467.279419753372
 20
1405.414199113091
 30
0.0
 11
1423.851394112153
 21
1430.500426709941
 31
0.0
  0
LINE
  5
17AC21874A3638
330
17AC21874A354B
100
AcDbEntity
  8
0
100
AcDbLine
 10
1410.190315903038
 20
1426.843249907484
 30
0.0
 11
1423.851394112153
 21
1430.500426709941
 31
0.0
  0
CIRCLE
  5
17AC21874A3639
330
17AC21874A354B
100
AcDbEntity
  8
COSTRUZIONE
100
AcDbCircle
 10
1843.218940759337
 20
1313.859839861992
 30
0.0
 40
20.0
  0
LINE
  5
17AC21874A363A
330
17AC21874A354B
100
AcDbEntity
  8
ASSE
100
AcDbLine
 10
1828.016144963827
 20
1329.062635657503
 30
0.0
 11
1858.421736554848
 21
1298.65704406648
 31
0.0
  0
LINE
  5
17AC21874A363B
330
17AC21874A354B
100
AcDbEntity
  8
0
100
AcDbLine
 10
1855.615422129379
 20
1399.836361244723
 30
0.0
 11
1951.991193149551
 21
1497.882057011605
 31
0.0
  0
CIRCLE
  5
17AC21874A363C
330
17AC21874A354B
100
AcDbEntity
  8
0
100
AcDbCircle
 10
1689.200912232973
 20
1608.84128737827
 30
0.0
 40
45.0
  0
LINE
  5
17AC21874A363D
330
17AC21874A354B
100
AcDbEntity
  8
ASSE
100
AcDbLine
 10
1722.209516899068
 20
1571.069595088154
 30
0.0
 11
1656.800525456146
 21
1643.143203134628
 31
0.0
  0
LINE
  5
17AC21874A363E
330
17AC21874A354B
100
AcDbEntity
  8
ASSE
100
AcDbLine
 10
1649.706841249053
 20
1570.225856563152
 30
0.0
 11
1749.125673329909
 21
1660.451470530591
 31
0.0
  0
LINE
  5
17AC21874A363F
330
17AC21874A354B
100
AcDbEntity
  8
0
100
AcDbLine
 10
1782.419693643967
 20
1750.157453446592
 30
0.0
 11
1667.511723582487
 21
1648.009046226491
 31
0.0
  0
LINE
  5
17AC21874A3640
330
17AC21874A354B
100
AcDbEntity
  8
0
100
AcDbLine
 10
1652.709441083741
 20
1634.850432601516
 30
0.0
 11
1652.354863577379
 21
1634.535227942593
 31
0.0
  0
LINE
  5
17AC21874A3641
330
17AC21874A354B
100
AcDbEntity
  8
0
100
AcDbLine
 10
1782.419693643967
 20
1750.157453446592
 30
0.0
 11
1879.427155107389
 21
1838.194675236143
 31
0.0
  0
LINE
  5
17AC21874A3642
330
17AC21874A354B
100
AcDbEntity
  8
0
100
AcDbLine
 10
2006.761859905687
 20
1639.980615810719
 30
0.0
 11
1874.423618139278
 21
1786.994140062797
 31
0.0
  0
LINE
  5
17AC21874A3643
330
17AC21874A354B
100
AcDbEntity
  8
0
100
AcDbLine
 10
2006.761859905687
 20
1639.980615810719
 30
0.0
 11
1978.09837558555
 21
1614.178397020823
 31
0.0
  0
LINE
  5
17AC21874A3644
330
17AC21874A354B
100
AcDbEntity
  8
0
100
AcDbLine
 10
1879.427155107389
 20
1838.194675236143
 30
0.0
 11
1928.866574297116
 21
1835.798046315643
 31
0.0
  0
LINE
  5
17AC21874A3645
330
17AC21874A354B
100
AcDbEntity
  8
0
100
AcDbLine
 10
2740.642709335057
 20
1149.169679824643
 30
0.0
 11
3153.006303851987
 21
717.224604192899
 31
0.0
  0
LINE
  5
17AC21874A3646
330
17AC21874A354B
100
AcDbEntity
  8
0
100
AcDbLine
 10
2883.716596950306
 20
1285.757560800591
 30
0.0
 11
3298.218176801696
 21
851.5729755485226
 31
0.0
  0
LINE
  5
17AC21874A3647
330
17AC21874A354B
100
AcDbEntity
  8
ASSE
100
AcDbLine
 10
2921.914198523185
 20
1099.92218975049
 30
0.0
 11
3023.506125385615
 21
993.0437337616263
 31
0.0
  0
LINE
  5
17AC21874A3648
330
17AC21874A354B
100
AcDbEntity
  8
ASSE
100
AcDbLine
 10
2126.061653233957
 20
1436.017127387372
 30
0.0
 11
2126.061653233957
 21
626.0171273873725
 31
0.0
  0
LINE
  5
17AC21874A3649
330
17AC21874A354B
100
AcDbEntity
  8
ASSE
 62
     1
100
AcDbLine
 39
0.1234
 10
2441.061653233957
 20
410.7988726373106
 30
0.0
 11
2441.061653233957
 21
743.3264809290476
 31
0.0
  0
LINE
  5
17AC21874A364A
330
17AC21874A354B
100
AcDbEntity
  8
ASSE
 62
     1
100
AcDbLine
 39
0.1234
 10
2524.533118187337
 20
461.9408989705909
 30
0.0
 11
2102.376466490793
 21
1064.843079623937
 31
0.0
  0
LINE
  5
17AC21874A364B
330
17AC21874A354B
100
AcDbEntity
  8
0
100
AcDbLine
 10
2620.928508832164
 20
608.9968513100666
 30
0.0
 11
3520.928508832164
 21
608.9968513100666
 31
0.0
  0
LINE
  5
17AC21874A364C
330
17AC21874A354B
100
AcDbEntity
  8
TESTO
100
AcDbLine
 10
2679.352725479507
 20
3.494853173056071
 30
0.0
 11
3381.122077080835
 21
3.494853173056071
 31
0.0
  0
LINE
  5
17AC21874A364D
330
17AC21874A354B
100
AcDbEntity
  8
TESTO
100
AcDbLine
 10
2679.352725479507
 20
15.36058752499139
 30
0.0
 11
3381.122077080835
 21
15.36058752499139
 31
0.0
  0
TEXT
  5
17AC21874A364E
330
17AC21874A354B
100
AcDbEntity
  8
TESTO
100
AcDbText
 10
2679.296820686485
 20
30.28063576718648
 30
0.0
 40
50.0
  1
Quadro Elettrico
  7
ROMANC
100
AcDbText
  0
LINE
  5
17AC21874A364F
330
17AC21874A354B
100
AcDbEntity
  8
ASSE
100
AcDbLine
 10
3266.036149312098
 20
428.3500772202113
 30
0.0
 11
3762.483375367636
 21
428.3500772202112
 31
0.0
  0
LINE
  5
17AC21874A3650
330
17AC21874A354B
100
AcDbEntity
  8
0
100
AcDbLine
 10
3637.545857246653
 20
488.3500772202112
 30
0.0
 11
2561.91769159978
 21
488.3500772202112
 31
0.0
  0
LINE
  5
17AC21874A3651
330
17AC21874A354B
100
AcDbEntity
  8
0
100
AcDbLine
 10
3639.254516236827
 20
368.3500772202111
 30
0.0
 11
3266.036149312098
 21
368.3500772202112
 31
0.0
  0
LINE
  5
17AC21874A3652
330
17AC21874A354B
100
AcDbEntity
  8
0
100
AcDbLine
 10
3142.939783355347
 20
131.0425387831926
 30
0.0
 11
3142.939783355347
 21
304.4401809683645
 31
0.0
  0
LINE
  5
17AC21874A3653
330
17AC21874A354B
100
AcDbEntity
  8
0
100
AcDbLine
 10
2742.939783355347
 20
304.4401809683645
 30
0.0
 11
2742.939783355347
 21
131.0425387831926
 31
0.0
  0
SOLID
  5
17AC21874A3654
330
17AC21874A354B
100
AcDbEntity
  8
0
100
AcDbTrace
 10
2480.185743963219
 20
104.0915370338641
 30
0.0
 11
2480.185743963219
 21
104.0915370338641
 31
0.0
 12
2480.185743963219
 22
131.0425387831926
 32
0.0
 13
2505.185743963217
 23
131.0425387831926
 33
0.0
  0
SOLID
  5
17AC21874A3655
330
17AC21874A354B
100
AcDbEntity
  8
0
100
AcDbTrace
 10
2505.185743963217
 20
131.0425387831926
 30
0.0
 11
2505.185743963217
 21
104.0915370338641
 31
0.0
 12
2480.185743963219
 22
104.0915370338641
 32
0.0
 13
2480.185743963219
 23
104.0915370338641
 33
0.0
  0
SOLID
  5
17AC21874A3656
330
17AC21874A354B
100
AcDbEntity
  8
0
100
AcDbTrace
 10
3239.939608404088
 20
104.0915370338641
 30
0.0
 11
3239.939608404088
 21
104.0915370338641
 31
0.0
 12
3239.939608404088
 22
131.0425387831926
 32
0.0
 13
3265.412147793103
 23
131.0425387831926
 33
0.0
  0
SOLID
  5
17AC21874A3657
330
17AC21874A354B
100
AcDbEntity
  8
0
100
AcDbTrace
 10
3265.412147793103
 20
131.0425387831926
 30
0.0
 11
3265.412147793103
 21
104.0915370338641
 31
0.0
 12
3239.939608404088
 22
104.0915370338641
 32
0.0
 13
3239.939608404088
 23
104.0915370338641
 33
0.0
  0
LINE
  5
17AC21874A3658
330
17AC21874A354B
100
AcDbEntity
  8
ASSE
100
AcDbLine
 10
2349.677895899672
 20
428.3500772202112
 30
0.0
 11
2988.057153458525
 21
428.3500772202112
 31
0.0
  0
LINE
  5
17AC21874A3659
330
17AC21874A354B
100
AcDbEntity
  8
0
100
AcDbLine
 10
2441.186756381202
 20
368.350077220211
 30
0.0
 11
3240.726867183642
 21
368.3500772202112
 31
0.0
  0
CIRCLE
  5
17AC21874A365A
330
17AC21874A354B
100
AcDbEntity
  8
0
100
AcDbCircle
 10
2441.061653233957
 20
581.1505052636053
 30
0.0
 40
40.0
  0
ARC
  5
17AC21874A365B
330
17AC21874A354B
100
AcDbEntity
  8
0
100
AcDbCircle
 10
2441.061653233957
 20
581.1505052636053
 30
0.0
 40
152.5
100
AcDbArc
 50
164.5647165909671
 51
86.41774019236716
  0
CIRCLE
  5
17AC21874A365C
330
17AC21874A354B
100
AcDbEntity
  8
COSTRUZIONE
100
AcDbCircle
 10
2126.061653233957
 20
631.0171273873725
 30
0.0
 40
20.0
  0
LINE
  5
17AC21874A365D
330
17AC21874A354B
100
AcDbEntity
  8
ASSE
100
AcDbLine
 10
2126.061653233957
 20
609.5171273873725
 30
0.0
 11
2126.061653233957
 21
652.5171273873724
 31
0.0
  0
ARC
  5
17AC21874A365E
330
17AC21874A354B
100
AcDbEntity
  8
0
100
AcDbCircle
 10
2441.388087396896
 20
582.2993306901589
 30
0.0
 40
178.9881121810518
100
AcDbArc
 50
171.1644344609321
 51
270.0
  0
LINE
  5
17AC21874A365F
330
17AC21874A354B
100
AcDbEntity
  8
0
100
AcDbLine
 10
2126.963016610837
 20
290.3557960244698
 30
0.0
 11
2441.388087396896
 21
290.3557960244698
 31
0.0
  0
LINE
  5
17AC21874A3660
330
17AC21874A354B
100
AcDbEntity
  8
0
100
AcDbLine
 10
2126.963016610837
 20
588.8451522502818
 30
0.0
 11
2126.963016610837
 21
290.3557960244698
 31
0.0
  0
LINE
  5
17AC21874A3661
330
17AC21874A354B
100
AcDbEntity
  8
0
100
AcDbLine
 10
2320.203547263096
 20
487.6808643563317
 30
0.0
 11
2289.300919773335
 21
487.6939284518948
 31
0.0
  0
LINE
  5
17AC21874A3662
330
17AC21874A354B
100
AcDbEntity
  8
0
100
AcDbLine
 10
2441.388087396896
 20
290.3557960244698
 30
0.0
 11
2441.388087396896
 21
403.3060307337309
 31
0.0
  0
LINE
  5
17AC21874A3663
330
17AC21874A354B
100
AcDbEntity
  8
0
100
AcDbLine
 10
2620.928508832164
 20
488.9968513100666
 30
0.0
 11
2620.928508832164
 21
608.9968513100666
 31
0.0
  0
CIRCLE
  5
17AC21874A3664
330
17AC21874A354B
100
AcDbEntity
  8
COSTRUZIONE
100
AcDbCircle
 10
2408.904365708576
 20
748.174414912753
 30
0.0
 40
20.0
  0
LINE
  5
17AC21874A3665
330
17AC21874A354B
100
AcDbEntity
  8
ASSE
100
AcDbLine
 10
2424.107161504087
 20
732.9716191172424
 30
0.0
 11
2393.701569913066
 21
763.3772107082645
 31
0.0
  0
LINE
  5
17AC21874A3666
330
17AC21874A354B
100
AcDbEntity
  8
ASSE
100
AcDbLine
 10
2547.561653233957
 20
1031.017127387372
 30
0.0
 11
2504.561653233957
 21
1031.017127387372
 31
0.0
  0
CIRCLE
  5
17AC21874A3667
330
17AC21874A354B
100
AcDbEntity
  8
COSTRUZIONE
100
AcDbCircle
 10
2526.061653233957
 20
1031.017127387372
 30
0.0
 40
20.0
  0
LINE
  5
17AC21874A3668
330
17AC21874A354B
100
AcDbEntity
  8
0
100
AcDbLine
 10
2889.061653233958
 20
609.084140352862
 30
0.0
 11
2889.061653233958
 21
992.5777008865116
 31
0.0
  0
LINE
  5
17AC21874A3669
330
17AC21874A354B
100
AcDbEntity
  8
ASSE
100
AcDbLine
 10
2988.057153458525
 20
428.3500772202112
 30
0.0
 11
3240.726867183641
 21
428.3500772202112
 31
0.0
  0
LINE
  5
17AC21874A366A
330
17AC21874A354B
100
AcDbEntity
  8
0
100
AcDbLine
 10
3142.939783355347
 20
304.4401809683645
 30
0.0
 11
2742.939783355347
 21
304.4401809683645
 31
0.0
  0
LINE
  5
17AC21874A366B
330
17AC21874A354B
100
AcDbEntity
  8
0
100
AcDbLine
 10
2843.363065006544
 20
304.4401809683646
 30
0.0
 11
2888.94001391662
 21
350.0171298784401
 31
0.0
  0
LINE
  5
17AC21874A366C
330
17AC21874A354B
100
AcDbEntity
  8
0
100
AcDbLine
 10
2889.061653233958
 20
349.8564979982866
 30
0.0
 11
2889.061653233957
 21
368.3500772202112
 31
0.0
  0
LINE
  5
17AC21874A366D
330
17AC21874A354B
100
AcDbEntity
  8
0
100
AcDbLine
 10
2888.94001391662
 20
350.0171298784401
 30
0.0
 11
2888.94001391662
 21
355.5280871637306
 31
0.0
  0
LINE
  5
17AC21874A366E
330
17AC21874A354B
100
AcDbEntity
  8
ASSE
100
AcDbLine
 10
3052.841384775645
 20
962.1819583581055
 30
0.0
 11
3253.913573797173
 21
750.6465955726078
 31
0.0
  0
LINE
  5
17AC21874A366F
330
17AC21874A354B
100
AcDbEntity
  8
0
100
AcDbLine
 10
3151.562083289562
 20
714.7162087843944
 30
0.0
 11
3296.922867351396
 21
849.9438743061011
 31
0.0
  0
LINE
  5
17AC21874A3670
330
17AC21874A354B
100
AcDbEntity
  8
0
100
AcDbLine
 10
3639.512797956174
 20
488.3500772202112
 30
0.0
 11
3639.512797956174
 21
368.3500772202112
 31
0.0
  0
LINE
  5
17AC21874A3671
330
17AC21874A354B
100
AcDbEntity
  8
0
100
AcDbLine
 10
3520.928508832164
 20
608.9968513100666
 30
0.0
 11
3520.928508832164
 21
488.9968513100666
 31
0.0
  0
LINE
  5
17AC21874A3672
330
17AC21874A354B
100
AcDbEntity
  8
0
100
AcDbLine
 10
3639.254516236827
 20
488.3500772202112
 30
0.0
 11
3628.285961292474
 21
488.3500772202112
 31
0.0
  0
LINE
  5
17AC21874A3673
330
17AC21874A354B
100
AcDbEntity
  8
ASSE
 62
     1
100
AcDbLine
 39
0.1234
 10
2613.581378080362
 20
1422.490602720709
 30
0.0
 11
2927.722719748803
 21
1091.24653473753
 31
0.0
  0
INSERT
  5
17AC21874A3674
330
17AC21874A354B
100
AcDbEntity
  8
0
100
AcDbBlockReference
  2
A$C6
 10
2317.839266894043
 20
2449.01115283548
 30
0.0
  0
LINE
  5
17AC21874A3675
330
17AC21874A354B
100
AcDbEntity
  8
ASSE
100
AcDbLine
 10
2202.814494652754
 20
1946.567936707781
 30
0.0
 11
2416.162935210707
 21
2137.78478456354
 31
0.0
  0
LINE
  5
17AC21874A3676
330
17AC21874A354B
100
AcDbEntity
  8
ASSE
100
AcDbLine
 10
2668.566038511331
 20
1430.246047172132
 30
0.0
 11
2741.360422665874
 21
1494.851919768804
 31
0.0
  0
LINE
  5
17AC21874A3677
330
17AC21874A354B
100
AcDbEntity
  8
ASSE
100
AcDbLine
 10
2655.090008865869
 20
1182.491915514588
 30
0.0
 11
2792.998354917765
 21
1436.023919325402
 31
0.0
  0
LINE
  5
17AC21874A3678
330
17AC21874A354B
100
AcDbEntity
  8
0
100
AcDbLine
 10
2597.017589385548
 20
1199.762094635799
 30
0.0
 11
2711.603261691909
 21
1176.936307841504
 31
0.0
  0
ARC
  5
17AC21874A3679
330
17AC21874A354B
100
AcDbEntity
  8
0
100
AcDbCircle
 10
2589.087336897562
 20
1375.914551563115
 30
0.0
 40
186.1129790891297
100
AcDbArc
 50
43.07590068680847
 51
126.7395074812878
  0
CIRCLE
  5
17AC21874A367A
330
17AC21874A354B
100
AcDbEntity
  8
0
100
AcDbCircle
 10
2724.048018746628
 20
1306.805000178579
 30
0.0
 40
117.5
  0
LINE
  5
17AC21874A367B
330
17AC21874A354B
100
AcDbEntity
  8
ASSE
100
AcDbLine
 10
2829.422674697556
 20
1250.845705505579
 30
0.0
 11
2617.11758410706
 21
1365.699533537107
 31
0.0
  0
LINE
  5
17AC21874A367C
330
17AC21874A354B
100
AcDbEntity
  8
ASSE
100
AcDbLine
 10
2660.458764141507
 20
1504.028169533953
 30
0.0
 11
2753.557909984689
 21
1407.294955840864
 31
0.0
  0
CIRCLE
  5
17AC21874A367D
330
17AC21874A354B
100
AcDbEntity
  8
0
100
AcDbCircle
 10
2700.21451364195
 20
1465.682198147403
 30
0.0
 40
45.0
  0
CIRCLE
  5
17AC21874A367E
330
17AC21874A354B
100
AcDbEntity
  8
COSTRUZIONE
100
AcDbCircle
 10
2126.061653233957
 20
1431.017127387372
 30
0.0
 40
20.0
  0
LINE
  5
17AC21874A367F
330
17AC21874A354B
100
AcDbEntity
  8
ASSE
100
AcDbLine
 10
2126.061653233957
 20
1452.517127387372
 30
0.0
 11
2126.061653233957
 21
1409.517127387372
 31
0.0
  0
CIRCLE
  5
17AC21874A3680
330
17AC21874A354B
100
AcDbEntity
  8
0
100
AcDbCircle
 10
2511.040681990947
 20
1411.698932718237
 30
0.0
 40
118.9035679976518
  0
LINE
  5
17AC21874A3681
330
17AC21874A354B
100
AcDbEntity
  8
ASSE
100
AcDbLine
 10
2456.21076284216
 20
1297.800250187515
 30
0.0
 11
2566.740566414166
 21
1524.579402892765
 31
0.0
  0
CIRCLE
  5
17AC21874A3682
330
17AC21874A354B
100
AcDbEntity
  8
COSTRUZIONE
100
AcDbCircle
 10
2408.904365708576
 20
1313.859839861991
 30
0.0
 40
20.0
  0
LINE
  5
17AC21874A3683
330
17AC21874A354B
100
AcDbEntity
  8
ASSE
100
AcDbLine
 10
2424.107161504087
 20
1329.062635657502
 30
0.0
 11
2393.701569913065
 21
1298.657044066481
 31
0.0
  0
LINE
  5
17AC21874A3684
330
17AC21874A354B
100
AcDbEntity
  8
0
100
AcDbLine
 10
2495.86422435312
 20
1298.746848280044
 30
0.0
 11
2592.835350971669
 21
1201.289943442709
 31
0.0
  0
LINE
  5
17AC21874A3685
330
17AC21874A354B
100
AcDbEntity
  8
ASSE
100
AcDbLine
 10
2393.922258773458
 20
1468.672015966321
 30
0.0
 11
2623.915817427045
 21
1356.040811355831
 31
0.0
  0
LINE
  5
17AC21874A3686
330
17AC21874A354B
100
AcDbEntity
  8
ASSE
100
AcDbLine
 10
2061.298155073956
 20
1819.731723124151
 30
0.0
 11
2171.106652696488
 21
1918.149291718722
 31
0.0
  0
LINE
  5
17AC21874A3687
330
17AC21874A354B
100
AcDbEntity
  8
0
100
AcDbLine
 10
2889.061653233958
 20
1329.56648207275
 30
0.0
 11
2889.061653233957
 21
1675.124350825376
 31
0.0
  0
LINE
  5
17AC21874A3688
330
17AC21874A354B
100
AcDbEntity
  8
0
100
AcDbLine
 10
2844.200670921108
 20
1376.64295673115
 30
0.0
 11
2935.041728029036
 21
1282.255974877113
 31
0.0
  0
LINE
  5
17AC21874A3689
330
17AC21874A354B
100
AcDbEntity
  8
0
100
AcDbLine
 10
2740.642709335057
 20
1149.169679824643
 30
0.0
 11
2883.716596950306
 21
1285.757560800591
 31
0.0
  0
LINE
  5
17AC21874A368A
330
17AC21874A354B
100
AcDbEntity
  8
0
100
AcDbLine
 10
2740.642709335057
 20
1149.169679824643
 30
0.0
 11
2714.011930945161
 21
1177.065046289355
 31
0.0
  0
LINE
  5
17AC21874A368B
330
17AC21874A354B
100
AcDbEntity
  8
0
100
AcDbLine
 10
2935.041728029036
 20
1282.255974877113
 30
0.0
 11
2934.094343554884
 21
1232.767567520862
 31
0.0
  0
LINE
  5
17AC21874A368C
330
17AC21874A354B
100
AcDbEntity
  8
0
100
AcDbLine
 10
2844.200670921108
 20
1376.64295673115
 30
0.0
 11
2738.730128912486
 21
1488.509410369678
 31
0.0
  0
LINE
  5
17AC21874A368D
330
17AC21874A354B
100
AcDbEntity
  8
0
100
AcDbLine
 10
2733.113520746493
 20
1499.034696739799
 30
0.0
 11
2732.802266752907
 21
1499.392747206217
 31
0.0
  0
LINE
  5
17AC21874A368E
330
17AC21874A354B
100
AcDbEntity
  8
0
100
AcDbLine
 10
2725.143562573594
 20
1502.919889016237
 30
0.0
 11
2724.818106630374
 21
1503.265081157004
 31
0.0
  0
LINE
  5
17AC21874A368F
330
17AC21874A354B
100
AcDbEntity
  8
0
100
AcDbLine
 10
2889.061653233957
 20
1675.124350825376
 30
0.0
 11
2794.061653233957
 21
1770.124350825376
 31
0.0
  0
LINE
  5
17AC21874A3690
330
17AC21874A354B
100
AcDbEntity
  8
0
100
AcDbLine
 10
2453.065850287271
 20
2037.9973221932
 30
0.0
 11
2322.154229733888
 21
2187.256917092854
 31
0.0
  0
ENDBLK
  5
17AC21874A3692
330
17AC21874A354B
100
AcDbEntity
  8
0
100
AcDbBlockEnd
  0
BLOCK
  5
17AC21874A3A55
330
17AC21874A39E0
100
AcDbEntity
  8
0
100
AcDbBlockBegin
  2
A$C7BA76C37
 70
     0
 10
0.0
 20
0.0
 30
0.0
  3
A$C7BA76C37
  1

  0
LINE
  5
17AC21874A39E1
330
17AC21874A39E0
100
AcDbEntity
  8
0
 62
     0
100
AcDbLine
 10
-2821.634996079755
 20
681.8232508705705
 30
0.0
 11
-960.5549900169226
 21
682.0200219268581
 31
0.0
  0
LINE
  5
17AC21874A39E2
330
17AC21874A39E0
100
AcDbEntity
  8
0
 62
     0
100
AcDbLine
 10
-2821.634996079755
 20
711.8232508705705
 30
0.0
 11
-960.5549900169226
 21
711.7237345565008
 31
0.0
  0
LINE
  5
17AC21874A39E3
330
17AC21874A39E0
100
AcDbEntity
  8
0
  6
Continuous
 62
     0
100
AcDbLine
 10
-456.5412869439187
 20
673.8549543497711
 30
0.0
 11
-3026.721549251925
 21
673.8232508705705
 31
0.0
  0
LINE
  5
17AC21874A39E4
330
17AC21874A39E0
100
AcDbEntity
  8
0
 62
     0
100
AcDbLine
 10
-2823.136815586584
 20
2618.410984812724
 30
0.0
 11
-663.1270671826824
 21
2619.367497999736
 31
0.0
  0
LINE
  5
17AC21874A39E5
330
17AC21874A39E0
100
AcDbEntity
  8
0
 62
     0
100
AcDbLine
 10
-663.1270671826824
 20
2589.367497999735
 30
0.0
 11
-2823.136815586584
 21
2588.410984812724
 31
0.0
  0
LINE
  5
17AC21874A39E6
330
17AC21874A39E0
100
AcDbEntity
  8
0
  6
Continuous
 62
     0
100
AcDbLine
 10
-3026.718895603059
 20
2626.705204047954
 30
0.0
 11
-456.9788687956624
 21
2626.442688291924
 31
0.0
  0
LWPOLYLINE
  5
17AC21874A39E7
330
17AC21874A39E0
100
AcDbEntity
  8
SQUADRATURA
 62
     0
100
AcDbPolyline
 90
        4
 70
     1
 43
0.0
 10
-4230.0
 20
75.0
 10
-75.0
 20
75.0
 10
-75.0
 20
2925.0
 10
-4230.0
 20
2925.0
  0
LWPOLYLINE
  5
17AC21874A39E8
330
17AC21874A39E0
100
AcDbEntity
  8
SQUADRATURA
 62
     0
100
AcDbPolyline
 90
        4
 70
     1
 43
0.0
 10
-4305.0
 20
0.0
 10
0.0
 20
0.0
 10
0.0
 20
3000.0
 10
-4305.0
 20
3000.0
  0
LINE
  5
17AC21874A39E9
330
17AC21874A39E0
100
AcDbEntity
  8
0
 62
     0
100
AcDbLine
 10
-3026.718895603059
 20
2626.705204047954
 30
0.0
 11
-3026.721549251925
 21
673.8232508705705
 31
0.0
  0
LINE
  5
17AC21874A39EA
330
17AC21874A39E0
100
AcDbEntity
  8
0
 62
     0
100
AcDbLine
 10
-2989.534775392979
 20
2418.063130007658
 30
0.0
 11
-2989.657411545963
 21
879.2679460957215
 31
0.0
  0
LINE
  5
17AC21874A39EB
330
17AC21874A39E0
100
AcDbEntity
  8
0
 62
     0
100
AcDbLine
 10
-3019.654757897097
 20
748.9510499687358
 30
0.0
 11
-3019.559004109698
 21
2138.542207544118
 31
0.0
  0
LINE
  5
17AC21874A39EC
330
17AC21874A39E0
100
AcDbEntity
  8
SQUADRATURA
 62
     0
100
AcDbLine
 10
-4208.078885119108
 20
1711.814126014449
 30
0.0
 11
-4208.078885119108
 21
1449.550617955118
 31
0.0
  0
LINE
  5
17AC21874A39ED
330
17AC21874A39E0
100
AcDbEntity
  8
SQUADRATURA
 62
     0
100
AcDbLine
 10
-3346.515302981352
 20
1711.814126014449
 30
0.0
 11
-3346.515302981352
 21
1449.550617955118
 31
0.0
  0
INSERT
  5
17AC21874A39EE
330
17AC21874A39E0
100
AcDbEntity
  8
0
 62
     0
100
AcDbBlockReference
  2
A$C6
 10
-4197.390513518748
 20
100.1740771469049
 30
0.0
  0
LINE
  5
17AC21874A39EF
330
17AC21874A39E0
100
AcDbEntity
  8
SQUADRATURA
 62
     0
100
AcDbLine
 10
-4207.709273992391
 20
1450.343036585718
 30
0.0
 11
-3347.291206035658
 21
1450.343036585718
 31
0.0
  0
LINE
  5
17AC21874A39F0
330
17AC21874A39E0
100
AcDbEntity
  8
0
 62
     0
100
AcDbLine
 10
-4207.709273992391
 20
1470.234192930291
 30
0.0
 11
-3476.15566485259
 21
1470.234192930291
 31
0.0
  0
LINE
  5
17AC21874A39F1
330
17AC21874A39E0
100
AcDbEntity
  8
0
 62
     0
100
AcDbLine
 10
-4207.709273992391
 20
1490.0452603064
 30
0.0
 11
-3476.15566485259
 21
1490.0452603064
 31
0.0
  0
LINE
  5
17AC21874A39F2
330
17AC21874A39E0
100
AcDbEntity
  8
0
  6
Continuous
 62
     0
100
AcDbLine
 10
-2821.320326036197
 20
681.8232508705705
 30
0.0
 11
-3019.770902737992
 21
681.8232508705705
 31
0.0
  0
LINE
  5
17AC21874A39F3
330
17AC21874A39E0
100
AcDbEntity
  8
0
  6
Continuous
 62
     0
100
AcDbLine
 10
-3019.657411545963
 20
880.4097652999871
 30
0.0
 11
-3019.657411545963
 21
681.8232508705705
 31
0.0
  0
LINE
  5
17AC21874A39F4
330
17AC21874A39E0
100
AcDbEntity
  8
0
  6
Continuous
 62
     0
100
AcDbLine
 10
-2992.657411545963
 20
882.2679460957216
 30
0.0
 11
-3016.657411545963
 21
882.2679460957216
 31
0.0
  0
ARC
  5
17AC21874A39F5
330
17AC21874A39E0
100
AcDbEntity
  8
0
  6
Continuous
 62
     0
100
AcDbCircle
 10
-3016.657411545963
 20
879.2679460957215
 30
0.0
 40
3.000000000000002
100
AcDbArc
 50
90.0
 51
180.0
  0
ARC
  5
17AC21874A39F6
330
17AC21874A39E0
100
AcDbEntity
  8
0
  6
Continuous
 62
     0
100
AcDbCircle
 10
-2992.657411545963
 20
879.2679460957215
 30
0.0
 40
3.000000000000002
100
AcDbArc
 50
0.0
 51
90.0
  0
LINE
  5
17AC21874A39F7
330
17AC21874A39E0
100
AcDbEntity
  8
0
  6
Continuous
 62
     0
100
AcDbLine
 10
-2989.657411545963
 20
879.2679460957215
 30
0.0
 11
-2989.657411545963
 21
852.2679460957215
 31
0.0
  0
LINE
  5
17AC21874A39F8
330
17AC21874A39E0
100
AcDbEntity
  8
0
 62
     0
100
AcDbLine
 10
-3476.15566485259
 20
1470.234192930291
 30
0.0
 11
-3352.820966510567
 21
1470.234192930291
 31
0.0
  0
LINE
  5
17AC21874A39F9
330
17AC21874A39E0
100
AcDbEntity
  8
0
 62
     0
100
AcDbLine
 10
-3476.15566485259
 20
1490.0452603064
 30
0.0
 11
-3353.915152486965
 21
1490.0452603064
 31
0.0
  0
LINE
  5
17AC21874A39FA
330
17AC21874A39E0
100
AcDbEntity
  8
0
  6
Continuous
 62
     0
100
AcDbLine
 10
-2818.634996079754
 20
708.8232508705705
 30
0.0
 11
-2818.634996079754
 21
684.8232508705705
 31
0.0
  0
ARC
  5
17AC21874A39FB
330
17AC21874A39E0
100
AcDbEntity
  8
0
  6
Continuous
 62
     0
100
AcDbCircle
 10
-2821.634996079755
 20
684.8232508705705
 30
0.0
 40
3.000000000000002
100
AcDbArc
 50
270.0
 51
0.0
  0
ARC
  5
17AC21874A39FC
330
17AC21874A39E0
100
AcDbEntity
  8
0
  6
Continuous
 62
     0
100
AcDbCircle
 10
-2821.634996079755
 20
708.8232508705705
 30
0.0
 40
3.000000000000002
100
AcDbArc
 50
0.0
 51
90.0
  0
LINE
  5
17AC21874A39FD
330
17AC21874A39E0
100
AcDbEntity
  8
0
  6
Continuous
 62
     0
100
AcDbLine
 10
-2845.634996079754
 20
711.8232508705705
 30
0.0
 11
-2821.634996079755
 21
711.8232508705705
 31
0.0
  0
LINE
  5
17AC21874A39FE
330
17AC21874A39E0
100
AcDbEntity
  8
0
 62
     0
100
AcDbLine
 10
-3547.39800644386
 20
1631.159277875035
 30
0.0
 11
-3453.486264292473
 21
1631.159277875035
 31
0.0
  0
LINE
  5
17AC21874A39FF
330
17AC21874A39E0
100
AcDbEntity
  8
0
 62
     0
100
AcDbLine
 10
-3547.39800644386
 20
1648.989232981478
 30
0.0
 11
-3453.486264292473
 21
1648.989232981478
 31
0.0
  0
TEXT
  5
17AC21874A3A00
330
17AC21874A39E0
100
AcDbEntity
  8
TESTO
 62
     0
100
AcDbText
 10
-4200.644458851739
 20
1503.685721692249
 30
0.0
 40
50.0
  1
LARGHEZZA 120 mm
  7
ROMANC
100
AcDbText
  0
TEXT
  5
17AC21874A3A01
330
17AC21874A39E0
100
AcDbEntity
  8
TESTO
 62
     0
100
AcDbText
 10
-4196.675042638632
 20
1658.381670538604
 30
0.0
 40
50.0
  1
ALTEZZA 100 mm
  7
ROMANC
100
AcDbText
  0
TEXT
  5
17AC21874A3A02
330
17AC21874A39E0
100
AcDbEntity
  8
TESTO
 62
     0
100
AcDbText
 10
-4204.61386400878
 20
1809.111055394651
 30
0.0
 40
50.0
  1
DIMENSIONI NASTRO
  7
ROMANC
100
AcDbText
  0
TEXT
  5
17AC21874A3A03
330
17AC21874A39E0
100
AcDbEntity
  8
TESTO
 62
     0
100
AcDbText
 10
-4200.644458851739
 20
2094.703575827751
 30
0.0
 40
50.0
  1
LUNGHEZZA NASTRO
  7
ROMANC
100
AcDbText
  0
TEXT
  5
17AC21874A3A04
330
17AC21874A39E0
100
AcDbEntity
  8
0
 62
     0
100
AcDbText
 10
-4208.58326916582
 20
2780.918952366176
 30
0.0
 40
100.0
  1
ETICAP SYSTEM 
  7
ROMANC
100
AcDbText
  0
LINE
  5
17AC21874A3A05
330
17AC21874A39E0
100
AcDbEntity
  8
SQUADRATURA
 62
     0
100
AcDbLine
 10
-4207.709273992391
 20
1757.414580915422
 30
0.0
 11
-3347.291206035658
 21
1757.414580915422
 31
0.0
  0
LINE
  5
17AC21874A3A06
330
17AC21874A39E0
100
AcDbEntity
  8
SQUADRATURA
 62
     0
100
AcDbLine
 10
-4207.709273992391
 20
1610.812680949195
 30
0.0
 11
-3347.291206035658
 21
1610.812680949195
 31
0.0
  0
LINE
  5
17AC21874A3A07
330
17AC21874A39E0
100
AcDbEntity
  8
SQUADRATURA
 62
     0
100
AcDbLine
 10
-4207.709273992391
 20
1909.95979003037
 30
0.0
 11
-3347.291206035658
 21
1909.95979003037
 31
0.0
  0
LINE
  5
17AC21874A3A08
330
17AC21874A39E0
100
AcDbEntity
  8
SQUADRATURA
 62
     0
100
AcDbLine
 10
-4207.709273992391
 20
2044.675050953946
 30
0.0
 11
-3347.291206035658
 21
2044.675050953946
 31
0.0
  0
LINE
  5
17AC21874A3A09
330
17AC21874A39E0
100
AcDbEntity
  8
SQUADRATURA
 62
     0
100
AcDbLine
 10
-4207.709273992391
 20
2197.220266983964
 30
0.0
 11
-3347.291206035658
 21
2197.220266983964
 31
0.0
  0
LINE
  5
17AC21874A3A0A
330
17AC21874A39E0
100
AcDbEntity
  8
SQUADRATURA
 62
     0
100
AcDbLine
 10
-4207.709273992391
 20
2339.859942410857
 30
0.0
 11
-3347.291206035658
 21
2339.859942410857
 31
0.0
  0
LINE
  5
17AC21874A3A0B
330
17AC21874A39E0
100
AcDbEntity
  8
SQUADRATURA
 62
     0
100
AcDbLine
 10
-4207.709273992391
 20
2466.650775000974
 30
0.0
 11
-3347.291206035658
 21
2466.650775000974
 31
0.0
  0
LINE
  5
17AC21874A3A0C
330
17AC21874A39E0
100
AcDbEntity
  8
SQUADRATURA
 62
     0
100
AcDbLine
 10
-4207.709273992391
 20
2597.403818300286
 30
0.0
 11
-3347.291206035658
 21
2597.403818300286
 31
0.0
  0
LINE
  5
17AC21874A3A0D
330
17AC21874A39E0
100
AcDbEntity
  8
0
 62
     0
100
AcDbLine
 10
-4208.078885119108
 20
1783.308946119822
 30
0.0
 11
-3458.116799819947
 21
1783.308946119822
 31
0.0
  0
LINE
  5
17AC21874A3A0E
330
17AC21874A39E0
100
AcDbEntity
  8
0
 62
     0
100
AcDbLine
 10
-4208.078885119108
 20
2069.943914281997
 30
0.0
 11
-3413.476207949289
 21
2069.943914281997
 31
0.0
  0
LINE
  5
17AC21874A3A0F
330
17AC21874A39E0
100
AcDbEntity
  8
0
 62
     0
100
AcDbLine
 10
-4204.700464369076
 20
2753.808888171539
 30
0.0
 11
-2707.838751639642
 21
2753.808888171539
 31
0.0
  0
LINE
  5
17AC21874A3A10
330
17AC21874A39E0
100
AcDbEntity
  8
0
 62
     0
100
AcDbLine
 10
-4204.700464369076
 20
2767.676632568787
 30
0.0
 11
-2707.838751639642
 21
2767.676632568787
 31
0.0
  0
LINE
  5
17AC21874A3A11
330
17AC21874A39E0
100
AcDbEntity
  8
0
 62
     0
100
AcDbLine
 10
-4208.078885119108
 20
1799.157795871668
 30
0.0
 11
-3458.116799819947
 21
1799.157795871668
 31
0.0
  0
LINE
  5
17AC21874A3A12
330
17AC21874A39E0
100
AcDbEntity
  8
0
 62
     0
100
AcDbLine
 10
-4208.078885119108
 20
2087.77387630351
 30
0.0
 11
-3413.476207949289
 21
2087.77387630351
 31
0.0
  0
LINE
  5
17AC21874A3A13
330
17AC21874A39E0
100
AcDbEntity
  8
SQUADRATURA
 62
     0
100
AcDbLine
 10
-3346.515302981352
 20
2733.349906385188
 30
0.0
 11
-4208.078885119108
 21
2733.349906385188
 31
0.0
  0
LINE
  5
17AC21874A3A14
330
17AC21874A39E0
100
AcDbEntity
  8
SQUADRATURA
 62
     0
100
AcDbLine
 10
-2685.834424306106
 20
2907.323244364219
 30
0.0
 11
-4208.078885119108
 21
2907.323244364219
 31
0.0
  0
LINE
  5
17AC21874A3A15
330
17AC21874A39E0
100
AcDbEntity
  8
SQUADRATURA
 62
     0
100
AcDbLine
 10
-4208.078885119108
 20
2907.323244364219
 30
0.0
 11
-4208.078885119108
 21
1711.814126014449
 31
0.0
  0
TEXT
  5
17AC21874A3A16
330
17AC21874A39E0
100
AcDbEntity
  8
TESTO
 62
     0
100
AcDbText
 10
-4200.644458851739
 20
1943.974190971703
 30
0.0
 40
50.0
  1
3000 mm
  7
ROMANC
100
AcDbText
  0
LINE
  5
17AC21874A3A17
330
17AC21874A39E0
100
AcDbEntity
  8
0
 62
     0
100
AcDbLine
 10
-4208.078885119108
 20
1631.159277875035
 30
0.0
 11
-3547.39800644386
 21
1631.159277875035
 31
0.0
  0
LINE
  5
17AC21874A3A18
330
17AC21874A39E0
100
AcDbEntity
  8
0
 62
     0
100
AcDbLine
 10
-4208.078885119108
 20
1925.727554461579
 30
0.0
 11
-3859.882206744961
 21
1925.727554461579
 31
0.0
  0
LINE
  5
17AC21874A3A19
330
17AC21874A39E0
100
AcDbEntity
  8
0
 62
     0
100
AcDbLine
 10
-4208.078885119108
 20
1648.989232981478
 30
0.0
 11
-3547.39800644386
 21
1648.989232981478
 31
0.0
  0
LINE
  5
17AC21874A3A1A
330
17AC21874A39E0
100
AcDbEntity
  8
0
 62
     0
100
AcDbLine
 10
-4208.078885119108
 20
1937.614193504231
 30
0.0
 11
-3859.882206744961
 21
1937.614193504231
 31
0.0
  0
LINE
  5
17AC21874A3A1B
330
17AC21874A39E0
100
AcDbEntity
  8
0
 62
     0
100
AcDbLine
 10
-3859.882206744961
 20
1925.727554461579
 30
0.0
 11
-3797.061302133847
 21
1925.727554461579
 31
0.0
  0
LINE
  5
17AC21874A3A1C
330
17AC21874A39E0
100
AcDbEntity
  8
0
 62
     0
100
AcDbLine
 10
-3859.882206744961
 20
1937.614193504231
 30
0.0
 11
-3797.061302133847
 21
1937.614193504231
 31
0.0
  0
TEXT
  5
17AC21874A3A1D
330
17AC21874A39E0
100
AcDbEntity
  8
TESTO
 62
     0
100
AcDbText
 10
-4196.675042638632
 20
2249.399531356345
 30
0.0
 40
50.0
  1
12.000 B/h
  7
ROMANC
100
AcDbText
  0
TEXT
  5
17AC21874A3A1E
330
17AC21874A39E0
100
AcDbEntity
  8
TESTO
 62
     0
100
AcDbText
 10
-4196.675042638632
 20
2384.262666933398
 30
0.0
 40
50.0
  1
PRODUZIONE
  7
ROMANC
100
AcDbText
  0
LINE
  5
17AC21874A3A1F
330
17AC21874A39E0
100
AcDbEntity
  8
0
 62
     0
100
AcDbLine
 10
-4208.078885119108
 20
2225.548288183714
 30
0.0
 11
-3757.208823703979
 21
2225.548288183714
 31
0.0
  0
LINE
  5
17AC21874A3A20
330
17AC21874A39E0
100
AcDbEntity
  8
0
 62
     0
100
AcDbLine
 10
-4208.078885119108
 20
2358.678462111938
 30
0.0
 11
-3725.960408250389
 21
2358.678462111938
 31
0.0
  0
LINE
  5
17AC21874A3A21
330
17AC21874A39E0
100
AcDbEntity
  8
0
 62
     0
100
AcDbLine
 10
-4208.078885119108
 20
2241.397137935558
 30
0.0
 11
-3757.208823703979
 21
2241.397137935558
 31
0.0
  0
LINE
  5
17AC21874A3A22
330
17AC21874A39E0
100
AcDbEntity
  8
0
 62
     0
100
AcDbLine
 10
-4208.078885119108
 20
2374.527318778853
 30
0.0
 11
-3725.960408250389
 21
2374.527318778853
 31
0.0
  0
LINE
  5
17AC21874A3A23
330
17AC21874A39E0
100
AcDbEntity
  8
0
 62
     0
100
AcDbLine
 10
-3757.208823703979
 20
2225.548288183714
 30
0.0
 11
-3725.939080995066
 21
2225.548288183714
 31
0.0
  0
LINE
  5
17AC21874A3A24
330
17AC21874A39E0
100
AcDbEntity
  8
0
 62
     0
100
AcDbLine
 10
-3725.960408250389
 20
2358.678462111938
 30
0.0
 11
-3700.772759313606
 21
2358.678462111938
 31
0.0
  0
LINE
  5
17AC21874A3A25
330
17AC21874A39E0
100
AcDbEntity
  8
0
 62
     0
100
AcDbLine
 10
-3725.960408250389
 20
2374.527318778853
 30
0.0
 11
-3700.772759313606
 21
2374.527318778853
 31
0.0
  0
LINE
  5
17AC21874A3A26
330
17AC21874A39E0
100
AcDbEntity
  8
0
 62
     0
100
AcDbLine
 10
-3757.208823703979
 20
2241.397137935558
 30
0.0
 11
-3725.939080995066
 21
2241.397137935558
 31
0.0
  0
TEXT
  5
17AC21874A3A27
330
17AC21874A39E0
100
AcDbEntity
  8
TESTO
 62
     0
100
AcDbText
 10
-4200.644458851739
 20
2515.159238520142
 30
0.0
 40
50.0
  1
AS 12T 3S CA
  7
ROMANC
100
AcDbText
  0
TEXT
  5
17AC21874A3A28
330
17AC21874A39E0
100
AcDbEntity
  8
TESTO
 62
     0
100
AcDbText
 10
-4196.675042638632
 20
2642.089246116578
 30
0.0
 40
50.0
  1
MODELLO
  7
ROMANC
100
AcDbText
  0
LINE
  5
17AC21874A3A29
330
17AC21874A39E0
100
AcDbEntity
  8
0
 62
     0
100
AcDbLine
 10
-4208.078885119108
 20
2489.512266515215
 30
0.0
 11
-3601.368803703921
 21
2489.512266515215
 31
0.0
  0
LINE
  5
17AC21874A3A2A
330
17AC21874A39E0
100
AcDbEntity
  8
0
 62
     0
100
AcDbLine
 10
-4208.078885119108
 20
2619.362236231821
 30
0.0
 11
-3819.70566605246
 21
2619.362236231821
 31
0.0
  0
LINE
  5
17AC21874A3A2B
330
17AC21874A39E0
100
AcDbEntity
  8
0
 62
     0
100
AcDbLine
 10
-4208.078885119108
 20
2507.342228536728
 30
0.0
 11
-3601.368803703921
 21
2507.342228536728
 31
0.0
  0
LINE
  5
17AC21874A3A2C
330
17AC21874A39E0
100
AcDbEntity
  8
0
 62
     0
100
AcDbLine
 10
-4208.078885119108
 20
2635.211092898736
 30
0.0
 11
-3819.70566605246
 21
2635.211092898736
 31
0.0
  0
LINE
  5
17AC21874A3A2D
330
17AC21874A39E0
100
AcDbEntity
  8
0
  6
Continuous
 62
     0
100
AcDbLine
 10
-3019.654757897097
 20
2137.700460518798
 30
0.0
 11
-3019.654757897097
 21
2618.505061820106
 31
0.0
  0
LINE
  5
17AC21874A3A2E
330
17AC21874A39E0
100
AcDbEntity
  8
SQUADRATURA
 62
     0
100
AcDbLine
 10
-3346.515302981352
 20
1711.814126014449
 30
0.0
 11
-3346.515302981352
 21
2733.349906385188
 31
0.0
  0
LINE
  5
17AC21874A3A2F
330
17AC21874A39E0
100
AcDbEntity
  8
0
 62
     0
100
AcDbLine
 10
-3458.116799819947
 20
1783.308946119822
 30
0.0
 11
-3406.436178858751
 21
1783.308946119822
 31
0.0
  0
LINE
  5
17AC21874A3A30
330
17AC21874A39E0
100
AcDbEntity
  8
0
 62
     0
100
AcDbLine
 10
-3458.116799819947
 20
1799.157795871668
 30
0.0
 11
-3406.436178858751
 21
1799.157795871668
 31
0.0
  0
LINE
  5
17AC21874A3A31
330
17AC21874A39E0
100
AcDbEntity
  8
0
 62
     0
100
AcDbLine
 10
-3413.476207949289
 20
2069.943914281997
 30
0.0
 11
-3392.211739053422
 21
2069.943914281997
 31
0.0
  0
LINE
  5
17AC21874A3A32
330
17AC21874A39E0
100
AcDbEntity
  8
0
 62
     0
100
AcDbLine
 10
-3413.476207949289
 20
2087.77387630351
 30
0.0
 11
-3393.305925029821
 21
2087.77387630351
 31
0.0
  0
LINE
  5
17AC21874A3A33
330
17AC21874A39E0
100
AcDbEntity
  8
0
  6
Continuous
 62
     0
100
AcDbLine
 10
-2989.654757897097
 20
2421.094285501236
 30
0.0
 11
-2989.654757897097
 21
2448.094285501236
 31
0.0
  0
LINE
  5
17AC21874A3A34
330
17AC21874A39E0
100
AcDbEntity
  8
0
  6
Continuous
 62
     0
100
AcDbLine
 10
-2992.654757897097
 20
2418.094285501235
 30
0.0
 11
-3016.654757897097
 21
2418.094285501235
 31
0.0
  0
ARC
  5
17AC21874A3A35
330
17AC21874A39E0
100
AcDbEntity
  8
0
  6
Continuous
 62
     0
100
AcDbCircle
 10
-3016.654757897097
 20
2421.094285501236
 30
0.0
 40
3.000000000000002
100
AcDbArc
 50
180.0
 51
270.0
  0
ARC
  5
17AC21874A3A36
330
17AC21874A39E0
100
AcDbEntity
  8
0
  6
Continuous
 62
     0
100
AcDbCircle
 10
-2992.654757897097
 20
2421.094285501236
 30
0.0
 40
3.000000000000002
100
AcDbArc
 50
270.0
 51
0.0
  0
LINE
  5
17AC21874A3A37
330
17AC21874A39E0
100
AcDbEntity
  8
0
  6
Continuous
 62
     0
100
AcDbLine
 10
-2850.136815586584
 20
2588.410984812724
 30
0.0
 11
-2823.136815586584
 21
2588.410984812724
 31
0.0
  0
LINE
  5
17AC21874A3A38
330
17AC21874A39E0
100
AcDbEntity
  8
0
  6
Continuous
 62
     0
100
AcDbLine
 10
-3019.719800663636
 20
2618.410984812724
 30
0.0
 11
-2822.797614448035
 21
2618.410984812724
 31
0.0
  0
TEXT
  5
17AC21874A3A39
330
17AC21874A39E0
100
AcDbEntity
  8
TESTO
 62
     0
100
AcDbText
 10
-2930.197081004321
 20
2779.316644890444
 30
0.0
 40
60.0
  1
canelli
  7
ROMANC
100
AcDbText
  0
LINE
  5
17AC21874A3A3A
330
17AC21874A39E0
100
AcDbEntity
  8
SQUADRATURA
 62
     0
100
AcDbLine
 10
-3346.515302981352
 20
2733.349906385188
 30
0.0
 11
-2685.834424306106
 21
2733.349906385188
 31
0.0
  0
LINE
  5
17AC21874A3A3B
330
17AC21874A39E0
100
AcDbEntity
  8
0
  6
Continuous
 62
     0
100
AcDbLine
 10
-2820.136815586584
 20
2591.410984812724
 30
0.0
 11
-2820.136815586584
 21
2615.410984812724
 31
0.0
  0
ARC
  5
17AC21874A3A3C
330
17AC21874A39E0
100
AcDbEntity
  8
0
  6
Continuous
 62
     0
100
AcDbCircle
 10
-2823.136815586584
 20
2591.410984812724
 30
0.0
 40
3.000000000000002
100
AcDbArc
 50
270.0
 51
0.0
  0
ARC
  5
17AC21874A3A3D
330
17AC21874A39E0
100
AcDbEntity
  8
0
  6
Continuous
 62
     0
100
AcDbCircle
 10
-2823.136815586584
 20
2615.410984812724
 30
0.0
 40
3.000000000000002
100
AcDbArc
 50
0.0
 51
90.0
  0
LINE
  5
17AC21874A3A3E
330
17AC21874A39E0
100
AcDbEntity
  8
0
 62
     0
100
AcDbLine
 10
-2707.838751639642
 20
2753.808888171539
 30
0.0
 11
-2600.918833883523
 21
2753.808888171539
 31
0.0
  0
LINE
  5
17AC21874A3A3F
330
17AC21874A39E0
100
AcDbEntity
  8
0
 62
     0
100
AcDbLine
 10
-2707.838751639642
 20
2767.676632568787
 30
0.0
 11
-2600.918833883523
 21
2767.676632568787
 31
0.0
  0
LINE
  5
17AC21874A3A40
330
17AC21874A39E0
100
AcDbEntity
  8
SQUADRATURA
 62
     0
100
AcDbLine
 10
-2685.834424306106
 20
2733.349906385188
 30
0.0
 11
-2581.677415331477
 21
2733.349906385188
 31
0.0
  0
LINE
  5
17AC21874A3A41
330
17AC21874A39E0
100
AcDbEntity
  8
SQUADRATURA
 62
     0
100
AcDbLine
 10
-2685.834424306106
 20
2907.323244364219
 30
0.0
 11
-2581.677415331477
 21
2907.323244364219
 31
0.0
  0
LINE
  5
17AC21874A3A42
330
17AC21874A39E0
100
AcDbEntity
  8
SQUADRATURA
 62
     0
100
AcDbLine
 10
-2581.610100534679
 20
2733.349906385188
 30
0.0
 11
-2581.610100534679
 21
2907.323244364219
 31
0.0
  0
LINE
  5
17AC21874A3A43
330
17AC21874A39E0
100
AcDbEntity
  8
0
  6
Continuous
 62
     0
100
AcDbLine
 10
-456.9788687956624
 20
2626.442688291924
 30
0.0
 11
-456.5412869439187
 21
673.8549543497711
 31
0.0
  0
LINE
  5
17AC21874A3A44
330
17AC21874A39E0
100
AcDbEntity
  8
0
 62
     0
100
AcDbLine
 10
-464.9788687956625
 20
2417.565076001065
 30
0.0
 11
-464.9449586958053
 21
752.288627092209
 31
0.0
  0
LINE
  5
17AC21874A3A45
330
17AC21874A39E0
100
AcDbEntity
  8
0
 62
     0
100
AcDbLine
 10
-495.0457389879884
 20
882.6055232191947
 30
0.0
 11
-495.0457389879884
 21
2418.781027093648
 31
0.0
  0
LINE
  5
17AC21874A3A46
330
17AC21874A39E0
100
AcDbEntity
  8
0
  6
Continuous
 62
     0
100
AcDbLine
 10
-465.2461216530846
 20
681.854954349771
 30
0.0
 11
-960.5549900169226
 21
682.0200219268581
 31
0.0
  0
MTEXT
  5
17AC21874A3A47
330
17AC21874A39E0
100
AcDbEntity
  8
0
 62
     0
100
AcDbMText
 10
-889.794068112209
 20
856.4494220290308
 30
0.0
 40
60.0
 41
495.31
 71
     1
 72
     5
  1
 Quadro \Pelettrico
 73
     1
 44
1.0
1001
ACAD
1000
MTEXTBEGIN
1070
    73
1070
     1
1070
    44
1040
1.0
1070
    74
1070
     0
1000
MTEXTEND
  0
LINE
  5
17AC21874A3A48
330
17AC21874A39E0
100
AcDbEntity
  8
0
 62
     0
100
AcDbLine
 10
-464.9476123446711
 20
882.6055232191947
 30
0.0
 11
-960.5549900169226
 21
882.6055232191947
 31
0.0
  0
LINE
  5
17AC21874A3A49
330
17AC21874A39E0
100
AcDbEntity
  8
0
 62
     0
100
AcDbLine
 10
-960.5549900169226
 20
882.6055232191947
 30
0.0
 11
-960.5549900169226
 21
682.0200219268581
 31
0.0
  0
LINE
  5
17AC21874A3A4A
330
17AC21874A39E0
100
AcDbEntity
  8
0
  6
Continuous
 62
     0
100
AcDbLine
 10
-464.9476123446711
 20
882.6055232191947
 30
0.0
 11
-464.9815224445283
 21
681.7995981622907
 31
0.0
  0
LINE
  5
17AC21874A3A4B
330
17AC21874A39E0
100
AcDbEntity
  8
0
  6
Continuous
 62
     0
100
AcDbLine
 10
-465.9051759719714
 20
2421.819448849176
 30
0.0
 11
-465.9051759719714
 21
2619.386325083813
 31
0.0
  0
LINE
  5
17AC21874A3A4C
330
17AC21874A39E0
100
AcDbEntity
  8
0
  6
Continuous
 62
     0
100
AcDbLine
 10
-495.9051759719714
 20
2422.089272844131
 30
0.0
 11
-495.9051759719714
 21
2446.089272844131
 31
0.0
  0
LINE
  5
17AC21874A3A4D
330
17AC21874A39E0
100
AcDbEntity
  8
0
  6
Continuous
 62
     0
100
AcDbLine
 10
-468.9051759719713
 20
2419.089272844131
 30
0.0
 11
-492.9051759719714
 21
2419.089272844131
 31
0.0
  0
ARC
  5
17AC21874A3A4E
330
17AC21874A39E0
100
AcDbEntity
  8
0
  6
Continuous
 62
     0
100
AcDbCircle
 10
-492.9051759719714
 20
2422.089272844131
 30
0.0
 40
3.000000000000002
100
AcDbArc
 50
180.0
 51
270.0
  0
ARC
  5
17AC21874A3A4F
330
17AC21874A39E0
100
AcDbEntity
  8
0
  6
Continuous
 62
     0
100
AcDbCircle
 10
-468.9051759719713
 20
2422.089272844131
 30
0.0
 40
3.000000000000002
100
AcDbArc
 50
270.0
 51
0.0
  0
LINE
  5
17AC21874A3A50
330
17AC21874A39E0
100
AcDbEntity
  8
0
  6
Continuous
 62
     0
100
AcDbLine
 10
-465.9051759719714
 20
2619.367497999735
 30
0.0
 11
-663.8091802395229
 21
2619.367497999735
 31
0.0
  0
LINE
  5
17AC21874A3A51
330
17AC21874A39E0
100
AcDbEntity
  8
0
  6
Continuous
 62
     0
100
AcDbLine
 10
-666.1270671826823
 20
2616.367497999735
 30
0.0
 11
-666.1270671826823
 21
2592.367497999735
 31
0.0
  0
LINE
  5
17AC21874A3A52
330
17AC21874A39E0
100
AcDbEntity
  8
0
  6
Continuous
 62
     0
100
AcDbLine
 10
-663.1270671826824
 20
2589.367497999735
 30
0.0
 11
-636.1270671826823
 21
2589.367497999735
 31
0.0
  0
ARC
  5
17AC21874A3A53
330
17AC21874A39E0
100
AcDbEntity
  8
0
  6
Continuous
 62
     0
100
AcDbCircle
 10
-663.1270671826824
 20
2592.367497999735
 30
0.0
 40
3.000000000000002
100
AcDbArc
 50
180.0
 51
270.0
  0
ARC
  5
17AC21874A3A54
330
17AC21874A39E0
100
AcDbEntity
  8
0
  6
Continuous
 62
     0
100
AcDbCircle
 10
-663.1270671826824
 20
2616.367497999735
 30
0.0
 40
3.000000000000002
100
AcDbArc
 50
90.0
 51
180.0
  0
ENDBLK
  5
17AC21874A3A56
330
17AC21874A39E0
100
AcDbEntity
  8
0
100
AcDbBlockEnd
  0
BLOCK
  5
17AC21874A3AE4
330
17AC21874A3ADA
100
AcDbEntity
  8
0
100
AcDbBlockBegin
  2
*D8
 70
     1
 10
0.0
 20
0.0
 30
0.0
  3
*D8
  1

  0
LINE
  5
17AC21874A3BB4
330
17AC21874A3ADA
100
AcDbEntity
  8
QUOTA
370
    -2
100
AcDbLine
 10
6101.553413653415
 20
3610.581704060406
 30
0.0
 11
6067.079165515223
 21
3610.581704060406
 31
0.0
  0
LINE
  5
17AC21874A3BB5
330
17AC21874A3ADA
100
AcDbEntity
  8
QUOTA
370
    -2
100
AcDbLine
 10
6275.708998057542
 20
3292.906236214797
 30
0.0
 11
6067.079165515223
 21
3292.906236214797
 31
0.0
  0
LINE
  5
17AC21874A3BB6
330
17AC21874A3ADA
100
AcDbEntity
  8
QUOTA
370
    -2
100
AcDbLine
 10
6087.079165515222
 20
3580.581704060405
 30
0.0
 11
6087.079165515222
 21
3322.906236214797
 31
0.0
  0
SOLID
  5
17AC21874A3BB7
330
17AC21874A3ADA
100
AcDbEntity
  8
QUOTA
100
AcDbTrace
 10
6082.079165515223
 20
3580.581704060405
 30
0.0
 11
6092.079165515222
 21
3580.581704060405
 31
0.0
 12
6087.079165515222
 22
3610.581704060406
 32
0.0
 13
6087.079165515222
 23
3610.581704060406
 33
0.0
  0
SOLID
  5
17AC21874A3BB8
330
17AC21874A3ADA
100
AcDbEntity
  8
QUOTA
100
AcDbTrace
 10
6082.079165515223
 20
3322.906236214797
 30
0.0
 11
6092.079165515222
 21
3322.906236214797
 31
0.0
 12
6087.079165515222
 22
3292.906236214797
 32
0.0
 13
6087.079165515222
 23
3292.906236214797
 33
0.0
  0
MTEXT
  5
17AC21874A3BB9
330
17AC21874A3ADA
100
AcDbEntity
  8
QUOTA
 62
   254
100
AcDbMText
 10
6062.079165515221
 20
3451.743970137602
 30
0.0
 40
30.0
 41
0.0
 71
     5
 72
     1
  1
\A1;320 mm
 11
0.0000000000000001
 21
1.0
 31
0.0
 73
     1
 44
1.0
1001
ACAD
1000
MTEXTBEGIN
1070
    73
1070
     1
1070
    44
1040
1.0
1070
    74
1070
     0
1000
MTEXTEND
  0
POINT
  5
17AC21874A3BBA
330
17AC21874A3ADA
100
AcDbEntity
  8
DEFPOINTS
 62
     0
100
AcDbPoint
 10
6121.553413653415
 20
3610.581704060406
 30
0.0
  0
POINT
  5
17AC21874A3BBB
330
17AC21874A3ADA
100
AcDbEntity
  8
DEFPOINTS
 62
     0
100
AcDbPoint
 10
6295.708998057541
 20
3292.906236214797
 30
0.0
  0
POINT
  5
17AC21874A3BBC
330
17AC21874A3ADA
100
AcDbEntity
  8
DEFPOINTS
 62
     0
100
AcDbPoint
 10
6087.079165515222
 20
3292.906236214797
 30
0.0
  0
ENDBLK
  5
17AC21874A3AE5
330
17AC21874A3ADA
100
AcDbEntity
  8
0
100
AcDbBlockEnd
  0
BLOCK
  5
17AC21874A3AFA
330
17AC21874A3AF0
100
AcDbEntity
  8
0
100
AcDbBlockBegin
  2
*D9
 70
     1
 10
0.0
 20
0.0
 30
0.0
  3
*D9
  1

  0
LINE
  5
17AC21874A3BAA
330
17AC21874A3AF0
100
AcDbEntity
  8
QUOTA
370
    -2
100
AcDbLine
 10
6101.553413653415
 20
3610.581704060406
 30
0.0
 11
6067.079165515223
 21
3610.581704060406
 31
0.0
  0
LINE
  5
17AC21874A3BAB
330
17AC21874A3AF0
100
AcDbEntity
  8
QUOTA
370
    -2
100
AcDbLine
 10
6275.716140243514
 20
5295.788189190711
 30
0.0
 11
6067.079165515223
 21
5295.788189190712
 31
0.0
  0
LINE
  5
17AC21874A3BAC
330
17AC21874A3AF0
100
AcDbEntity
  8
QUOTA
370
    -2
100
AcDbLine
 10
6087.079165515222
 20
3640.581704060406
 30
0.0
 11
6087.079165515222
 21
5265.788189190711
 31
0.0
  0
SOLID
  5
17AC21874A3BAD
330
17AC21874A3AF0
100
AcDbEntity
  8
QUOTA
100
AcDbTrace
 10
6082.079165515223
 20
3640.581704060406
 30
0.0
 11
6092.079165515222
 21
3640.581704060406
 31
0.0
 12
6087.079165515222
 22
3610.581704060406
 32
0.0
 13
6087.079165515222
 23
3610.581704060406
 33
0.0
  0
SOLID
  5
17AC21874A3BAE
330
17AC21874A3AF0
100
AcDbEntity
  8
QUOTA
100
AcDbTrace
 10
6082.079165515223
 20
5265.788189190711
 30
0.0
 11
6092.079165515222
 21
5265.788189190711
 31
0.0
 12
6087.079165515222
 22
5295.788189190712
 32
0.0
 13
6087.079165515222
 23
5295.788189190712
 33
0.0
  0
MTEXT
  5
17AC21874A3BAF
330
17AC21874A3AF0
100
AcDbEntity
  8
QUOTA
 62
   254
100
AcDbMText
 10
6062.079165515221
 20
4453.18494662556
 30
0.0
 40
30.0
 41
0.0
 71
     5
 72
     1
  1
\A1;1680 mm
 11
0.0000000000000001
 21
1.0
 31
0.0
 73
     1
 44
1.0
1001
ACAD
1000
MTEXTBEGIN
1070
    73
1070
     1
1070
    44
1040
1.0
1070
    74
1070
     0
1000
MTEXTEND
  0
POINT
  5
17AC21874A3BB0
330
17AC21874A3AF0
100
AcDbEntity
  8
DEFPOINTS
 62
     0
100
AcDbPoint
 10
6121.553413653415
 20
3610.581704060406
 30
0.0
  0
POINT
  5
17AC21874A3BB1
330
17AC21874A3AF0
100
AcDbEntity
  8
DEFPOINTS
 62
     0
100
AcDbPoint
 10
6295.716140243514
 20
5295.788189190711
 30
0.0
  0
POINT
  5
17AC21874A3BB2
330
17AC21874A3AF0
100
AcDbEntity
  8
DEFPOINTS
 62
     0
100
AcDbPoint
 10
6087.079165515222
 20
5295.788189190712
 30
0.0
  0
ENDBLK
  5
17AC21874A3AFB
330
17AC21874A3AF0
100
AcDbEntity
  8
0
100
AcDbBlockEnd
  0
BLOCK
  5
17AC21874A3B10
330
17AC21874A3B06
100
AcDbEntity
  8
0
100
AcDbBlockBegin
  2
*D10
 70
     1
 10
0.0
 20
0.0
 30
0.0
  3
*D10
  1

  0
LINE
  5
17AC21874A3BC6
330
17AC21874A3B06
100
AcDbEntity
  8
QUOTA
370
    -2
100
AcDbLine
 10
6295.708998057541
 20
3272.906236214796
 30
0.0
 11
6295.708998057541
 21
3089.018675081316
 31
0.0
  0
LINE
  5
17AC21874A3BC7
330
17AC21874A3B06
100
AcDbEntity
  8
QUOTA
370
    -2
100
AcDbLine
 10
9225.889260365214
 20
3272.937450512564
 30
0.0
 11
9225.889260365214
 21
3089.018675081316
 31
0.0
  0
LINE
  5
17AC21874A3BC8
330
17AC21874A3B06
100
AcDbEntity
  8
QUOTA
370
    -2
100
AcDbLine
 10
6325.708998057542
 20
3109.018675081316
 30
0.0
 11
9195.889260365214
 21
3109.018675081316
 31
0.0
  0
SOLID
  5
17AC21874A3BC9
330
17AC21874A3B06
100
AcDbEntity
  8
QUOTA
100
AcDbTrace
 10
6325.708998057542
 20
3114.018675081315
 30
0.0
 11
6325.708998057542
 21
3104.018675081316
 31
0.0
 12
6295.708998057541
 22
3109.018675081316
 32
0.0
 13
6295.708998057541
 23
3109.018675081316
 33
0.0
  0
SOLID
  5
17AC21874A3BCA
330
17AC21874A3B06
100
AcDbEntity
  8
QUOTA
100
AcDbTrace
 10
9195.889260365214
 20
3114.018675081315
 30
0.0
 11
9195.889260365214
 21
3104.018675081316
 31
0.0
 12
9225.889260365214
 22
3109.018675081316
 32
0.0
 13
9225.889260365214
 23
3109.018675081316
 33
0.0
  0
MTEXT
  5
17AC21874A3BCB
330
17AC21874A3B06
100
AcDbEntity
  8
QUOTA
 62
   254
100
AcDbMText
 10
7760.799129211378
 20
3134.018675081316
 30
0.0
 40
30.0
 41
0.0
 71
     5
 72
     1
  1
\A1;3000 mm
 73
     1
 44
1.0
1001
ACAD
1000
MTEXTBEGIN
1070
    73
1070
     1
1070
    44
1040
1.0
1070
    74
1070
     0
1000
MTEXTEND
  0
POINT
  5
17AC21874A3BCC
330
17AC21874A3B06
100
AcDbEntity
  8
DEFPOINTS
 62
     0
100
AcDbPoint
 10
6295.708998057541
 20
3292.906236214797
 30
0.0
  0
POINT
  5
17AC21874A3BCD
330
17AC21874A3B06
100
AcDbEntity
  8
DEFPOINTS
 62
     0
100
AcDbPoint
 10
9225.889260365214
 20
3292.937450512564
 30
0.0
  0
POINT
  5
17AC21874A3BCE
330
17AC21874A3B06
100
AcDbEntity
  8
DEFPOINTS
 62
     0
100
AcDbPoint
 10
9225.889260365214
 20
3109.018675081316
 30
0.0
  0
ENDBLK
  5
17AC21874A3B11
330
17AC21874A3B06
100
AcDbEntity
  8
0
100
AcDbBlockEnd
  0
BLOCK
  5
17AC21874A3B26
330
17AC21874A3B1C
100
AcDbEntity
  8
0
100
AcDbBlockBegin
  2
*D11
 70
     1
 10
0.0
 20
0.0
 30
0.0
  3
*D11
  1

  0
LINE
  5
17AC21874A3BBD
330
17AC21874A3B1C
100
AcDbEntity
  8
QUOTA
370
    -2
100
AcDbLine
 10
6132.449230048324
 20
3530.068520110412
 30
0.0
 11
6132.449230048324
 21
2922.022704908677
 31
0.0
  0
LINE
  5
17AC21874A3BBE
330
17AC21874A3B1C
100
AcDbEntity
  8
QUOTA
370
    -2
100
AcDbLine
 10
9631.26621160959
 20
3530.581704060406
 30
0.0
 11
9631.26621160959
 21
2922.022704908677
 31
0.0
  0
LINE
  5
17AC21874A3BBF
330
17AC21874A3B1C
100
AcDbEntity
  8
QUOTA
370
    -2
100
AcDbLine
 10
6162.449230048324
 20
2942.022704908677
 30
0.0
 11
9601.266211609591
 21
2942.022704908677
 31
0.0
  0
SOLID
  5
17AC21874A3BC0
330
17AC21874A3B1C
100
AcDbEntity
  8
QUOTA
100
AcDbTrace
 10
6162.449230048324
 20
2947.022704908677
 30
0.0
 11
6162.449230048324
 21
2937.022704908677
 31
0.0
 12
6132.449230048324
 22
2942.022704908677
 32
0.0
 13
6132.449230048324
 23
2942.022704908677
 33
0.0
  0
SOLID
  5
17AC21874A3BC1
330
17AC21874A3B1C
100
AcDbEntity
  8
QUOTA
100
AcDbTrace
 10
9601.266211609591
 20
2947.022704908677
 30
0.0
 11
9601.266211609591
 21
2937.022704908677
 31
0.0
 12
9631.26621160959
 22
2942.022704908677
 32
0.0
 13
9631.26621160959
 23
2942.022704908677
 33
0.0
  0
MTEXT
  5
17AC21874A3BC2
330
17AC21874A3B1C
100
AcDbEntity
  8
QUOTA
 62
   254
100
AcDbMText
 10
7881.857720828957
 20
2967.022704908677
 30
0.0
 40
30.0
 41
0.0
 71
     5
 72
     1
  1
\A1;3500 mm
 73
     1
 44
1.0
1001
ACAD
1000
MTEXTBEGIN
1070
    73
1070
     1
1070
    44
1040
1.0
1070
    74
1070
     0
1000
MTEXTEND
  0
POINT
  5
17AC21874A3BC3
330
17AC21874A3B1C
100
AcDbEntity
  8
DEFPOINTS
 62
     0
100
AcDbPoint
 10
6132.449230048324
 20
3550.068520110412
 30
0.0
  0
POINT
  5
17AC21874A3BC4
330
17AC21874A3B1C
100
AcDbEntity
  8
DEFPOINTS
 62
     0
100
AcDbPoint
 10
9631.26621160959
 20
3550.581704060406
 30
0.0
  0
POINT
  5
17AC21874A3BC5
330
17AC21874A3B1C
100
AcDbEntity
  8
DEFPOINTS
 62
     0
100
AcDbPoint
 10
9631.26621160959
 20
2942.022704908677
 30
0.0
  0
ENDBLK
  5
17AC21874A3B27
330
17AC21874A3B1C
100
AcDbEntity
  8
0
100
AcDbBlockEnd
  0
BLOCK
  5
17AC21874A3B3C
330
17AC21874A3B32
100
AcDbEntity
  8
0
100
AcDbBlockBegin
  2
*D12
 70
     1
 10
0.0
 20
0.0
 30
0.0
  3
*D12
  1

  0
LINE
  5
17AC21874A3B98
330
17AC21874A3B32
100
AcDbEntity
  8
QUOTA
370
    -2
100
AcDbLine
 10
9245.889260365215
 20
3292.937450512564
 30
0.0
 11
9739.927747305067
 21
3292.937450512564
 31
0.0
  0
LINE
  5
17AC21874A3B99
330
17AC21874A3B32
100
AcDbEntity
  8
QUOTA
370
    -2
100
AcDbLine
 10
9245.456167050576
 20
5295.525184253248
 30
0.0
 11
9739.927747305069
 21
5295.525184253248
 31
0.0
  0
LINE
  5
17AC21874A3B9A
330
17AC21874A3B32
100
AcDbEntity
  8
QUOTA
370
    -2
100
AcDbLine
 10
9719.927747305066
 20
3322.937450512564
 30
0.0
 11
9719.927747305069
 21
5265.525184253248
 31
0.0
  0
SOLID
  5
17AC21874A3B9B
330
17AC21874A3B32
100
AcDbEntity
  8
QUOTA
100
AcDbTrace
 10
9714.927747305067
 20
3322.937450512564
 30
0.0
 11
9724.927747305066
 21
3322.937450512564
 31
0.0
 12
9719.927747305066
 22
3292.937450512564
 32
0.0
 13
9719.927747305066
 23
3292.937450512564
 33
0.0
  0
SOLID
  5
17AC21874A3B9C
330
17AC21874A3B32
100
AcDbEntity
  8
QUOTA
100
AcDbTrace
 10
9714.927747305068
 20
5265.525184253248
 30
0.0
 11
9724.927747305068
 21
5265.525184253248
 31
0.0
 12
9719.927747305069
 22
5295.525184253248
 32
0.0
 13
9719.927747305069
 23
5295.525184253248
 33
0.0
  0
MTEXT
  5
17AC21874A3B9D
330
17AC21874A3B32
100
AcDbEntity
  8
QUOTA
 62
   254
100
AcDbMText
 10
9694.927747305065
 20
4294.231317382907
 30
0.0
 40
30.0
 41
0.0
 71
     5
 72
     1
  1
\A1;2000 mm
 11
0.0000000000000001
 21
1.0
 31
0.0
 73
     1
 44
1.0
1001
ACAD
1000
MTEXTBEGIN
1070
    73
1070
     1
1070
    44
1040
1.0
1070
    74
1070
     0
1000
MTEXTEND
  0
POINT
  5
17AC21874A3B9E
330
17AC21874A3B32
100
AcDbEntity
  8
DEFPOINTS
 62
     0
100
AcDbPoint
 10
9225.889260365214
 20
3292.937450512564
 30
0.0
  0
POINT
  5
17AC21874A3B9F
330
17AC21874A3B32
100
AcDbEntity
  8
DEFPOINTS
 62
     0
100
AcDbPoint
 10
9225.456167050579
 20
5295.525184253248
 30
0.0
  0
POINT
  5
17AC21874A3BA0
330
17AC21874A3B32
100
AcDbEntity
  8
DEFPOINTS
 62
     0
100
AcDbPoint
 10
9719.927747305069
 20
5295.525184253248
 30
0.0
  0
ENDBLK
  5
17AC21874A3B3D
330
17AC21874A3B32
100
AcDbEntity
  8
0
100
AcDbBlockEnd
  0
BLOCK
  5
17AC21874A3C78
330
17AC21874A3C76
100
AcDbEntity
  8
0
100
AcDbBlockBegin
  2
GENAXEH
 70
     0
 10
0.0
 20
0.0
 30
0.0
  3
GENAXEH
  1

  0
LINE
  5
17AC21874A3C77
330
17AC21874A3C76
100
AcDbEntity
  8
0
100
AcDbLine
 10
-1.0
 20
0.0
 30
0.0
 11
1.0
 21
0.0
 31
0.0
  0
ENDBLK
  5
17AC21874A3C79
330
17AC21874A3C76
100
AcDbEntity
  8
0
100
AcDbBlockEnd
  0
ENDSEC
  0
SECTION
  2
ENTITIES
  0
INSERT
  5
151
330
17AC21874A2FC9
100
AcDbEntity
  8
LINEAFIN
100
AcDbBlockReference
  2
AVE_RENDER
 10
0.0
 20
0.0
 30
0.0
1001
AVE_RENDER
1002
{
1070
     2
1000
Pref
1070
    30
1070
    20
1070
     0
1070
     0
1000

1070
    10
1070
     0
1070
    30
1040
1.0
1070
     1
1040
0.3
1040
0.7
1040
0.0
1040
10.0
1010
-1.0
1020
-1.0
1030
-1.0
1040
0.3
1070
    49
1002
}
  0
INSERT
  5
152
330
17AC21874A2FC9
100
AcDbEntity
  8
LINEAFIN
100
AcDbBlockReference
  2
AVE_RENDER
 10
0.0
 20
0.0
 30
0.0
1001
AVE_RENDER
1002
{
1070
     0
1000
Full Opt
1070
     0
1070
     1
1070
     1
1070
     1
1070
     0
1070
     0
1070
     0
1070
     1
1070
     1
1040
0.0001
1040
0.0001
1002
}
  0
INSERT
  5
153
330
17AC21874A2FC9
100
AcDbEntity
  8
LINEAFIN
100
AcDbBlockReference
  2
AVE_RENDER
 10
0.0
 20
0.0
 30
0.0
1001
AVE_RENDER
1002
{
1070
     0
1000
Quick Opt
1070
     0
1070
     1
1070
     1
1070
     1
1070
     0
1070
     0
1070
     1
1002
}
  0
INSERT
  5
D132099FA66
330
17AC21874A2FC9
100
AcDbEntity
  8
BOLLINI
100
AcDbBlockReference
  2
SCALA1
 10
228.4815022492328
 20
131.7646532168282
 30
0.0
  0
LINE
  5
17AC21874A3697
330
17AC21874A2FC9
100
AcDbEntity
  8
0
100
AcDbLine
 10
8118.791237836679
 20
3669.994152067165
 30
0.0
 11
7923.378209422032
 21
3670.076762986846
 31
0.0
  0
LINE
  5
17AC21874A3698
330
17AC21874A2FC9
100
AcDbEntity
  8
0
100
AcDbLine
 10
7923.378378859727
 20
3550.581704060406
 30
0.0
 11
8118.791202458602
 21
3550.581704060405
 31
0.0
  0
LINE
  5
17AC21874A3699
330
17AC21874A2FC9
100
AcDbEntity
  8
ASSE
100
AcDbLine
 10
7920.80046842939
 20
3610.581704060406
 30
0.0
 11
8117.847810206699
 21
3610.581704060406
 31
0.0
  0
CIRCLE
  5
17AC21874A369E
330
17AC21874A2FC9
100
AcDbEntity
  8
0
100
AcDbCircle
 10
8117.815066887372
 20
4213.248754227566
 30
0.0
 40
442.5963020646904
  0
LINE
  5
17AC21874A369F
330
17AC21874A2FC9
100
AcDbEntity
  8
ASSE
100
AcDbLine
 10
7696.315066887371
 20
4213.248754227566
 30
0.0
 11
8490.80903158414
 21
4213.248754227566
 31
0.0
  0
CIRCLE
  5
17AC21874A36A0
330
17AC21874A2FC9
100
AcDbEntity
  8
ASSE
100
AcDbCircle
 10
8117.815066887372
 20
4213.248754227566
 30
0.0
 40
400.0
  0
ARC
  5
17AC21874A36AE
330
17AC21874A2FC9
100
AcDbEntity
  8
0
100
AcDbCircle
 10
7244.658437996356
 20
4267.094782481692
 30
0.0
 40
363.460861551727
100
AcDbArc
 50
125.5791304990307
 51
174.4148141068126
  0
CIRCLE
  5
17AC21874A36AF
330
17AC21874A2FC9
100
AcDbEntity
  8
0
100
AcDbCircle
 10
7066.193450379845
 20
4266.748754227566
 30
0.0
 40
12.5
  0
LINE
  5
17AC21874A36B0
330
17AC21874A2FC9
100
AcDbEntity
  8
0
100
AcDbLine
 10
7101.599096138135
 20
4266.736744133775
 30
0.0
 11
7101.599096138135
 21
4292.468820018465
 31
0.0
  0
LINE
  5
17AC21874A36B1
330
17AC21874A2FC9
100
AcDbEntity
  8
0
100
AcDbLine
 10
6860.599096138135
 20
4292.468820018465
 30
0.0
 11
6860.599096138135
 21
4242.315931506083
 31
0.0
  0
CIRCLE
  5
17AC21874A36B2
330
17AC21874A2FC9
100
AcDbEntity
  8
0
100
AcDbCircle
 10
6945.903710953349
 20
4266.786626683615
 30
0.0
 40
30.0
  0
CIRCLE
  5
17AC21874A36B3
330
17AC21874A2FC9
100
AcDbEntity
  8
0
100
AcDbCircle
 10
7066.193450379845
 20
4266.748754227566
 30
0.0
 40
34.0
  0
LINE
  5
17AC21874A36B4
330
17AC21874A2FC9
100
AcDbEntity
  8
ASSE
100
AcDbLine
 10
7244.815066887372
 20
4683.441912374206
 30
0.0
 11
7244.815066887372
 21
3800.503326587181
 31
0.0
  0
ARC
  5
17AC21874A36B5
330
17AC21874A2FC9
100
AcDbEntity
  8
0
100
AcDbCircle
 10
7246.193450379845
 20
4263.3052927168
 30
0.0
 40
140.0
100
AcDbArc
 50
90.59465486375167
 51
269.5049812457956
  0
ARC
  5
17AC21874A36B6
330
17AC21874A2FC9
100
AcDbEntity
  8
ASSE
100
AcDbCircle
 10
7246.193450379845
 20
4266.748754227566
 30
0.0
 40
180.0
100
AcDbArc
 50
90.43820411405285
 51
269.6171789120712
  0
ARC
  5
17AC21874A36B7
330
17AC21874A2FC9
100
AcDbEntity
  8
ASSE
100
AcDbCircle
 10
7245.604671820648
 20
4267.418025719045
 30
0.0
 40
299.3676279823858
100
AcDbArc
 50
90.15866409210643
 51
229.5855948530163
  0
LINE
  5
17AC21874A36B8
330
17AC21874A2FC9
100
AcDbEntity
  8
ASSE
100
AcDbLine
 39
0.1234
 10
7243.395022160875
 20
4267.502974866325
 30
0.0
 11
7045.243767476185
 21
4610.711015563729
 31
0.0
  0
LINE
  5
17AC21874A36B9
330
17AC21874A2FC9
100
AcDbEntity
  8
ASSE
100
AcDbLine
 39
0.1234
 10
7246.28563609148
 20
4267.502974866325
 30
0.0
 11
7444.43689077617
 21
4610.711015563729
 31
0.0
  0
LINE
  5
17AC21874A36BA
330
17AC21874A2FC9
100
AcDbEntity
  8
0
100
AcDbLine
 10
7388.081562114222
 20
4266.736744133775
 30
0.0
 11
7388.081562114222
 21
4292.468820018465
 31
0.0
  0
CIRCLE
  5
17AC21874A36BB
330
17AC21874A2FC9
100
AcDbEntity
  8
0
100
AcDbCircle
 10
7423.487207872511
 20
4266.748754227566
 30
0.0
 40
12.5
  0
CIRCLE
  5
17AC21874A36BC
330
17AC21874A2FC9
100
AcDbEntity
  8
0
100
AcDbCircle
 10
7423.487207872511
 20
4266.748754227566
 30
0.0
 40
34.0
  0
CIRCLE
  5
17AC21874A36BD
330
17AC21874A2FC9
100
AcDbEntity
  8
0
100
AcDbCircle
 10
7543.776947299007
 20
4266.786626683615
 30
0.0
 40
30.0
  0
LINE
  5
17AC21874A36BE
330
17AC21874A2FC9
100
AcDbEntity
  8
0
100
AcDbLine
 10
7629.081562114222
 20
4292.468820018465
 30
0.0
 11
7629.081562114222
 21
4242.315931506083
 31
0.0
  0
ARC
  5
17AC21874A36BF
330
17AC21874A2FC9
100
AcDbEntity
  8
ASSE
100
AcDbCircle
 10
7243.487207872512
 20
4266.748754227566
 30
0.0
 40
180.0
100
AcDbArc
 50
270.3828210879288
 51
89.56179588594714
  0
ARC
  5
17AC21874A36C0
330
17AC21874A2FC9
100
AcDbEntity
  8
0
100
AcDbCircle
 10
7243.487207872512
 20
4263.3052927168
 30
0.0
 40
140.0
100
AcDbArc
 50
270.4950187542043
 51
89.40534513624832
  0
LINE
  5
17AC21874A36C2
330
17AC21874A2FC9
100
AcDbEntity
  8
ASSE
100
AcDbLine
 39
0.1234
 10
7033.956206707455
 20
3806.751763951137
 30
0.0
 11
7099.358909666555
 21
4014.046635866068
 31
0.0
  0
LINE
  5
17AC21874A36C3
330
17AC21874A2FC9
100
AcDbEntity
  8
ASSE
100
AcDbLine
 39
0.1234
 10
7179.361263479664
 20
3647.408609095889
 30
0.0
 11
7033.144672784317
 21
3807.036302308607
 31
0.0
  0
LINE
  5
17AC21874A36C4
330
17AC21874A2FC9
100
AcDbEntity
  8
ASSE
100
AcDbLine
 39
0.1234
 10
7616.8646475239
 20
3698.31141095462
 30
0.0
 11
7597.56470499505
 21
3913.921716954513
 31
0.0
  0
LINE
  5
17AC21874A36C5
330
17AC21874A2FC9
100
AcDbEntity
  8
ASSE
100
AcDbLine
 39
0.1234
 10
7598.036902239243
 20
3913.202982547479
 30
0.0
 11
7775.843228111195
 21
4038.237329654588
 31
0.0
  0
ARC
  5
17AC21874A36CB
330
17AC21874A2FC9
100
AcDbEntity
  8
0
100
AcDbCircle
 10
6740.846084301766
 20
3400.845255278297
 30
0.0
 40
83.07217110933803
100
AcDbArc
 50
61.18683045304436
 51
118.8131695469594
  0
LINE
  5
17AC21874A36CE
330
17AC21874A2FC9
100
AcDbEntity
  8
0
100
AcDbLine
 10
6476.486914565606
 20
3670.581704060406
 30
0.0
 11
6332.773908526322
 21
3670.581704060406
 31
0.0
  0
LINE
  5
17AC21874A36CF
330
17AC21874A2FC9
100
AcDbEntity
  8
0
100
AcDbLine
 10
6366.149346147373
 20
3565.233603452448
 30
0.0
 11
6466.947074944915
 21
3565.233603452448
 31
0.0
  0
LINE
  5
17AC21874A36D0
330
17AC21874A2FC9
100
AcDbEntity
  8
0
100
AcDbLine
 10
6466.947074944915
 20
3454.729083099815
 30
0.0
 11
6366.149346147373
 21
3454.729083099815
 31
0.0
  0
LINE
  5
17AC21874A36D1
330
17AC21874A2FC9
100
AcDbEntity
  8
0
100
AcDbLine
 10
6366.149346147373
 20
3454.729083099815
 30
0.0
 11
6366.149346147373
 21
3565.233603452448
 31
0.0
  0
LINE
  5
17AC21874A36D2
330
17AC21874A2FC9
100
AcDbEntity
  8
0
100
AcDbLine
 10
6132.449230048324
 20
3669.648933017548
 30
0.0
 11
6132.449230048324
 21
3550.068520110412
 31
0.0
  0
LINE
  5
17AC21874A36D3
330
17AC21874A2FC9
100
AcDbEntity
  8
0
100
AcDbLine
 10
6366.615521192775
 20
3550.581704060406
 30
0.0
 11
6332.773370111863
 21
3550.581704060406
 31
0.0
  0
LINE
  5
17AC21874A36D4
330
17AC21874A2FC9
100
AcDbEntity
  8
0
100
AcDbLine
 10
6466.947074944915
 20
3564.255687913274
 30
0.0
 11
6466.947074944915
 21
3454.729083099815
 31
0.0
  0
LINE
  5
17AC21874A36D5
330
17AC21874A2FC9
100
AcDbEntity
  8
0
100
AcDbLine
 10
6540.958825371989
 20
3573.77820652221
 30
0.0
 11
6470.434837068366
 21
3490.091095547117
 31
0.0
  0
LINE
  5
17AC21874A36D6
330
17AC21874A2FC9
100
AcDbEntity
  8
0
100
AcDbLine
 10
6621.032935479385
 20
3573.044109057516
 30
0.0
 11
6540.958825371989
 21
3473.940951323853
 31
0.0
  0
LINE
  5
17AC21874A36D8
330
17AC21874A2FC9
100
AcDbEntity
  8
0
100
AcDbLine
 10
6470.422326232908
 20
3473.639937622909
 30
0.0
 11
6470.422326232908
 21
3573.697425283093
 31
0.0
  0
ARC
  5
17AC21874A36D9
330
17AC21874A2FC9
100
AcDbEntity
  8
0
100
AcDbCircle
 10
6580.846855672231
 20
3400.994162302849
 30
0.0
 40
83.07217110933803
100
AcDbArc
 50
61.18683045304436
 51
118.8131695469594
  0
LINE
  5
17AC21874A36DA
330
17AC21874A2FC9
100
AcDbEntity
  8
0
100
AcDbLine
 10
6541.17143357802
 20
3473.639937622909
 30
0.0
 11
6470.422326232908
 21
3473.639937622909
 31
0.0
  0
LINE
  5
17AC21874A36DC
330
17AC21874A2FC9
100
AcDbEntity
  8
0
100
AcDbLine
 10
6700.920607095972
 20
3473.639937622909
 30
0.0
 11
6621.038585130623
 21
3473.639937622909
 31
0.0
  0
LINE
  5
17AC21874A36DD
330
17AC21874A2FC9
100
AcDbEntity
  8
0
100
AcDbLine
 10
6470.096127496308
 20
3573.639937622909
 30
0.0
 11
6621.328672062016
 21
3573.639937622909
 31
0.0
  0
ARC
  5
17AC21874A36DE
330
17AC21874A2FC9
100
AcDbEntity
  8
0
100
AcDbCircle
 10
6660.335358975216
 20
3646.56570431851
 30
0.0
 40
83.07217110933803
100
AcDbArc
 50
241.1868304530405
 51
247.0930369797106
  0
ARC
  5
17AC21874A36E2
330
17AC21874A2FC9
100
AcDbEntity
  8
0
100
AcDbCircle
 10
7393.947626452692
 20
4007.687902775386
 30
0.0
 40
55.0
100
AcDbArc
 50
250.19527081676
 51
260.7628283241809
  0
ARC
  5
17AC21874A36E3
330
17AC21874A2FC9
100
AcDbEntity
  8
0
100
AcDbCircle
 10
7245.022220255998
 20
4267.094782481692
 30
0.0
 40
363.4608615517271
100
AcDbArc
 50
290.4538626934876
 51
294.4365429116271
  0
LINE
  5
17AC21874A36E4
330
17AC21874A2FC9
100
AcDbEntity
  8
0
100
AcDbLine
 10
7923.378378859727
 20
3472.120494698823
 30
0.0
 11
7033.997135516329
 21
3472.120494698823
 31
0.0
  0
ARC
  5
17AC21874A36E5
330
17AC21874A2FC9
100
AcDbEntity
  8
0
100
AcDbCircle
 10
7597.653194048167
 20
3912.933156921673
 30
0.0
 40
226.7922906098605
100
AcDbArc
 50
166.372877831298
 51
352.4025269741017
  0
ARC
  5
17AC21874A36E6
330
17AC21874A2FC9
100
AcDbEntity
  8
0
100
AcDbCircle
 10
7597.653194048167
 20
3912.933156921673
 30
0.0
 40
202.5
100
AcDbArc
 50
173.3985034545917
 51
263.8362601111093
  0
LINE
  5
17AC21874A36E7
330
17AC21874A2FC9
100
AcDbEntity
  8
ASSE
100
AcDbLine
 10
6851.388732270246
 20
4266.748754227566
 30
0.0
 11
7655.834704883211
 21
4266.748754227566
 31
0.0
  0
CIRCLE
  5
17AC21874A36E8
330
17AC21874A2FC9
100
AcDbEntity
  8
0
100
AcDbCircle
 10
7394.125346928095
 20
4007.455957327457
 30
0.0
 40
30.0
  0
LINE
  5
17AC21874A36E9
330
17AC21874A2FC9
100
AcDbEntity
  8
0
100
AcDbLine
 10
7352.146899665666
 20
4151.463506264184
 30
0.0
 11
7462.690010209243
 21
3960.096788386309
 31
0.0
  0
LINE
  5
17AC21874A36EA
330
17AC21874A2FC9
100
AcDbEntity
  8
0
100
AcDbLine
 10
7401.943729556453
 20
3925.0066593828
 30
0.0
 11
7291.349776441127
 21
4116.461393384303
 31
0.0
  0
LINE
  5
17AC21874A36EB
330
17AC21874A2FC9
100
AcDbEntity
  8
ASSE
100
AcDbLine
 10
7441.368479095416
 20
3925.595288549273
 30
0.0
 11
7244.545443191121
 21
4266.325508628581
 31
0.0
  0
ARC
  5
17AC21874A36EC
330
17AC21874A2FC9
100
AcDbEntity
  8
0
100
AcDbCircle
 10
7033.81506688737
 20
3806.304419122813
 30
0.0
 40
40.0
100
AcDbArc
 50
315.613746771276
 51
332.1213249992522
  0
ARC
  5
17AC21874A36F0
330
17AC21874A2FC9
100
AcDbEntity
  8
0
100
AcDbCircle
 10
7033.81506688737
 20
3806.304419122817
 30
0.0
 40
202.5
100
AcDbArc
 50
323.8380241587128
 51
63.63983008290138
  0
LINE
  5
17AC21874A36F2
330
17AC21874A2FC9
100
AcDbEntity
  8
0
100
AcDbLine
 10
7033.997135516329
 20
3472.120494698823
 30
0.0
 11
7033.997135516329
 21
3521.600385048951
 31
0.0
  0
ARC
  5
17AC21874A36F9
330
17AC21874A2FC9
100
AcDbEntity
  8
0
100
AcDbCircle
 10
6900.559137642439
 20
3400.945562375117
 30
0.0
 40
83.07217110933803
100
AcDbArc
 50
61.18683045304436
 51
118.8131695469594
  0
LINE
  5
17AC21874A36FA
330
17AC21874A2FC9
100
AcDbEntity
  8
0
100
AcDbLine
 10
6860.571691170143
 20
3473.639937622909
 30
0.0
 11
6780.638744951182
 21
3473.639937622909
 31
0.0
  0
LINE
  5
17AC21874A36FB
330
17AC21874A2FC9
100
AcDbEntity
  8
0
100
AcDbLine
 10
7020.422326232908
 20
3473.639937622909
 30
0.0
 11
6940.593826697377
 21
3473.639937622909
 31
0.0
  0
LINE
  5
17AC21874A3702
330
17AC21874A2FC9
100
AcDbEntity
  8
ASSE
100
AcDbLine
 10
7221.355005902802
 20
3670.373543518579
 30
0.0
 11
7133.301114390622
 21
3670.410768329116
 31
0.0
  0
ARC
  5
17AC21874A3703
330
17AC21874A2FC9
100
AcDbEntity
  8
0
100
AcDbCircle
 10
7170.593991975626
 20
3656.980021746831
 30
0.0
 40
40.0
100
AcDbArc
 50
47.84560140389309
 51
217.0311634497287
  0
ARC
  5
17AC21874A3704
330
17AC21874A2FC9
100
AcDbEntity
  8
0
100
AcDbCircle
 10
7033.81506688737
 20
3806.304419122817
 30
0.0
 40
202.5
100
AcDbArc
 50
84.26056701391635
 51
136.8975868681225
  0
ARC
  5
17AC21874A3705
330
17AC21874A2FC9
100
AcDbEntity
  8
0
100
AcDbCircle
 10
7096.079133572617
 20
4007.800935835907
 30
0.0
 40
54.6754592179717
100
AcDbArc
 50
99.2530562231548
 51
179.3709484361758
  0
ARC
  5
17AC21874A3706
330
17AC21874A2FC9
100
AcDbEntity
  8
ASSE
100
AcDbCircle
 10
7243.353131823884
 20
4256.217072567813
 30
0.0
 40
289.432967172425
100
AcDbArc
 50
227.7375652325883
 51
260.0984181325303
  0
LINE
  5
17AC21874A3707
330
17AC21874A2FC9
100
AcDbEntity
  8
0
100
AcDbLine
 10
6870.599096138135
 20
4232.315931506084
 30
0.0
 11
7091.700741625593
 21
4232.315931506084
 31
0.0
  0
LINE
  5
17AC21874A3708
330
17AC21874A2FC9
100
AcDbEntity
  8
0
100
AcDbLine
 10
7030.647824845569
 20
3946.435710177193
 30
0.0
 11
7074.075850486789
 21
3921.349482580343
 31
0.0
  0
LINE
  5
17AC21874A3709
330
17AC21874A2FC9
100
AcDbEntity
  8
0
100
AcDbLine
 10
7137.53375858669
 20
4151.463506264184
 30
0.0
 11
7026.990648043112
 21
3960.096788386309
 31
0.0
  0
LINE
  5
17AC21874A370A
330
17AC21874A2FC9
100
AcDbEntity
  8
ASSE
100
AcDbLine
 10
7048.312179156939
 20
3925.595288549273
 30
0.0
 11
7245.135215061235
 21
4266.325508628581
 31
0.0
  0
LINE
  5
17AC21874A370B
330
17AC21874A2FC9
100
AcDbEntity
  8
0
100
AcDbLine
 10
7030.647824845569
 20
3946.435710177193
 30
0.0
 11
7026.990648043112
 21
3960.096788386309
 31
0.0
  0
LINE
  5
17AC21874A370D
330
17AC21874A2FC9
100
AcDbEntity
  8
0
100
AcDbLine
 10
6870.599096138135
 20
4232.315931506084
 30
0.0
 11
6860.599096138135
 21
4242.315931506083
 31
0.0
  0
ARC
  5
17AC21874A370E
330
17AC21874A2FC9
100
AcDbEntity
  8
0
100
AcDbCircle
 10
6946.193450379844
 20
4266.944964768536
 30
0.0
 40
55.0
100
AcDbArc
 50
220.4336995249707
 51
319.4992555805044
  0
CIRCLE
  5
17AC21874A3712
330
17AC21874A2FC9
100
AcDbEntity
  8
0
100
AcDbCircle
 10
7095.555311324261
 20
4007.455957327457
 30
0.0
 40
30.0
  0
LINE
  5
17AC21874A3713
330
17AC21874A2FC9
100
AcDbEntity
  8
0
100
AcDbLine
 10
7087.736928695905
 20
3925.0066593828
 30
0.0
 11
7198.33088181123
 21
4116.461393384303
 31
0.0
  0
ARC
  5
17AC21874A3714
330
17AC21874A2FC9
100
AcDbEntity
  8
0
100
AcDbCircle
 10
7244.658437996356
 20
4267.094782481692
 30
0.0
 40
363.460861551727
100
AcDbArc
 50
264.3273816508103
 51
270.0336753326169
  0
LINE
  5
17AC21874A3715
330
17AC21874A2FC9
100
AcDbEntity
  8
0
100
AcDbLine
 10
7087.736928695905
 20
3925.0066593828
 30
0.0
 11
7074.075850486789
 21
3921.349482580343
 31
0.0
  0
ARC
  5
17AC21874A3717
330
17AC21874A2FC9
100
AcDbEntity
  8
0
100
AcDbCircle
 10
7096.025367900193
 20
4007.83173416055
 30
0.0
 40
54.6754592179717
100
AcDbArc
 50
326.2285063499481
 51
356.0459554032313
  0
LINE
  5
17AC21874A3718
330
17AC21874A2FC9
100
AcDbEntity
  8
0
100
AcDbLine
 10
7173.476569403215
 20
4142.249625559687
 30
0.0
 11
7151.194836795806
 21
4155.120683066641
 31
0.0
  0
CIRCLE
  5
17AC21874A3719
330
17AC21874A2FC9
100
AcDbEntity
  8
0
100
AcDbCircle
 10
7155.756440239615
 20
4111.597432844821
 30
0.0
 40
34.0
  0
ARC
  5
17AC21874A371A
330
17AC21874A2FC9
100
AcDbEntity
  8
0
100
AcDbCircle
 10
7244.33136903002
 20
4266.572820956827
 30
0.0
 40
246.0969599215255
100
AcDbArc
 50
231.7461700901939
 51
231.9143724909471
  0
LINE
  5
17AC21874A371B
330
17AC21874A2FC9
100
AcDbEntity
  8
0
100
AcDbLine
 10
7194.673705008773
 20
4130.122471593419
 30
0.0
 11
7173.2435544767
 21
4142.501612154026
 31
0.0
  0
CIRCLE
  5
17AC21874A371C
330
17AC21874A2FC9
100
AcDbEntity
  8
0
100
AcDbCircle
 10
7155.756440239615
 20
4111.597432844821
 30
0.0
 40
12.5
  0
LINE
  5
17AC21874A371D
330
17AC21874A2FC9
100
AcDbEntity
  8
0
100
AcDbLine
 10
7198.33088181123
 20
4116.461393384303
 30
0.0
 11
7194.673705008773
 21
4130.122471593419
 31
0.0
  0
LINE
  5
17AC21874A371E
330
17AC21874A2FC9
100
AcDbEntity
  8
0
100
AcDbLine
 10
7091.700741625593
 20
4232.315931506084
 30
0.0
 11
7101.700741625592
 21
4242.315931506083
 31
0.0
  0
LINE
  5
17AC21874A371F
330
17AC21874A2FC9
100
AcDbEntity
  8
0
100
AcDbLine
 10
7101.700741625592
 20
4242.315931506083
 30
0.0
 11
7101.700741625592
 21
4267.064557181996
 31
0.0
  0
LINE
  5
17AC21874A3720
330
17AC21874A2FC9
100
AcDbEntity
  8
0
100
AcDbLine
 10
7137.53375858669
 20
4151.463506264184
 30
0.0
 11
7151.194836795806
 21
4155.120683066641
 31
0.0
  0
LINE
  5
17AC21874A3721
330
17AC21874A2FC9
100
AcDbEntity
  8
0
100
AcDbLine
 10
7316.204088849142
 20
4142.249625559687
 30
0.0
 11
7338.485821456551
 21
4155.120683066641
 31
0.0
  0
LINE
  5
17AC21874A3722
330
17AC21874A2FC9
100
AcDbEntity
  8
0
100
AcDbLine
 10
7295.006953243583
 20
4130.122471593419
 30
0.0
 11
7316.437103775655
 21
4142.501612154026
 31
0.0
  0
LINE
  5
17AC21874A3723
330
17AC21874A2FC9
100
AcDbEntity
  8
0
100
AcDbLine
 10
7291.349776441127
 20
4116.461393384303
 30
0.0
 11
7295.006953243583
 21
4130.122471593419
 31
0.0
  0
CIRCLE
  5
17AC21874A3724
330
17AC21874A2FC9
100
AcDbEntity
  8
0
100
AcDbCircle
 10
7333.924218012741
 20
4111.597432844821
 30
0.0
 40
34.0
  0
CIRCLE
  5
17AC21874A3725
330
17AC21874A2FC9
100
AcDbEntity
  8
0
100
AcDbCircle
 10
7333.924218012741
 20
4111.597432844821
 30
0.0
 40
12.5
  0
LINE
  5
17AC21874A3726
330
17AC21874A2FC9
100
AcDbEntity
  8
0
100
AcDbLine
 10
7352.146899665666
 20
4151.463506264184
 30
0.0
 11
7338.485821456551
 21
4155.120683066641
 31
0.0
  0
LINE
  5
17AC21874A3727
330
17AC21874A2FC9
100
AcDbEntity
  8
0
100
AcDbLine
 10
7923.378378859727
 20
3816.025277245419
 30
0.0
 11
7923.378378859727
 21
3472.120494698823
 31
0.0
  0
ARC
  5
17AC21874A3728
330
17AC21874A2FC9
100
AcDbEntity
  8
0
100
AcDbCircle
 10
7597.653194048167
 20
3912.933156921673
 30
0.0
 40
202.5
100
AcDbArc
 50
286.3190656846557
 51
357.9434641718678
  0
ARC
  5
17AC21874A3729
330
17AC21874A2FC9
100
AcDbEntity
  8
0
100
AcDbCircle
 10
7615.707406506597
 20
3711.239588822673
 30
0.0
 40
40.0
100
AcDbArc
 50
10.85008350538458
 51
179.8916855389184
  0
CIRCLE
  5
17AC21874A372A
330
17AC21874A2FC9
100
AcDbEntity
  8
0
100
AcDbCircle
 10
7717.815066887371
 20
4213.248754227566
 30
0.0
 40
20.0
  0
ARC
  5
17AC21874A372B
330
17AC21874A2FC9
100
AcDbEntity
  8
0
100
AcDbCircle
 10
7597.653194048167
 20
3912.933156921673
 30
0.0
 40
202.5
100
AcDbArc
 50
61.73673308530024
 51
143.9659420344717
  0
ARC
  5
17AC21874A372C
330
17AC21874A2FC9
100
AcDbEntity
  8
0
100
AcDbCircle
 10
7413.954334065292
 20
3998.144534336851
 30
0.0
 40
40.0
100
AcDbArc
 50
335.6008070564327
 51
58.23696749045968
  0
LINE
  5
17AC21874A372D
330
17AC21874A2FC9
100
AcDbEntity
  8
ASSE
100
AcDbLine
 10
7597.653194048167
 20
3912.933156921673
 30
0.0
 11
7393.488446002932
 21
4007.63793300019
 31
0.0
  0
LINE
  5
17AC21874A372E
330
17AC21874A2FC9
100
AcDbEntity
  8
0
100
AcDbLine
 10
7459.032833406786
 20
3946.435710177193
 30
0.0
 11
7462.690010209243
 21
3960.096788386309
 31
0.0
  0
LINE
  5
17AC21874A372F
330
17AC21874A2FC9
100
AcDbEntity
  8
0
100
AcDbLine
 10
7459.032833406786
 20
3946.435710177193
 30
0.0
 11
7415.604807765568
 21
3921.349482580343
 31
0.0
  0
LINE
  5
17AC21874A3730
330
17AC21874A2FC9
100
AcDbEntity
  8
0
100
AcDbLine
 10
7401.943729556453
 20
3925.0066593828
 30
0.0
 11
7415.604807765568
 21
3921.349482580343
 31
0.0
  0
ARC
  5
17AC21874A3732
330
17AC21874A2FC9
100
AcDbEntity
  8
0
100
AcDbCircle
 10
7393.947626452692
 20
4007.687902775386
 30
0.0
 40
55.0
100
AcDbArc
 50
340.4466061137073
 51
12.19445648304861
  0
CIRCLE
  5
17AC21874A3733
330
17AC21874A2FC9
100
AcDbEntity
  8
0
100
AcDbCircle
 10
7597.653194048167
 20
3912.933156921673
 30
0.0
 40
40.0
  0
ARC
  5
17AC21874A3734
330
17AC21874A2FC9
100
AcDbEntity
  8
0
100
AcDbCircle
 10
7543.487207872512
 20
4266.748754227566
 30
0.0
 40
55.0
100
AcDbArc
 50
218.8205344738233
 51
320.7499217354443
  0
LINE
  5
17AC21874A3736
330
17AC21874A2FC9
100
AcDbEntity
  8
0
100
AcDbLine
 10
7619.081562114222
 20
4232.315931506084
 30
0.0
 11
7397.979916626765
 21
4232.315931506084
 31
0.0
  0
ARC
  5
17AC21874A3737
330
17AC21874A2FC9
100
AcDbEntity
  8
0
100
AcDbCircle
 10
7393.947626452692
 20
4007.687902775386
 30
0.0
 40
55.0
100
AcDbArc
 50
34.39345654693871
 51
79.51216216924096
  0
LINE
  5
17AC21874A3738
330
17AC21874A2FC9
100
AcDbEntity
  8
0
100
AcDbLine
 10
7397.979916626765
 20
4232.315931506084
 30
0.0
 11
7387.979916626765
 21
4242.315931506083
 31
0.0
  0
LINE
  5
17AC21874A3739
330
17AC21874A2FC9
100
AcDbEntity
  8
0
100
AcDbLine
 10
7387.979916626765
 20
4242.315931506083
 30
0.0
 11
7387.979916626765
 21
4267.064557181996
 31
0.0
  0
ARC
  5
17AC21874A373A
330
17AC21874A2FC9
100
AcDbEntity
  8
0
100
AcDbCircle
 10
7245.022220255998
 20
4267.094782481692
 30
0.0
 40
363.4608615517271
100
AcDbArc
 50
334.9616611092259
 51
354.5042933322236
  0
LINE
  5
17AC21874A373B
330
17AC21874A2FC9
100
AcDbEntity
  8
0
100
AcDbLine
 10
7619.081562114222
 20
4232.315931506084
 30
0.0
 11
7629.081562114222
 21
4242.315931506083
 31
0.0
  0
CIRCLE
  5
17AC21874A373C
330
17AC21874A2FC9
100
AcDbEntity
  8
0
100
AcDbCircle
 10
7834.972354412752
 20
3930.406041752947
 30
0.0
 40
20.0
  0
ARC
  5
17AC21874A373D
330
17AC21874A2FC9
100
AcDbEntity
  8
0
100
AcDbCircle
 10
7597.653194048167
 20
3912.933156921673
 30
0.0
 40
235.8053493334519
100
AcDbArc
 50
351.1356391958449
 51
351.5395815374492
  0
LINE
  5
17AC21874A373E
330
17AC21874A2FC9
100
AcDbEntity
  8
ASSE
100
AcDbLine
 10
7819.76955861724
 20
3915.203245957437
 30
0.0
 11
7850.175150208264
 21
3945.608837548459
 31
0.0
  0
ARC
  5
17AC21874A3752
330
17AC21874A2FC9
100
AcDbEntity
  8
0
100
AcDbCircle
 10
7245.022220255998
 20
4267.094782481692
 30
0.0
 40
363.4608615517271
100
AcDbArc
 50
65.56375928195945
 51
90.03468512156905
  0
LINE
  5
17AC21874A3753
330
17AC21874A2FC9
100
AcDbEntity
  8
0
100
AcDbLine
 10
7352.146899665666
 20
4382.618029866295
 30
0.0
 11
7462.690010209243
 21
4573.984747744169
 31
0.0
  0
CIRCLE
  5
17AC21874A3754
330
17AC21874A2FC9
100
AcDbEntity
  8
0
100
AcDbCircle
 10
7394.125346928095
 20
4526.625578803021
 30
0.0
 40
30.0
  0
ARC
  5
17AC21874A3755
330
17AC21874A2FC9
100
AcDbEntity
  8
0
100
AcDbCircle
 10
7393.947626452692
 20
4526.393633355092
 30
0.0
 40
55.0
100
AcDbArc
 50
99.23717167581909
 51
201.16655893744
  0
LINE
  5
17AC21874A3756
330
17AC21874A2FC9
100
AcDbEntity
  8
0
100
AcDbLine
 10
7401.943729556453
 20
4609.074876747679
 30
0.0
 11
7291.349776441127
 21
4417.620142746176
 31
0.0
  0
LINE
  5
17AC21874A3757
330
17AC21874A2FC9
100
AcDbEntity
  8
0
100
AcDbLine
 10
7030.647824845569
 20
4587.645825953285
 30
0.0
 11
7074.075850486789
 21
4612.732053550136
 31
0.0
  0
LINE
  5
17AC21874A3758
330
17AC21874A2FC9
100
AcDbEntity
  8
0
100
AcDbLine
 10
7091.599096138136
 20
4302.468820018464
 30
0.0
 11
6870.599096138135
 21
4302.468820018464
 31
0.0
  0
LINE
  5
17AC21874A3759
330
17AC21874A2FC9
100
AcDbEntity
  8
0
100
AcDbLine
 10
7137.53375858669
 20
4382.618029866295
 30
0.0
 11
7026.990648043112
 21
4573.984747744169
 31
0.0
  0
ARC
  5
17AC21874A375A
330
17AC21874A2FC9
100
AcDbEntity
  8
0
100
AcDbCircle
 10
7095.733031799664
 20
4526.393633355092
 30
0.0
 40
55.0
100
AcDbArc
 50
160.4466061137073
 51
259.512162169241
  0
LINE
  5
17AC21874A375B
330
17AC21874A2FC9
100
AcDbEntity
  8
0
100
AcDbLine
 10
6860.599096138135
 20
4292.468820018465
 30
0.0
 11
6870.599096138135
 21
4302.468820018464
 31
0.0
  0
ARC
  5
17AC21874A375C
330
17AC21874A2FC9
100
AcDbEntity
  8
0
100
AcDbCircle
 10
6946.193450379844
 20
4266.748754227566
 30
0.0
 40
55.0
100
AcDbArc
 50
40.50074441949564
 51
139.5663004750293
  0
LINE
  5
17AC21874A375D
330
17AC21874A2FC9
100
AcDbEntity
  8
0
100
AcDbLine
 10
7030.647824845569
 20
4587.645825953285
 30
0.0
 11
7026.990648043112
 21
4573.984747744169
 31
0.0
  0
ARC
  5
17AC21874A375E
330
17AC21874A2FC9
100
AcDbEntity
  8
0
100
AcDbCircle
 10
7095.733031799664
 20
4526.393633355092
 30
0.0
 40
55.0
100
AcDbArc
 50
338.8334410625601
 51
80.76282832418092
  0
CIRCLE
  5
17AC21874A375F
330
17AC21874A2FC9
100
AcDbEntity
  8
0
100
AcDbCircle
 10
7095.555311324261
 20
4526.625578803021
 30
0.0
 40
30.0
  0
LINE
  5
17AC21874A3760
330
17AC21874A2FC9
100
AcDbEntity
  8
0
100
AcDbLine
 10
7087.736928695905
 20
4609.074876747679
 30
0.0
 11
7198.33088181123
 21
4417.620142746176
 31
0.0
  0
LINE
  5
17AC21874A3761
330
17AC21874A2FC9
100
AcDbEntity
  8
0
100
AcDbLine
 10
7173.476569403215
 20
4391.831910570792
 30
0.0
 11
7151.194836795806
 21
4378.960853063838
 31
0.0
  0
CIRCLE
  5
17AC21874A3762
330
17AC21874A2FC9
100
AcDbEntity
  8
0
100
AcDbCircle
 10
7155.756440239615
 20
4422.484103285657
 30
0.0
 40
34.0
  0
LINE
  5
17AC21874A3763
330
17AC21874A2FC9
100
AcDbEntity
  8
0
100
AcDbLine
 10
7091.599096138136
 20
4302.468820018464
 30
0.0
 11
7101.599096138135
 21
4292.468820018465
 31
0.0
  0
LINE
  5
17AC21874A3764
330
17AC21874A2FC9
100
AcDbEntity
  8
0
100
AcDbLine
 10
7137.53375858669
 20
4382.618029866295
 30
0.0
 11
7151.194836795806
 21
4378.960853063838
 31
0.0
  0
LINE
  5
17AC21874A3765
330
17AC21874A2FC9
100
AcDbEntity
  8
0
100
AcDbLine
 10
7194.673705008773
 20
4403.95906453706
 30
0.0
 11
7173.2435544767
 21
4391.579923976453
 31
0.0
  0
CIRCLE
  5
17AC21874A3766
330
17AC21874A2FC9
100
AcDbEntity
  8
0
100
AcDbCircle
 10
7155.756440239615
 20
4421.356409439671
 30
0.0
 40
12.5
  0
LINE
  5
17AC21874A3767
330
17AC21874A2FC9
100
AcDbEntity
  8
0
100
AcDbLine
 10
7198.33088181123
 20
4417.620142746176
 30
0.0
 11
7194.673705008773
 21
4403.95906453706
 31
0.0
  0
CIRCLE
  5
17AC21874A3768
330
17AC21874A2FC9
100
AcDbEntity
  8
0
100
AcDbCircle
 10
7333.924218012741
 20
4422.484103285657
 30
0.0
 40
34.0
  0
LINE
  5
17AC21874A3769
330
17AC21874A2FC9
100
AcDbEntity
  8
0
100
AcDbLine
 10
7316.204088849142
 20
4391.831910570792
 30
0.0
 11
7338.485821456551
 21
4378.960853063838
 31
0.0
  0
LINE
  5
17AC21874A376A
330
17AC21874A2FC9
100
AcDbEntity
  8
0
100
AcDbLine
 10
7352.146899665666
 20
4382.618029866295
 30
0.0
 11
7338.485821456551
 21
4378.960853063838
 31
0.0
  0
LINE
  5
17AC21874A376B
330
17AC21874A2FC9
100
AcDbEntity
  8
0
100
AcDbLine
 10
7295.006953243583
 20
4403.95906453706
 30
0.0
 11
7316.437103775655
 21
4391.579923976453
 31
0.0
  0
LINE
  5
17AC21874A376C
330
17AC21874A2FC9
100
AcDbEntity
  8
0
100
AcDbLine
 10
7291.349776441127
 20
4417.620142746176
 30
0.0
 11
7295.006953243583
 21
4403.95906453706
 31
0.0
  0
CIRCLE
  5
17AC21874A376D
330
17AC21874A2FC9
100
AcDbEntity
  8
0
100
AcDbCircle
 10
7333.924218012741
 20
4421.356409439671
 30
0.0
 40
12.5
  0
ARC
  5
17AC21874A376E
330
17AC21874A2FC9
100
AcDbEntity
  8
0
100
AcDbCircle
 10
7244.658437996356
 20
4267.094782481692
 30
0.0
 40
363.4608615517271
100
AcDbArc
 50
89.96531487843093
 51
114.4362407180405
  0
LINE
  5
17AC21874A376F
330
17AC21874A2FC9
100
AcDbEntity
  8
0
100
AcDbLine
 10
7087.736928695905
 20
4609.074876747679
 30
0.0
 11
7074.075850486789
 21
4612.732053550136
 31
0.0
  0
ARC
  5
17AC21874A3778
330
17AC21874A2FC9
100
AcDbEntity
  8
0
100
AcDbCircle
 10
7245.022220255998
 20
4267.094782481692
 30
0.0
 40
363.4608615517271
100
AcDbArc
 50
5.603471868459124
 51
54.42086950096925
  0
ARC
  5
17AC21874A3779
330
17AC21874A2FC9
100
AcDbEntity
  8
0
100
AcDbCircle
 10
7393.947626452692
 20
4526.393633355092
 30
0.0
 40
55.0
100
AcDbArc
 50
280.487837830759
 51
19.55339388629271
  0
ARC
  5
17AC21874A377A
330
17AC21874A2FC9
100
AcDbEntity
  8
0
100
AcDbCircle
 10
7543.487207872512
 20
4266.748754227566
 30
0.0
 40
55.0
100
AcDbArc
 50
40.43369952497068
 51
139.4992555805043
  0
LINE
  5
17AC21874A377B
330
17AC21874A2FC9
100
AcDbEntity
  8
0
100
AcDbLine
 10
7398.081562114223
 20
4302.468820018464
 30
0.0
 11
7619.081562114222
 21
4302.468820018464
 31
0.0
  0
LINE
  5
17AC21874A377C
330
17AC21874A2FC9
100
AcDbEntity
  8
0
100
AcDbLine
 10
7398.081562114223
 20
4302.468820018464
 30
0.0
 11
7388.081562114222
 21
4292.468820018465
 31
0.0
  0
LINE
  5
17AC21874A377D
330
17AC21874A2FC9
100
AcDbEntity
  8
0
100
AcDbLine
 10
7629.081562114222
 20
4292.468820018465
 30
0.0
 11
7619.081562114222
 21
4302.468820018464
 31
0.0
  0
LINE
  5
17AC21874A377E
330
17AC21874A2FC9
100
AcDbEntity
  8
0
100
AcDbLine
 10
7459.032833406786
 20
4587.645825953285
 30
0.0
 11
7462.690010209243
 21
4573.984747744169
 31
0.0
  0
LINE
  5
17AC21874A377F
330
17AC21874A2FC9
100
AcDbEntity
  8
0
100
AcDbLine
 10
7459.032833406786
 20
4587.645825953285
 30
0.0
 11
7415.604807765568
 21
4612.732053550136
 31
0.0
  0
LINE
  5
17AC21874A3780
330
17AC21874A2FC9
100
AcDbEntity
  8
0
100
AcDbLine
 10
7401.943729556453
 20
4609.074876747679
 30
0.0
 11
7415.604807765568
 21
4612.732053550136
 31
0.0
  0
CIRCLE
  5
17AC21874A3781
330
17AC21874A2FC9
100
AcDbEntity
  8
0
100
AcDbCircle
 10
7834.972354412752
 20
4496.091466702186
 30
0.0
 40
20.0
  0
LINE
  5
17AC21874A3782
330
17AC21874A2FC9
100
AcDbEntity
  8
ASSE
100
AcDbLine
 10
7819.76955861724
 20
4511.294262497696
 30
0.0
 11
7850.175150208261
 21
4480.888670906675
 31
0.0
  0
LINE
  5
17AC21874A3790
330
17AC21874A2FC9
100
AcDbEntity
  8
ASSE
100
AcDbLine
 10
8117.815066887372
 20
4646.831626840194
 30
0.0
 11
8117.815066887372
 21
3787.231626840195
 31
0.0
  0
LINE
  5
17AC21874A3793
330
17AC21874A2FC9
100
AcDbEntity
  8
0
100
AcDbLine
 10
8612.681922485579
 20
3791.228478150261
 30
0.0
 11
9187.229070858826
 21
3791.228478150261
 31
0.0
  0
LINE
  5
17AC21874A3797
330
17AC21874A2FC9
100
AcDbEntity
  8
ASSE
100
AcDbLine
 10
9257.789562965511
 20
3610.581704060406
 30
0.0
 11
9472.708998057543
 21
3610.581704060406
 31
0.0
  0
LINE
  5
17AC21874A3798
330
17AC21874A2FC9
100
AcDbEntity
  8
0
100
AcDbLine
 10
9629.299270900069
 20
3670.581704060406
 30
0.0
 11
9225.807588437055
 21
3670.581704060406
 31
0.0
  0
LINE
  5
17AC21874A3799
330
17AC21874A2FC9
100
AcDbEntity
  8
0
100
AcDbLine
 10
9631.007929890243
 20
3550.581704060406
 30
0.0
 11
9225.833540457474
 21
3550.581704060406
 31
0.0
  0
LINE
  5
17AC21874A37A0
330
17AC21874A2FC9
100
AcDbEntity
  8
ASSE
100
AcDbLine
 10
8341.431309553085
 20
3610.581704060406
 30
0.0
 11
8979.810567111938
 21
3610.581704060406
 31
0.0
  0
LINE
  5
17AC21874A37A1
330
17AC21874A2FC9
100
AcDbEntity
  8
0
100
AcDbLine
 10
8432.940170034617
 20
3550.581704060405
 30
0.0
 11
9187.358509480535
 21
3550.581704060406
 31
0.0
  0
CIRCLE
  5
17AC21874A37A2
330
17AC21874A2FC9
100
AcDbEntity
  8
0
100
AcDbCircle
 10
8432.815066887371
 20
3763.382132103799
 30
0.0
 40
40.0
  0
ARC
  5
17AC21874A37A3
330
17AC21874A2FC9
100
AcDbEntity
  8
0
100
AcDbCircle
 10
8432.815066887371
 20
3763.382132103799
 30
0.0
 40
152.5
100
AcDbArc
 50
164.5647165909671
 51
206.6261062738816
  0
CIRCLE
  5
17AC21874A37A4
330
17AC21874A2FC9
100
AcDbEntity
  8
0
100
AcDbCircle
 10
8117.815066887372
 20
3813.248754227567
 30
0.0
 40
20.0
  0
ARC
  5
17AC21874A37A6
330
17AC21874A2FC9
100
AcDbEntity
  8
0
100
AcDbCircle
 10
8433.141501050313
 20
3764.530957530354
 30
0.0
 40
178.9881121810518
100
AcDbArc
 50
171.1644344609321
 51
270.0
  0
LINE
  5
17AC21874A37A7
330
17AC21874A2FC9
100
AcDbEntity
  8
0
100
AcDbLine
 10
8118.716430264251
 20
3472.587422864664
 30
0.0
 11
8433.141501050313
 21
3472.587422864664
 31
0.0
  0
LINE
  5
17AC21874A37A8
330
17AC21874A2FC9
100
AcDbEntity
  8
0
100
AcDbLine
 10
8118.716430264251
 20
3771.076779090476
 30
0.0
 11
8118.716430264251
 21
3472.587422864664
 31
0.0
  0
LINE
  5
17AC21874A37A9
330
17AC21874A2FC9
100
AcDbEntity
  8
0
100
AcDbLine
 10
8355.153413653416
 20
3669.912491196527
 30
0.0
 11
8281.05433342675
 21
3669.925555292089
 31
0.0
  0
LINE
  5
17AC21874A37AA
330
17AC21874A2FC9
100
AcDbEntity
  8
0
100
AcDbLine
 10
8433.141501050313
 20
3472.587422864664
 30
0.0
 11
8433.141501050313
 21
3585.537657573925
 31
0.0
  0
LINE
  5
17AC21874A37AB
330
17AC21874A2FC9
100
AcDbEntity
  8
0
100
AcDbLine
 10
8612.681922485579
 20
3671.228478150261
 30
0.0
 11
8612.681922485579
 21
3791.228478150261
 31
0.0
  0
CIRCLE
  5
17AC21874A37AC
330
17AC21874A2FC9
100
AcDbEntity
  8
0
100
AcDbCircle
 10
8400.65777936199
 20
3930.406041752947
 30
0.0
 40
20.0
  0
LINE
  5
17AC21874A37AD
330
17AC21874A2FC9
100
AcDbEntity
  8
ASSE
100
AcDbLine
 10
8415.8605751575
 20
3915.203245957437
 30
0.0
 11
8385.45498356648
 21
3945.608837548459
 31
0.0
  0
LINE
  5
17AC21874A37AE
330
17AC21874A2FC9
100
AcDbEntity
  8
ASSE
100
AcDbLine
 10
8539.315066887372
 20
4213.248754227566
 30
0.0
 11
8496.315066887371
 21
4213.248754227566
 31
0.0
  0
CIRCLE
  5
17AC21874A37AF
330
17AC21874A2FC9
100
AcDbEntity
  8
0
100
AcDbCircle
 10
8517.81506688737
 20
4213.248754227566
 30
0.0
 40
20.0
  0
LINE
  5
17AC21874A37B1
330
17AC21874A2FC9
100
AcDbEntity
  8
ASSE
100
AcDbLine
 10
8979.810567111938
 20
3610.581704060406
 30
0.0
 11
9174.708998057473
 21
3610.581704060406
 31
0.0
  0
LINE
  5
17AC21874A37B8
330
17AC21874A2FC9
100
AcDbEntity
  8
0
100
AcDbLine
 10
9631.26621160959
 20
3670.581704060406
 30
0.0
 11
9631.26621160959
 21
3550.581704060406
 31
0.0
  0
LINE
  5
17AC21874A37B9
330
17AC21874A2FC9
100
AcDbEntity
  8
0
100
AcDbLine
 10
9512.68192248558
 20
3791.228478150261
 30
0.0
 11
9512.68192248558
 21
3671.228478150261
 31
0.0
  0
LINE
  5
17AC21874A37BA
330
17AC21874A2FC9
100
AcDbEntity
  8
0
100
AcDbLine
 10
9631.007929890243
 20
3670.581704060406
 30
0.0
 11
9620.039374945889
 21
3670.581704060406
 31
0.0
  0
CIRCLE
  5
17AC21874A37C6
330
17AC21874A2FC9
100
AcDbEntity
  8
0
100
AcDbCircle
 10
8117.815066887372
 20
4613.248754227567
 30
0.0
 40
20.0
  0
CIRCLE
  5
17AC21874A37CA
330
17AC21874A2FC9
100
AcDbEntity
  8
0
100
AcDbCircle
 10
8400.65777936199
 20
4496.091466702186
 30
0.0
 40
20.0
  0
LINE
  5
17AC21874A37CB
330
17AC21874A2FC9
100
AcDbEntity
  8
ASSE
100
AcDbLine
 10
8415.8605751575
 20
4511.294262497696
 30
0.0
 11
8385.45498356648
 21
4480.888670906675
 31
0.0
  0
ARC
  5
17AC21874A37E4
330
17AC21874A2FC9
100
AcDbEntity
  8
0
100
AcDbCircle
 10
8432.56308630786
 20
3763.087495674856
 30
0.0
 40
152.8099826266967
100
AcDbArc
 50
250.7382236384473
 51
325.9682456098608
  0
LINE
  5
17AC21874A37E7
330
17AC21874A2FC9
100
AcDbEntity
  8
ASSE
 62
     1
100
AcDbLine
 39
0.1234
 10
8435.759320481492
 20
3748.151398891661
 30
0.0
 11
8392.506229652397
 21
3972.036124040792
 31
0.0
  0
ARC
  5
17AC21874A37EF
330
17AC21874A2FC9
100
AcDbEntity
  8
0
100
AcDbCircle
 10
8317.668686882649
 20
3663.394326988334
 30
0.0
 40
38.07726573978476
100
AcDbArc
 50
318.141259864805
 51
123.7978241375227
  0
ARC
  5
17AC21874A37F0
330
17AC21874A2FC9
100
AcDbEntity
  8
0
100
AcDbCircle
 10
8575.468686882651
 20
3711.994326988334
 30
0.0
 40
38.07726573978476
100
AcDbArc
 50
75.94483499754122
 51
244.708084942004
  0
ARC
  5
17AC21874A37F1
330
17AC21874A2FC9
100
AcDbEntity
  8
0
100
AcDbCircle
 10
8432.56308630786
 20
3763.087495674856
 30
0.0
 40
152.8099826266967
100
AcDbArc
 50
354.684674329684
 51
86.33034771329695
  0
ARC
  5
17AC21874A37F4
330
17AC21874A2FC9
100
AcDbEntity
  8
0
100
AcDbCircle
 10
8432.815066887371
 20
3763.382132103799
 30
0.0
 40
152.5
100
AcDbArc
 50
235.3129777284458
 51
264.1039616479551
  0
LINE
  5
17AC21874A37F7
330
17AC21874A2FC9
100
AcDbEntity
  8
ASSE
 62
     1
100
AcDbLine
 39
0.1234
 10
8298.414089186376
 20
3646.695187092926
 30
0.0
 11
8432.56308630786
 21
3763.040015746173
 31
0.0
  0
LINE
  5
17AC21874A37F8
330
17AC21874A2FC9
100
AcDbEntity
  8
ASSE
100
AcDbLine
 39
0.1234
 10
8584.395642111928
 20
3710.553813013313
 30
0.0
 11
8432.908248009828
 21
3762.908993423362
 31
0.0
  0
LINE
  5
17AC21874A37FA
330
17AC21874A2FC9
100
AcDbEntity
  8
0
100
AcDbLine
 10
9225.781496540852
 20
3791.228478150261
 30
0.0
 11
9512.68192248558
 21
3791.228478150261
 31
0.0
  0
LINE
  5
17AC21874A37FB
330
17AC21874A2FC9
100
AcDbEntity
  8
0
100
AcDbLine
 10
9187.29396411248
 20
3670.581704060406
 30
0.0
 11
8553.671105253194
 21
3670.581704060406
 31
0.0
  0
LINE
  5
17AC21874A37FC
330
17AC21874A2FC9
100
AcDbEntity
  8
ASSE
100
AcDbLine
 10
9199.708998057543
 20
3610.581704060406
 30
0.0
 11
9232.480280837055
 21
3610.581704060406
 31
0.0
  0
LINE
  5
17AC21874A37FF
330
17AC21874A2FC9
100
AcDbEntity
  8
ASSE
100
AcDbLine
 10
9497.800795798204
 20
3610.581704060406
 30
0.0
 11
9646.153413653415
 21
3610.581704060406
 31
0.0
  0
LINE
  5
17AC21874A3833
330
17AC21874A2FC9
100
AcDbEntity
  8
0
100
AcDbLine
 10
6295.708998057541
 20
3670.581704060406
 30
0.0
 11
6132.582099691684
 21
3670.581704060406
 31
0.0
  0
LINE
  5
17AC21874A3834
330
17AC21874A2FC9
100
AcDbEntity
  8
0
100
AcDbLine
 10
6295.708998057541
 20
3550.581704060406
 30
0.0
 11
6132.582099691684
 21
3550.581704060406
 31
0.0
  0
LINE
  5
17AC21874A3835
330
17AC21874A2FC9
100
AcDbEntity
  8
ASSE
100
AcDbLine
 10
6121.553413653415
 20
3610.581704060406
 30
0.0
 11
7152.592657352409
 21
3610.581704060406
 31
0.0
  0
CIRCLE
  5
17AC21874A3868
330
17AC21874A2FC9
100
AcDbEntity
  8
0
100
AcDbCircle
 10
8117.815066887372
 20
4213.248754227568
 30
0.0
 40
40.0
  0
ARC
  5
17AC21874A3881
330
17AC21874A2FC9
100
AcDbEntity
  8
0
100
AcDbCircle
 10
7244.840329126178
 20
4265.815016809934
 30
0.0
 40
209.0980430113232
100
AcDbArc
 50
249.5996542877268
 51
290.4071847559059
  0
ARC
  5
17AC21874A3883
330
17AC21874A2FC9
100
AcDbEntity
  8
ASSE
100
AcDbCircle
 10
7243.776947299007
 20
4266.786626683615
 30
0.0
 40
300.0
100
AcDbArc
 50
291.3185847460864
 51
89.78455778429593
  0
ARC
  5
17AC21874A388F
330
17AC21874A2FC9
100
AcDbEntity
  8
0
100
AcDbCircle
 10
6758.000687958876
 20
3967.600385048951
 30
0.0
 40
130.0
100
AcDbArc
 50
322.0201275551477
 51
50.55445930035327
  0
LINE
  5
17AC21874A3896
330
17AC21874A2FC9
100
AcDbEntity
  8
0
100
AcDbLine
 10
6628.000687958875
 20
3887.60038504895
 30
0.0
 11
6628.000687958875
 21
3787.60038504895
 31
0.0
  0
LINE
  5
17AC21874A3897
330
17AC21874A2FC9
100
AcDbEntity
  8
0
100
AcDbLine
 10
6628.000687958875
 20
3787.60038504895
 30
0.0
 11
7088.000687958874
 21
3787.60038504895
 31
0.0
  0
LINE
  5
17AC21874A3898
330
17AC21874A2FC9
100
AcDbEntity
  8
0
100
AcDbLine
 10
7088.000687958874
 20
3787.60038504895
 30
0.0
 11
7088.000687958874
 21
3887.60038504895
 31
0.0
  0
LINE
  5
17AC21874A3899
330
17AC21874A2FC9
100
AcDbEntity
  8
0
100
AcDbLine
 10
7088.000687958874
 20
3887.60038504895
 30
0.0
 11
6628.000687958875
 21
3887.60038504895
 31
0.0
  0
LINE
  5
17AC21874A389A
330
17AC21874A2FC9
100
AcDbEntity
  8
0
100
AcDbLine
 10
6813.000687958876
 20
3887.60038504895
 30
0.0
 11
6813.000687958876
 21
4047.600385048951
 31
0.0
  0
LINE
  5
17AC21874A389B
330
17AC21874A2FC9
100
AcDbEntity
  8
0
100
AcDbLine
 10
6813.000687958876
 20
4047.600385048951
 30
0.0
 11
6701.600687958877
 21
4047.600385048951
 31
0.0
  0
LINE
  5
17AC21874A389C
330
17AC21874A2FC9
100
AcDbEntity
  8
0
100
AcDbLine
 10
6701.600687958877
 20
4047.600385048951
 30
0.0
 11
6701.600687958877
 21
3888.800385048951
 31
0.0
  0
LINE
  5
17AC21874A389D
330
17AC21874A2FC9
100
AcDbEntity
  8
0
100
AcDbLine
 10
7043.200687958876
 20
3787.60038504895
 30
0.0
 11
7043.200687958876
 21
3887.60038504895
 31
0.0
  0
LINE
  5
17AC21874A389E
330
17AC21874A2FC9
100
AcDbEntity
  8
0
100
AcDbLine
 10
6680.600687958876
 20
3787.60038504895
 30
0.0
 11
6680.600687958876
 21
3887.60038504895
 31
0.0
  0
LINE
  5
17AC21874A38A4
330
17AC21874A2FC9
100
AcDbEntity
  8
0
100
AcDbLine
 10
6973.000687958874
 20
3787.60038504895
 30
0.0
 11
6973.000687958874
 21
3737.60038504895
 31
0.0
  0
LINE
  5
17AC21874A38A5
330
17AC21874A2FC9
100
AcDbEntity
  8
0
100
AcDbLine
 10
6973.000687958874
 20
3737.60038504895
 30
0.0
 11
7062.400687958877
 21
3737.60038504895
 31
0.0
  0
LINE
  5
17AC21874A38A6
330
17AC21874A2FC9
100
AcDbEntity
  8
0
100
AcDbLine
 10
7062.400687958877
 20
3737.60038504895
 30
0.0
 11
7062.400687958877
 21
3787.60038504895
 31
0.0
  0
LINE
  5
17AC21874A38A8
330
17AC21874A2FC9
100
AcDbEntity
  8
0
100
AcDbLine
 10
6893.800687958877
 20
3737.60038504895
 30
0.0
 11
6893.800687958877
 21
3787.60038504895
 31
0.0
  0
LINE
  5
17AC21874A38A9
330
17AC21874A2FC9
100
AcDbEntity
  8
0
100
AcDbLine
 10
6804.400687958874
 20
3787.60038504895
 30
0.0
 11
6804.400687958874
 21
3737.60038504895
 31
0.0
  0
LINE
  5
17AC21874A38AA
330
17AC21874A2FC9
100
AcDbEntity
  8
0
100
AcDbLine
 10
6804.400687958874
 20
3737.60038504895
 30
0.0
 11
6893.800687958877
 21
3737.60038504895
 31
0.0
  0
LINE
  5
17AC21874A38AB
330
17AC21874A2FC9
100
AcDbEntity
  8
0
100
AcDbLine
 10
7017.400687958877
 20
3721.600385048951
 30
0.0
 11
7102.400687958878
 21
3721.600385048951
 31
0.0
  0
LINE
  5
17AC21874A38AC
330
17AC21874A2FC9
100
AcDbEntity
  8
0
100
AcDbLine
 10
7102.400687958878
 20
3721.600385048951
 30
0.0
 11
7102.400687958878
 21
3521.600385048951
 31
0.0
  0
LINE
  5
17AC21874A38AD
330
17AC21874A2FC9
100
AcDbEntity
  8
0
100
AcDbLine
 10
7102.400687958878
 20
3521.600385048951
 30
0.0
 11
6932.400687958878
 21
3521.600385048951
 31
0.0
  0
LINE
  5
17AC21874A38AE
330
17AC21874A2FC9
100
AcDbEntity
  8
0
100
AcDbLine
 10
6932.400687958878
 20
3521.600385048951
 30
0.0
 11
6932.400687958878
 21
3721.600385048951
 31
0.0
  0
LINE
  5
17AC21874A38AF
330
17AC21874A2FC9
100
AcDbEntity
  8
0
100
AcDbLine
 10
6932.400687958878
 20
3721.600385048951
 30
0.0
 11
7017.400687958877
 21
3721.600385048951
 31
0.0
  0
LINE
  5
17AC21874A38B1
330
17AC21874A2FC9
100
AcDbEntity
  8
0
100
AcDbLine
 10
6932.200687958877
 20
3721.600385048951
 30
0.0
 11
6932.200687958877
 21
3521.600385048951
 31
0.0
  0
LINE
  5
17AC21874A38B2
330
17AC21874A2FC9
100
AcDbEntity
  8
0
100
AcDbLine
 10
6932.200687958877
 20
3521.600385048951
 30
0.0
 11
6762.200687958877
 21
3521.600385048951
 31
0.0
  0
LINE
  5
17AC21874A38B3
330
17AC21874A2FC9
100
AcDbEntity
  8
0
100
AcDbLine
 10
6847.200687958878
 20
3721.600385048951
 30
0.0
 11
6932.200687958877
 21
3721.600385048951
 31
0.0
  0
LINE
  5
17AC21874A38B4
330
17AC21874A2FC9
100
AcDbEntity
  8
0
100
AcDbLine
 10
6762.200687958877
 20
3721.600385048951
 30
0.0
 11
6847.200687958878
 21
3721.600385048951
 31
0.0
  0
LINE
  5
17AC21874A38B5
330
17AC21874A2FC9
100
AcDbEntity
  8
0
100
AcDbLine
 10
6757.800687958877
 20
3756.200385048951
 30
0.0
 11
6797.800687958877
 21
3756.200385048951
 31
0.0
  0
LINE
  5
17AC21874A38B8
330
17AC21874A2FC9
100
AcDbEntity
  8
0
100
AcDbLine
 10
6757.800687958877
 20
3756.200385048951
 30
0.0
 11
6717.800687958877
 21
3756.200385048951
 31
0.0
  0
LINE
  5
17AC21874A38B9
330
17AC21874A2FC9
100
AcDbEntity
  8
0
100
AcDbLine
 10
6868.600687958878
 20
3737.60038504895
 30
0.0
 11
6868.600687958878
 21
3721.800385048951
 31
0.0
  0
LINE
  5
17AC21874A38BA
330
17AC21874A2FC9
100
AcDbEntity
  8
0
100
AcDbLine
 10
6828.800687958878
 20
3737.60038504895
 30
0.0
 11
6828.800687958878
 21
3721.800385048951
 31
0.0
  0
LINE
  5
17AC21874A38BB
330
17AC21874A2FC9
100
AcDbEntity
  8
0
100
AcDbLine
 10
7038.600687958878
 20
3737.60038504895
 30
0.0
 11
7038.600687958878
 21
3721.800385048951
 31
0.0
  0
LINE
  5
17AC21874A38BC
330
17AC21874A2FC9
100
AcDbEntity
  8
0
100
AcDbLine
 10
6998.800687958878
 20
3737.60038504895
 30
0.0
 11
6998.800687958878
 21
3721.800385048951
 31
0.0
  0
LINE
  5
17AC21874A38BD
330
17AC21874A2FC9
100
AcDbEntity
  8
0
100
AcDbLine
 10
6778.800687958877
 20
3756.000385048952
 30
0.0
 11
6778.800687958877
 21
3740.200385048951
 31
0.0
  0
LINE
  5
17AC21874A38BE
330
17AC21874A2FC9
100
AcDbEntity
  8
0
100
AcDbLine
 10
6739.000687958877
 20
3756.000385048952
 30
0.0
 11
6739.000687958877
 21
3740.200385048951
 31
0.0
  0
LINE
  5
17AC21874A38BF
330
17AC21874A2FC9
100
AcDbEntity
  8
0
100
AcDbLine
 10
6717.800687958877
 20
3756.200385048951
 30
0.0
 11
6717.800687958877
 21
3787.60038504895
 31
0.0
  0
LINE
  5
17AC21874A38C0
330
17AC21874A2FC9
100
AcDbEntity
  8
0
100
AcDbLine
 10
6797.800687958877
 20
3756.200385048951
 30
0.0
 11
6797.800687958877
 21
3787.60038504895
 31
0.0
  0
LINE
  5
17AC21874A38C1
330
17AC21874A2FC9
100
AcDbEntity
  8
0
100
AcDbLine
 10
6758.000687958878
 20
3740.200385048951
 30
0.0
 11
6782.000687958877
 21
3740.200385048951
 31
0.0
  0
LINE
  5
17AC21874A38C2
330
17AC21874A2FC9
100
AcDbEntity
  8
0
100
AcDbLine
 10
6782.000687958877
 20
3740.200385048951
 30
0.0
 11
6782.000687958877
 21
3727.200385048951
 31
0.0
  0
LINE
  5
17AC21874A38C3
330
17AC21874A2FC9
100
AcDbEntity
  8
0
100
AcDbLine
 10
6782.000687958877
 20
3727.200385048951
 30
0.0
 11
6758.000687958878
 21
3727.200385048951
 31
0.0
  0
LINE
  5
17AC21874A38C4
330
17AC21874A2FC9
100
AcDbEntity
  8
0
100
AcDbLine
 10
6782.000687958877
 20
3727.200385048951
 30
0.0
 11
6794.200687958877
 21
3727.200385048951
 31
0.0
  0
LINE
  5
17AC21874A38C5
330
17AC21874A2FC9
100
AcDbEntity
  8
0
100
AcDbLine
 10
6794.200687958877
 20
3727.200385048951
 30
0.0
 11
6794.200687958877
 21
3721.600385048951
 31
0.0
  0
LINE
  5
17AC21874A38C6
330
17AC21874A2FC9
100
AcDbEntity
  8
0
100
AcDbLine
 10
6794.200687958877
 20
3721.600385048951
 30
0.0
 11
6627.800687958878
 21
3721.600385048951
 31
0.0
  0
LINE
  5
17AC21874A38C7
330
17AC21874A2FC9
100
AcDbEntity
  8
0
100
AcDbLine
 10
6627.800687958878
 20
3721.600385048951
 30
0.0
 11
6627.800687958878
 21
3727.200385048951
 31
0.0
  0
LINE
  5
17AC21874A38C8
330
17AC21874A2FC9
100
AcDbEntity
  8
0
100
AcDbLine
 10
6627.800687958878
 20
3727.200385048951
 30
0.0
 11
6762.200687958877
 21
3727.200385048951
 31
0.0
  0
LINE
  5
17AC21874A38C9
330
17AC21874A2FC9
100
AcDbEntity
  8
0
100
AcDbLine
 10
6758.000687958878
 20
3740.200385048951
 30
0.0
 11
6734.000687958877
 21
3740.200385048951
 31
0.0
  0
LINE
  5
17AC21874A38CA
330
17AC21874A2FC9
100
AcDbEntity
  8
0
100
AcDbLine
 10
6734.000687958877
 20
3740.200385048951
 30
0.0
 11
6734.000687958877
 21
3727.200385048951
 31
0.0
  0
LINE
  5
17AC21874A38CB
330
17AC21874A2FC9
100
AcDbEntity
  8
0
100
AcDbLine
 10
6627.800687958878
 20
3515.600385048951
 30
0.0
 11
6762.200687958877
 21
3515.600385048951
 31
0.0
  0
LINE
  5
17AC21874A38CC
330
17AC21874A2FC9
100
AcDbEntity
  8
0
100
AcDbLine
 10
6794.200687958877
 20
3521.200385048951
 30
0.0
 11
6627.800687958878
 21
3521.200385048951
 31
0.0
  0
LINE
  5
17AC21874A38CD
330
17AC21874A2FC9
100
AcDbEntity
  8
0
100
AcDbLine
 10
6627.800687958878
 20
3521.200385048951
 30
0.0
 11
6627.800687958878
 21
3515.600385048951
 31
0.0
  0
LINE
  5
17AC21874A38CE
330
17AC21874A2FC9
100
AcDbEntity
  8
0
100
AcDbLine
 10
6758.000687958878
 20
3502.600385048951
 30
0.0
 11
6734.000687958877
 21
3502.600385048951
 31
0.0
  0
LINE
  5
17AC21874A38CF
330
17AC21874A2FC9
100
AcDbEntity
  8
0
100
AcDbLine
 10
6734.000687958877
 20
3502.600385048951
 30
0.0
 11
6734.000687958877
 21
3515.600385048951
 31
0.0
  0
LINE
  5
17AC21874A38D0
330
17AC21874A2FC9
100
AcDbEntity
  8
0
100
AcDbLine
 10
6794.200687958877
 20
3515.600385048951
 30
0.0
 11
6794.200687958877
 21
3521.200385048951
 31
0.0
  0
LINE
  5
17AC21874A38D1
330
17AC21874A2FC9
100
AcDbEntity
  8
0
100
AcDbLine
 10
6782.000687958877
 20
3515.600385048951
 30
0.0
 11
6794.200687958877
 21
3515.600385048951
 31
0.0
  0
LINE
  5
17AC21874A38D2
330
17AC21874A2FC9
100
AcDbEntity
  8
0
100
AcDbLine
 10
6782.000687958877
 20
3515.600385048951
 30
0.0
 11
6758.000687958878
 21
3515.600385048951
 31
0.0
  0
LINE
  5
17AC21874A38D3
330
17AC21874A2FC9
100
AcDbEntity
  8
0
100
AcDbLine
 10
6782.000687958877
 20
3502.600385048951
 30
0.0
 11
6782.000687958877
 21
3515.600385048951
 31
0.0
  0
LINE
  5
17AC21874A38D4
330
17AC21874A2FC9
100
AcDbEntity
  8
0
100
AcDbLine
 10
6758.000687958878
 20
3502.600385048951
 30
0.0
 11
6782.000687958877
 21
3502.600385048951
 31
0.0
  0
LINE
  5
17AC21874A38D5
330
17AC21874A2FC9
100
AcDbEntity
  8
0
100
AcDbLine
 10
6628.000687958875
 20
3727.200385048951
 30
0.0
 11
6628.000687958875
 21
3515.600385048951
 31
0.0
  0
LINE
  5
17AC21874A38D6
330
17AC21874A2FC9
100
AcDbEntity
  8
0
100
AcDbLine
 10
6801.600687958877
 20
3721.200385048951
 30
0.0
 11
6801.600687958877
 21
3521.400385048951
 31
0.0
  0
LINE
  5
17AC21874A38D7
330
17AC21874A2FC9
100
AcDbEntity
  8
0
100
AcDbLine
 10
6714.000687958876
 20
3721.200385048951
 30
0.0
 11
6714.000687958876
 21
3521.400385048951
 31
0.0
  0
LINE
  5
17AC21874A38D8
330
17AC21874A2FC9
100
AcDbEntity
  8
ASSE
100
AcDbLine
 39
0.1234
 10
6758.000687958876
 20
3491.200385048951
 30
0.0
 11
6758.000687958876
 21
4300.433726024574
 31
0.0
  0
LINE
  5
17AC21874A38D9
330
17AC21874A2FC9
100
AcDbEntity
  8
ASSE
 62
     1
100
AcDbLine
 39
0.1234
 10
6848.000687958874
 20
3504.800385048951
 30
0.0
 11
6848.000687958874
 21
3834.200385048951
 31
0.0
  0
LINE
  5
17AC21874A38DA
330
17AC21874A2FC9
100
AcDbEntity
  8
ASSE
 62
     1
100
AcDbLine
 39
0.1234
 10
7018.000687958876
 20
3504.800385048951
 30
0.0
 11
7018.000687958876
 21
3832.200385048951
 31
0.0
  0
LINE
  5
17AC21874A38DD
330
17AC21874A2FC9
100
AcDbEntity
  8
ASSE
100
AcDbLine
 39
0.1234
 10
6881.827522340453
 20
4187.60038504895
 30
0.0
 11
6649.136864342572
 21
4187.60038504895
 31
0.0
  0
CIRCLE
  5
17AC21874A38DE
330
17AC21874A2FC9
100
AcDbEntity
  8
0
100
AcDbCircle
 10
6758.000687958876
 20
4187.60038504895
 30
0.0
 40
84.90000000000055
  0
CIRCLE
  5
17AC21874A38DF
330
17AC21874A2FC9
100
AcDbEntity
  8
0
100
AcDbCircle
 10
6758.000687958876
 20
4187.60038504895
 30
0.0
 40
70.40000000000055
  0
CIRCLE
  5
17AC21874A38E0
330
17AC21874A2FC9
100
AcDbEntity
  8
0
100
AcDbCircle
 10
6758.000687958876
 20
4187.60038504895
 30
0.0
 40
21.10000000000036
  0
LINE
  5
17AC21874A38E1
330
17AC21874A2FC9
100
AcDbEntity
  8
0
100
AcDbLine
 10
6702.628462052152
 20
4177.108645529931
 30
0.0
 11
6734.400687958878
 21
4195.452348709931
 31
0.0
  0
LINE
  5
17AC21874A38E2
330
17AC21874A2FC9
100
AcDbEntity
  8
0
100
AcDbLine
 10
6721.228462052152
 20
4144.892500509149
 30
0.0
 11
6753.000687958878
 21
4163.23620368915
 31
0.0
  0
ARC
  5
17AC21874A38E3
330
17AC21874A2FC9
100
AcDbEntity
  8
0
100
AcDbCircle
 10
6726.228462052151
 20
4136.232246471304
 30
0.0
 40
10.0
100
AcDbArc
 50
120.0
 51
238.2623762288231
  0
ARC
  5
17AC21874A38E4
330
17AC21874A2FC9
100
AcDbEntity
  8
0
100
AcDbCircle
 10
6697.628462052152
 20
4185.768899567775
 30
0.0
 40
10.0
100
AcDbArc
 50
181.7376237711723
 51
300.0
  0
LINE
  5
17AC21874A38E5
330
17AC21874A2FC9
100
AcDbEntity
  8
0
100
AcDbLine
 10
6739.400687958877
 20
4240.800009107774
 30
0.0
 11
6739.400687958877
 21
4204.112602747776
 31
0.0
  0
ARC
  5
17AC21874A38E6
330
17AC21874A2FC9
100
AcDbEntity
  8
0
100
AcDbCircle
 10
6729.400687958876
 20
4240.800009107774
 30
0.0
 40
10.0
100
AcDbArc
 50
0.0
 51
118.2623762288231
  0
LINE
  5
17AC21874A38E7
330
17AC21874A2FC9
100
AcDbEntity
  8
0
100
AcDbLine
 10
6776.600687958877
 20
4240.800009107773
 30
0.0
 11
6776.600687958877
 21
4204.112602747776
 31
0.0
  0
ARC
  5
17AC21874A38E8
330
17AC21874A2FC9
100
AcDbEntity
  8
0
100
AcDbCircle
 10
6786.600687958878
 20
4240.800009107773
 30
0.0
 40
10.0
100
AcDbArc
 50
61.73762377117229
 51
180.0
  0
LINE
  5
17AC21874A38E9
330
17AC21874A2FC9
100
AcDbEntity
  8
0
100
AcDbLine
 10
6794.772913865603
 20
4144.892500509149
 30
0.0
 11
6763.000687958878
 21
4163.23620368915
 31
0.0
  0
ARC
  5
17AC21874A38EA
330
17AC21874A2FC9
100
AcDbEntity
  8
0
100
AcDbCircle
 10
6789.772913865603
 20
4136.232246471304
 30
0.0
 40
10.0
100
AcDbArc
 50
301.7376237711768
 51
60.0
  0
ARC
  5
17AC21874A38EB
330
17AC21874A2FC9
100
AcDbEntity
  8
0
100
AcDbCircle
 10
6818.372913865601
 20
4185.768899567775
 30
0.0
 40
10.0
100
AcDbArc
 50
240.0
 51
358.2623762288277
  0
LINE
  5
17AC21874A38EC
330
17AC21874A2FC9
100
AcDbEntity
  8
0
100
AcDbLine
 10
6813.372913865602
 20
4177.108645529931
 30
0.0
 11
6781.600687958878
 21
4195.452348709932
 31
0.0
  0
ARC
  5
17AC21874A38ED
330
17AC21874A2FC9
100
AcDbEntity
  8
0
100
AcDbCircle
 10
6729.400687958876
 20
4204.112602747776
 30
0.0
 40
10.0
100
AcDbArc
 50
299.9999999999994
 51
0.0
  0
ARC
  5
17AC21874A38EE
330
17AC21874A2FC9
100
AcDbEntity
  8
0
100
AcDbCircle
 10
6786.600687958878
 20
4204.112602747776
 30
0.0
 40
10.0
100
AcDbArc
 50
180.0
 51
240.0000000000004
  0
ARC
  5
17AC21874A38EF
330
17AC21874A2FC9
100
AcDbEntity
  8
0
100
AcDbCircle
 10
6758.000687958878
 20
4154.575949651305
 30
0.0
 40
10.0
100
AcDbArc
 50
60.00000000000049
 51
119.9999999999995
  0
LINE
  5
17AC21874A38F3
330
17AC21874A2FC9
100
AcDbEntity
  8
ASSE
100
AcDbLine
 39
0.1234
 10
6920.253509543863
 20
3967.600385048951
 30
0.0
 11
6602.171780537791
 21
3967.600385048951
 31
0.0
  0
LINE
  5
17AC21874A38F6
330
17AC21874A2FC9
100
AcDbEntity
  8
0
100
AcDbLine
 10
6847.693801619765
 20
3951.123068446243
 30
0.0
 11
6825.255941734816
 21
3887.304631362864
 31
0.0
  0
LINE
  5
17AC21874A38F7
330
17AC21874A2FC9
100
AcDbEntity
  8
0
100
AcDbLine
 10
6847.693801619765
 20
3951.123068446243
 30
0.0
 11
6847.693801619765
 21
4044.263498694172
 31
0.0
  0
LINE
  5
17AC21874A38F8
330
17AC21874A2FC9
100
AcDbEntity
  8
0
100
AcDbLine
 10
6847.693801619765
 20
4044.263498694172
 30
0.0
 11
6821.627976027968
 21
4131.390259511172
 31
0.0
  0
LINE
  5
17AC21874A38F9
330
17AC21874A2FC9
100
AcDbEntity
  8
0
100
AcDbLine
 10
6797.640108126735
 20
4211.571308132872
 30
0.0
 11
6776.600687958877
 21
4211.210149064131
 31
0.0
  0
LINE
  5
17AC21874A38FA
330
17AC21874A2FC9
100
AcDbEntity
  8
0
100
AcDbLine
 10
6806.81816834158
 20
4180.893029622693
 30
0.0
 11
6797.640108126735
 21
4211.571308132872
 31
0.0
  0
LINE
  5
17AC21874A38FC
330
17AC21874A2FC9
100
AcDbEntity
  8
0
100
AcDbLine
 10
6709.477766725163
 20
4180.893029622693
 30
0.0
 11
6718.655826940008
 21
4211.571308132872
 31
0.0
  0
LINE
  5
17AC21874A38FD
330
17AC21874A2FC9
100
AcDbEntity
  8
0
100
AcDbLine
 10
6718.655826940008
 20
4211.571308132872
 30
0.0
 11
6739.695247107866
 21
4211.210149064131
 31
0.0
  0
LINE
  5
17AC21874A38FE
330
17AC21874A2FC9
100
AcDbEntity
  8
0
100
AcDbLine
 10
6668.602133446978
 20
4044.263498694172
 30
0.0
 11
6694.667959038774
 21
4131.390259511172
 31
0.0
  0
LINE
  5
17AC21874A38FF
330
17AC21874A2FC9
100
AcDbEntity
  8
0
100
AcDbLine
 10
6668.602133446978
 20
3951.123068446243
 30
0.0
 11
6668.602133446978
 21
4044.263498694172
 31
0.0
  0
LINE
  5
17AC21874A3900
330
17AC21874A2FC9
100
AcDbEntity
  8
0
100
AcDbLine
 10
6668.602133446978
 20
3951.123068446243
 30
0.0
 11
6691.039993331928
 21
3887.304631362864
 31
0.0
  0
ARC
  5
17AC21874A3901
330
17AC21874A2FC9
100
AcDbEntity
  8
0
100
AcDbCircle
 10
6758.000687958876
 20
3967.600385048951
 30
0.0
 40
130.0
100
AcDbArc
 50
129.2231768847638
 51
217.9798724448523
  0
ARC
  5
17AC21874A3905
330
17AC21874A2FC9
100
AcDbEntity
  8
0
100
AcDbCircle
 10
7033.81506688737
 20
3806.304419122817
 30
0.0
 40
202.5
100
AcDbArc
 50
289.7973513427197
 51
301.1841930444201
  0
ARC
  5
17AC21874A3906
330
17AC21874A2FC9
100
AcDbEntity
  8
0
100
AcDbCircle
 10
7033.888278634072
 20
3806.210521044778
 30
0.0
 40
229.5419434154636
100
AcDbArc
 50
287.3659991265608
 51
63.18564370039023
  0
LINE
  5
17AC21874A3907
330
17AC21874A2FC9
100
AcDbEntity
  8
0
100
AcDbLine
 10
7034.173909025042
 20
3521.600385048951
 30
0.0
 11
7034.173909025042
 21
3506.076569342897
 31
0.0
  0
LINE
  5
17AC21874A3908
330
17AC21874A2FC9
100
AcDbEntity
  8
0
100
AcDbLine
 10
7034.37849673397
 20
3521.600385048951
 30
0.0
 11
7034.37849673397
 21
3496.715705010242
 31
0.0
  0
LINE
  5
17AC21874A390A
330
17AC21874A2FC9
100
AcDbEntity
  8
0
100
AcDbLine
 10
6627.313906110041
 20
3670.581704060406
 30
0.0
 11
6464.990819636037
 21
3670.581704060406
 31
0.0
  0
LINE
  5
17AC21874A390B
330
17AC21874A2FC9
100
AcDbEntity
  8
0
100
AcDbLine
 10
6818.671623011397
 20
3521.600385048952
 30
0.0
 11
6780.446546248445
 21
3473.940951323853
 31
0.0
  0
LINE
  5
17AC21874A390C
330
17AC21874A2FC9
100
AcDbEntity
  8
0
100
AcDbLine
 10
6898.745733118794
 20
3521.600385048952
 30
0.0
 11
6860.520656355841
 21
3473.940951323853
 31
0.0
  0
LINE
  5
17AC21874A390D
330
17AC21874A2FC9
100
AcDbEntity
  8
0
100
AcDbLine
 10
6978.819843226189
 20
3521.600385048952
 30
0.0
 11
6940.594766463238
 21
3473.940951323853
 31
0.0
  0
LINE
  5
17AC21874A390E
330
17AC21874A2FC9
100
AcDbEntity
  8
0
100
AcDbLine
 10
7020.422326232908
 20
3521.600385048951
 30
0.0
 11
7020.422326232908
 21
3473.639937622909
 31
0.0
  0
LINE
  5
17AC21874A390F
330
17AC21874A2FC9
100
AcDbEntity
  8
0
100
AcDbLine
 10
6734.000687958877
 20
3515.443219813552
 30
0.0
 11
6700.37242508498
 21
3473.206853859159
 31
0.0
  0
LINE
  5
17AC21874A3910
330
17AC21874A2FC9
100
AcDbEntity
  8
0
100
AcDbLine
 10
6653.796727926485
 20
3515.600385048951
 30
0.0
 11
6621.032935479385
 21
3474.675048788547
 31
0.0
  0
LINE
  5
17AC21874A394D
330
17AC21874A2FC9
100
AcDbEntity
  8
ASSE
 62
     1
100
AcDbLine
 39
0.1234
 10
7866.800545546896
 20
4742.292810879935
 30
0.0
 11
7866.817456336459
 21
5649.603451265459
 31
0.0
  0
LINE
  5
17AC21874A394F
330
17AC21874A2FC9
100
AcDbEntity
  8
0
100
AcDbLine
 10
7766.88524430747
 20
5574.675100329891
 30
0.0
 11
7965.515077232005
 21
5575.071672219262
 31
0.0
  0
LINE
  5
17AC21874A3951
330
17AC21874A2FC9
100
AcDbEntity
  8
ASSE
 62
     1
100
AcDbLine
 39
0.1234
 10
7750.045599027443
 20
4778.291122581766
 30
0.0
 11
7750.579235441098
 21
4511.010171693669
 31
0.0
  0
LINE
  5
17AC21874A3952
330
17AC21874A2FC9
100
AcDbEntity
  8
0
100
AcDbLine
 10
7618.085915236736
 20
4906.165354683746
 30
0.0
 11
7618.605862018577
 21
4645.741090698661
 31
0.0
  0
LINE
  5
17AC21874A3953
330
17AC21874A2FC9
100
AcDbEntity
  8
ASSE
 62
     1
100
AcDbLine
 39
0.1234
 10
7601.281425309456
 20
4732.334587155732
 30
0.0
 11
7889.213944172786
 21
4566.294917033432
 31
0.0
  0
LINE
  5
17AC21874A3954
330
17AC21874A2FC9
100
AcDbEntity
  8
ASSE
 62
     1
100
AcDbLine
 39
0.1234
 10
7885.426493605606
 20
4646.665891471715
 30
0.0
 11
7618.337461096571
 21
4646.132638230281
 31
0.0
  0
LINE
  5
17AC21874A3955
330
17AC21874A2FC9
100
AcDbEntity
  8
ASSE
100
AcDbLine
 10
7750.048630006479
 20
4646.607719596353
 30
0.0
 11
7867.821637513426
 21
4849.772351679146
 31
0.0
  0
ARC
  5
17AC21874A3957
330
17AC21874A2FC9
100
AcDbEntity
  8
0
100
AcDbCircle
 10
7749.28839606346
 20
4646.318343133993
 30
0.0
 40
130.622394712605
100
AcDbArc
 50
180.1936769712149
 51
296.3671793647713
  0
LINE
  5
17AC21874A3958
330
17AC21874A2FC9
100
AcDbEntity
  8
ASSE
 62
     1
100
AcDbLine
 39
0.1234
 10
8045.832748832498
 20
4849.920652874221
 30
0.0
 11
7749.188138099061
 21
4849.328390815604
 31
0.0
  0
CIRCLE
  5
17AC21874A3959
330
17AC21874A2FC9
100
AcDbEntity
  8
0
100
AcDbCircle
 10
7867.687058759975
 20
4849.564978342076
 30
0.0
 40
117.5
  0
LINE
  5
17AC21874A395B
330
17AC21874A2FC9
100
AcDbEntity
  8
0
100
AcDbLine
 10
7767.663499898121
 20
4974.675458299001
 30
0.0
 11
7965.466966607036
 21
4975.070380317323
 31
0.0
  0
LINE
  5
17AC21874A395C
330
17AC21874A2FC9
100
AcDbEntity
  8
ASSE
 62
     1
100
AcDbLine
 39
0.1234
 10
7707.665505706657
 20
4936.905183505525
 30
0.0
 11
7707.91564777535
 21
4811.617237880986
 31
0.0
  0
CIRCLE
  5
17AC21874A395D
330
17AC21874A2FC9
100
AcDbEntity
  8
0
100
AcDbCircle
 10
7707.783581134205
 20
4877.765080349607
 30
0.0
 40
45.0
  0
LINE
  5
17AC21874A395F
330
17AC21874A2FC9
100
AcDbEntity
  8
ASSE
 62
     1
100
AcDbLine
 39
0.1234
 10
7770.616910237821
 20
4877.890529440872
 30
0.0
 11
7647.17608968043
 21
4877.644075226452
 31
0.0
  0
LINE
  5
17AC21874A3960
330
17AC21874A2FC9
100
AcDbEntity
  8
0
100
AcDbLine
 10
7807.300677515001
 20
4529.285077772205
 30
0.0
 11
8099.708517008675
 21
4814.234530200005
 31
0.0
  0
ARC
  5
17AC21874A3963
330
17AC21874A2FC9
100
AcDbEntity
  8
0
100
AcDbCircle
 10
8044.43721932655
 20
4869.271641793307
 30
0.0
 40
78.0
100
AcDbArc
 50
315.1216394510581
 51
45.09381630802522
  0
CIRCLE
  5
17AC21874A3964
330
17AC21874A2FC9
100
AcDbEntity
  8
0
100
AcDbCircle
 10
7750.307617877503
 20
4647.054487295032
 30
0.0
 40
116.9306114932813
  0
LINE
  5
17AC21874A3965
330
17AC21874A2FC9
100
AcDbEntity
  8
0
100
AcDbLine
 10
8845.156618001954
 20
4407.765362967569
 30
0.0
 11
9186.897463913947
 21
4407.737990516018
 31
0.0
  0
LINE
  5
17AC21874A3966
330
17AC21874A2FC9
100
AcDbEntity
  8
ASSE
 62
     1
100
AcDbLine
 39
0.1234
 10
8612.404214289712
 20
4506.431834272023
 30
0.0
 11
9519.714854675235
 21
4506.414923482459
 31
0.0
  0
LINE
  5
17AC21874A3967
330
17AC21874A2FC9
100
AcDbEntity
  8
0
100
AcDbLine
 10
8844.786861708781
 20
4605.568879920796
 30
0.0
 11
9186.790816408864
 21
4606.012491001745
 31
0.0
  0
CIRCLE
  5
17AC21874A3968
330
17AC21874A2FC9
100
AcDbEntity
  8
0
100
AcDbCircle
 10
8517.165890704811
 20
4622.924761941415
 30
0.0
 40
116.9306114932813
  0
CIRCLE
  5
17AC21874A3969
330
17AC21874A2FC9
100
AcDbEntity
  8
0
100
AcDbCircle
 10
8747.876483759386
 20
4665.448798684712
 30
0.0
 40
45.0
  0
LINE
  5
17AC21874A396A
330
17AC21874A2FC9
100
AcDbEntity
  8
ASSE
 62
     1
100
AcDbLine
 39
0.1234
 10
8748.00193285065
 20
4602.615469581096
 30
0.0
 11
8747.75547863623
 21
4726.056290138489
 31
0.0
  0
LINE
  5
17AC21874A396B
330
17AC21874A2FC9
100
AcDbEntity
  8
0
100
AcDbLine
 10
8932.740177867579
 20
4601.205522876601
 30
0.0
 11
8778.181166309131
 21
4754.490613324247
 31
0.0
  0
LINE
  5
17AC21874A396C
330
17AC21874A2FC9
100
AcDbEntity
  8
ASSE
 62
     1
100
AcDbLine
 39
0.1234
 10
8602.445990565509
 20
4771.950954509462
 30
0.0
 11
8436.406320443211
 21
4484.018435646132
 31
0.0
  0
LINE
  5
17AC21874A396D
330
17AC21874A2FC9
100
AcDbEntity
  8
ASSE
 62
     1
100
AcDbLine
 39
0.1234
 10
8516.777294881492
 20
4487.805886213311
 30
0.0
 11
8516.24404164006
 21
4754.894918722347
 31
0.0
  0
ARC
  5
17AC21874A396E
330
17AC21874A2FC9
100
AcDbEntity
  8
0
100
AcDbCircle
 10
8516.429746543769
 20
4623.943983755459
 30
0.0
 40
130.622394712605
100
AcDbArc
 50
90.19367697121493
 51
206.3671793647713
  0
LINE
  5
17AC21874A396F
330
17AC21874A2FC9
100
AcDbEntity
  8
ASSE
 62
     1
100
AcDbLine
 39
0.1234
 10
8648.402525991546
 20
4623.186780791475
 30
0.0
 11
8381.121575103447
 21
4622.653144377819
 31
0.0
  0
LINE
  5
17AC21874A3970
330
17AC21874A2FC9
100
AcDbEntity
  8
0
100
AcDbLine
 10
8399.396481181986
 20
4565.931702303918
 30
0.0
 11
8684.345933609783
 21
4273.523862810243
 31
0.0
  0
LINE
  5
17AC21874A3971
330
17AC21874A2FC9
100
AcDbEntity
  8
0
100
AcDbLine
 10
8844.786861708781
 20
4605.568879920796
 30
0.0
 11
8845.181783727101
 21
4407.765413211882
 31
0.0
  0
LINE
  5
17AC21874A3972
330
17AC21874A2FC9
100
AcDbEntity
  8
ASSE
 62
     1
100
AcDbLine
 39
0.1234
 10
8720.032056283999
 20
4327.399630986421
 30
0.0
 11
8719.439794225381
 21
4624.044241719857
 31
0.0
  0
CIRCLE
  5
17AC21874A3973
330
17AC21874A2FC9
100
AcDbEntity
  8
0
100
AcDbCircle
 10
8719.676381751854
 20
4505.545321058943
 30
0.0
 40
117.5
  0
ARC
  5
17AC21874A3974
330
17AC21874A2FC9
100
AcDbEntity
  8
0
100
AcDbCircle
 10
8739.383045203085
 20
4328.795160492368
 30
0.0
 40
78.0
100
AcDbArc
 50
225.1216394510581
 51
315.0938163080251
  0
LINE
  5
17AC21874A3975
330
17AC21874A2FC9
100
AcDbEntity
  8
0
100
AcDbLine
 10
8927.993048672806
 20
4407.828247743457
 30
0.0
 11
8794.627610047848
 21
4273.731215345722
 31
0.0
  0
LINE
  5
17AC21874A3976
330
17AC21874A2FC9
100
AcDbEntity
  8
ASSE
 62
     1
100
AcDbLine
 39
0.1234
 10
8807.016586915302
 20
4665.56687411226
 30
0.0
 11
8681.728641290765
 21
4665.316732043567
 31
0.0
  0
LINE
  5
17AC21874A3977
330
17AC21874A2FC9
100
AcDbEntity
  8
ASSE
100
AcDbLine
 10
8516.719123006133
 20
4623.183749812438
 30
0.0
 11
8719.883755088925
 21
4505.410742305492
 31
0.0
  0
LINE
  5
17AC21874A3978
330
17AC21874A2FC9
100
AcDbEntity
  8
0
100
AcDbLine
 10
8776.276758093525
 20
4755.146464582182
 30
0.0
 11
8515.85249410844
 21
4754.626517800342
 31
0.0
  0
LINE
  5
17AC21874A3979
330
17AC21874A2FC9
100
AcDbEntity
  8
0
100
AcDbLine
 10
9444.786503739669
 20
4606.347135511447
 30
0.0
 11
9445.18307562904
 21
4407.717302586912
 31
0.0
  0
LINE
  5
17AC21874A39D2
330
17AC21874A2FC9
100
AcDbEntity
  8
0
100
AcDbLine
 10
7767.555264506402
 20
5058.120019529522
 30
0.0
 11
7618.741766494672
 21
4908.069762899353
 31
0.0
  0
LINE
  5
17AC21874A39D3
330
17AC21874A2FC9
100
AcDbEntity
  8
0
100
AcDbLine
 10
7965.40413207546
 20
5057.881645263027
 30
0.0
 11
8099.501164473197
 21
4924.516206638069
 31
0.0
  0
LINE
  5
17AC21874A39D4
330
17AC21874A2FC9
100
AcDbEntity
  8
0
100
AcDbLine
 10
7965.466966607036
 20
4975.070380317323
 30
0.0
 11
7965.489657118432
 21
5258.05020360152
 31
0.0
  0
LINE
  5
17AC21874A39D5
330
17AC21874A2FC9
100
AcDbEntity
  8
0
100
AcDbLine
 10
7767.663499898121
 20
4974.675458299001
 30
0.0
 11
7767.296033906787
 21
5257.975014264787
 31
0.0
  0
LINE
  5
17AC21874A3A58
330
17AC21874A2FC9
100
AcDbEntity
  8
0
 62
     0
100
AcDbLine
 10
6501.110221273269
 20
3300.906236214796
 30
0.0
 11
8721.875557292211
 21
3301.102518089651
 31
0.0
  0
LINE
  5
17AC21874A3A59
330
17AC21874A2FC9
100
AcDbEntity
  8
0
 62
     0
100
AcDbLine
 10
6500.795551229711
 20
3330.906236214797
 30
0.0
 11
8721.875557292211
 21
3330.806230719294
 31
0.0
  0
LINE
  5
17AC21874A3A5A
330
17AC21874A2FC9
100
AcDbEntity
  8
0
  6
Continuous
 62
     0
100
AcDbLine
 10
9225.889260365214
 20
3292.937450512564
 30
0.0
 11
6295.708998057541
 21
3292.906236214797
 31
0.0
  0
LINE
  5
17AC21874A3A5B
330
17AC21874A2FC9
100
AcDbEntity
  8
0
 62
     0
100
AcDbLine
 10
6499.637421398538
 20
5287.49396995548
 30
0.0
 11
9019.307968663557
 21
5288.44999396106
 31
0.0
  0
LINE
  5
17AC21874A3A5C
330
17AC21874A2FC9
100
AcDbEntity
  8
0
 62
     0
100
AcDbLine
 10
9019.307968663557
 20
5258.449993961058
 30
0.0
 11
6499.298220259989
 21
5257.493969955479
 31
0.0
  0
LINE
  5
17AC21874A3A5D
330
17AC21874A2FC9
100
AcDbEntity
  8
0
  6
Continuous
 62
     0
100
AcDbLine
 10
6295.716140243514
 20
5295.788189190711
 30
0.0
 11
9225.456167050579
 21
5295.525184253248
 31
0.0
  0
LWPOLYLINE
  5
17AC21874A3A5E
330
17AC21874A2FC9
100
AcDbEntity
  8
0
 62
     0
100
AcDbPolyline
 90
        4
 70
     1
 43
0.0
 10
4868.410902119149
 20
2617.698062988408
 10
9854.410902119148
 20
2617.698062988408
 10
9854.410902119148
 20
6037.698062988408
 10
4868.410902119149
 20
6037.698062988408
  0
LWPOLYLINE
  5
17AC21874A3A5F
330
17AC21874A2FC9
100
AcDbEntity
  8
0
 62
     0
100
AcDbPolyline
 90
        4
 70
     1
 43
0.0
 10
4778.410902119149
 20
2527.698062988408
 10
9944.41090211915
 20
2527.698062988408
 10
9944.41090211915
 20
6127.698062988407
 10
4778.410902119149
 20
6127.698062988407
  0
LINE
  5
17AC21874A3A60
330
17AC21874A2FC9
100
AcDbEntity
  8
0
 62
     0
100
AcDbLine
 10
6295.716140243514
 20
5295.788189190711
 30
0.0
 11
6295.708998057541
 21
3292.906236214797
 31
0.0
  0
LINE
  5
17AC21874A3A61
330
17AC21874A2FC9
100
AcDbEntity
  8
0
 62
     0
100
AcDbLine
 10
6332.780277949476
 20
5090.177270643991
 30
0.0
 11
6332.773135763503
 21
3498.350931439948
 31
0.0
  0
LINE
  5
17AC21874A3A62
330
17AC21874A2FC9
100
AcDbEntity
  8
0
 62
     0
100
AcDbLine
 10
6302.775789412369
 20
3368.034035312962
 30
0.0
 11
6302.780277949477
 21
5090.177270643991
 31
0.0
  0
INSERT
  5
17AC21874A3A65
330
17AC21874A2FC9
100
AcDbEntity
  8
0
 62
     0
100
AcDbBlockReference
  2
A$C6
 10
4907.54228589665
 20
2647.906955564693
 30
0.0
 41
1.199999999999999
 42
1.199999999999999
 43
1.199999999999999
  0
LINE
  5
17AC21874A3A69
330
17AC21874A2FC9
100
AcDbEntity
  8
0
  6
Continuous
 62
     0
100
AcDbLine
 10
6501.110221273269
 20
3300.906236214796
 30
0.0
 11
6302.659644571475
 21
3300.906236214796
 31
0.0
  0
LINE
  5
17AC21874A3A6A
330
17AC21874A2FC9
100
AcDbEntity
  8
0
  6
Continuous
 62
     0
100
AcDbLine
 10
6302.773135763504
 20
3499.492750644213
 30
0.0
 11
6302.773135763504
 21
3300.906236214796
 31
0.0
  0
LINE
  5
17AC21874A3A6B
330
17AC21874A2FC9
100
AcDbEntity
  8
0
  6
Continuous
 62
     0
100
AcDbLine
 10
6329.773135763503
 20
3501.350931439948
 30
0.0
 11
6305.773135763504
 21
3501.350931439948
 31
0.0
  0
ARC
  5
17AC21874A3A6C
330
17AC21874A2FC9
100
AcDbEntity
  8
0
  6
Continuous
 62
     0
100
AcDbCircle
 10
6305.773135763504
 20
3498.350931439948
 30
0.0
 40
3.000000000000002
100
AcDbArc
 50
90.0
 51
180.0
  0
ARC
  5
17AC21874A3A6D
330
17AC21874A2FC9
100
AcDbEntity
  8
0
  6
Continuous
 62
     0
100
AcDbCircle
 10
6329.773135763503
 20
3498.350931439948
 30
0.0
 40
3.000000000000002
100
AcDbArc
 50
0.0
 51
90.0
  0
LINE
  5
17AC21874A3A6E
330
17AC21874A2FC9
100
AcDbEntity
  8
0
  6
Continuous
 62
     0
100
AcDbLine
 10
6332.773135763503
 20
3498.350931439948
 30
0.0
 11
6332.773135763503
 21
3471.350931439947
 31
0.0
  0
LINE
  5
17AC21874A3A71
330
17AC21874A2FC9
100
AcDbEntity
  8
0
  6
Continuous
 62
     0
100
AcDbLine
 10
6503.795551229711
 20
3327.906236214797
 30
0.0
 11
6503.795551229711
 21
3303.906236214797
 31
0.0
  0
ARC
  5
17AC21874A3A72
330
17AC21874A2FC9
100
AcDbEntity
  8
0
  6
Continuous
 62
     0
100
AcDbCircle
 10
6500.795551229711
 20
3303.906236214797
 30
0.0
 40
3.000000000000002
100
AcDbArc
 50
270.0
 51
0.0
  0
ARC
  5
17AC21874A3A73
330
17AC21874A2FC9
100
AcDbEntity
  8
0
  6
Continuous
 62
     0
100
AcDbCircle
 10
6500.795551229711
 20
3327.906236214797
 30
0.0
 40
3.000000000000002
100
AcDbArc
 50
0.0
 51
90.0
  0
LINE
  5
17AC21874A3A74
330
17AC21874A2FC9
100
AcDbEntity
  8
0
  6
Continuous
 62
     0
100
AcDbLine
 10
6476.795551229712
 20
3330.906236214797
 30
0.0
 11
6500.795551229711
 21
3330.906236214797
 31
0.0
  0
LINE
  5
17AC21874A3AA4
330
17AC21874A2FC9
100
AcDbEntity
  8
0
  6
Continuous
 62
     0
100
AcDbLine
 10
6302.780277949477
 20
5090.177270643991
 30
0.0
 11
6302.780277949477
 21
5287.588046962863
 31
0.0
  0
LINE
  5
17AC21874A3AAA
330
17AC21874A2FC9
100
AcDbEntity
  8
0
  6
Continuous
 62
     0
100
AcDbLine
 10
6332.780277949476
 20
5090.177270643991
 30
0.0
 11
6332.780277949476
 21
5117.177270643992
 31
0.0
  0
LINE
  5
17AC21874A3AAB
330
17AC21874A2FC9
100
AcDbEntity
  8
0
  6
Continuous
 62
     0
100
AcDbLine
 10
6329.780277949476
 20
5087.177270643991
 30
0.0
 11
6305.780277949476
 21
5087.177270643991
 31
0.0
  0
ARC
  5
17AC21874A3AAC
330
17AC21874A2FC9
100
AcDbEntity
  8
0
  6
Continuous
 62
     0
100
AcDbCircle
 10
6305.780277949476
 20
5090.177270643991
 30
0.0
 40
3.000000000000002
100
AcDbArc
 50
180.0
 51
270.0
  0
ARC
  5
17AC21874A3AAD
330
17AC21874A2FC9
100
AcDbEntity
  8
0
  6
Continuous
 62
     0
100
AcDbCircle
 10
6329.780277949476
 20
5090.177270643991
 30
0.0
 40
3.000000000000002
100
AcDbArc
 50
270.0
 51
0.0
  0
LINE
  5
17AC21874A3AAE
330
17AC21874A2FC9
100
AcDbEntity
  8
0
  6
Continuous
 62
     0
100
AcDbLine
 10
6472.29822025999
 20
5257.493969955479
 30
0.0
 11
6499.298220259989
 21
5257.493969955479
 31
0.0
  0
LINE
  5
17AC21874A3AAF
330
17AC21874A2FC9
100
AcDbEntity
  8
0
  6
Continuous
 62
     0
100
AcDbLine
 10
6302.715235182937
 20
5287.49396995548
 30
0.0
 11
6499.637421398538
 21
5287.49396995548
 31
0.0
  0
LINE
  5
17AC21874A3AB2
330
17AC21874A2FC9
100
AcDbEntity
  8
0
  6
Continuous
 62
     0
100
AcDbLine
 10
6502.298220259989
 20
5260.493969955479
 30
0.0
 11
6502.298220259989
 21
5284.49396995548
 31
0.0
  0
ARC
  5
17AC21874A3AB3
330
17AC21874A2FC9
100
AcDbEntity
  8
0
  6
Continuous
 62
     0
100
AcDbCircle
 10
6499.298220259989
 20
5260.493969955479
 30
0.0
 40
3.000000000000002
100
AcDbArc
 50
270.0
 51
0.0
  0
ARC
  5
17AC21874A3AB4
330
17AC21874A2FC9
100
AcDbEntity
  8
0
  6
Continuous
 62
     0
100
AcDbCircle
 10
6499.298220259989
 20
5284.49396995548
 30
0.0
 40
3.000000000000002
100
AcDbArc
 50
0.0
 51
90.0
  0
LINE
  5
17AC21874A3ABA
330
17AC21874A2FC9
100
AcDbEntity
  8
0
  6
Continuous
 62
     0
100
AcDbLine
 10
9225.456167050579
 20
5295.525184253248
 30
0.0
 11
9225.889260365214
 21
3292.937450512564
 31
0.0
  0
LINE
  5
17AC21874A3ABB
330
17AC21874A2FC9
100
AcDbEntity
  8
0
 62
     0
100
AcDbLine
 10
9216.529859874269
 20
5091.171768805454
 30
0.0
 11
9217.485588613328
 21
3371.371123255002
 31
0.0
  0
LINE
  5
17AC21874A3ABC
330
17AC21874A2FC9
100
AcDbEntity
  8
0
 62
     0
100
AcDbLine
 10
9187.384808321146
 20
3501.688019381988
 30
0.0
 11
9186.529859874267
 21
5091.171768805454
 31
0.0
  0
LINE
  5
17AC21874A3ABD
330
17AC21874A2FC9
100
AcDbEntity
  8
0
  6
Continuous
 62
     0
100
AcDbLine
 10
9217.184425656048
 20
3300.937450512564
 30
0.0
 11
8721.875557292211
 21
3301.102518089651
 31
0.0
  0
MTEXT
  5
17AC21874A3ABE
330
17AC21874A2FC9
100
AcDbEntity
  8
0
 62
     0
100
AcDbMText
 10
8747.651805454557
 20
3475.531918191824
 30
0.0
 40
60.0
 41
495.31
 71
     1
 72
     5
  1
 Quadro \Pelettrico
 73
     1
 44
1.0
1001
ACAD
1000
MTEXTBEGIN
1070
    73
1070
     1
1070
    44
1040
1.0
1070
    74
1070
     0
1000
MTEXTEND
  0
LINE
  5
17AC21874A3ABF
330
17AC21874A2FC9
100
AcDbEntity
  8
0
 62
     0
100
AcDbLine
 10
9217.482934964463
 20
3501.688019381988
 30
0.0
 11
8721.875557292211
 21
3501.688019381988
 31
0.0
  0
LINE
  5
17AC21874A3AC0
330
17AC21874A2FC9
100
AcDbEntity
  8
0
 62
     0
100
AcDbLine
 10
8721.875557292211
 20
3501.688019381988
 30
0.0
 11
8721.875557292211
 21
3301.102518089651
 31
0.0
  0
LINE
  5
17AC21874A3AC1
330
17AC21874A2FC9
100
AcDbEntity
  8
0
  6
Continuous
 62
     0
100
AcDbLine
 10
9217.482934964463
 20
3501.688019381988
 30
0.0
 11
9217.449024864604
 21
3300.882094325084
 31
0.0
  0
LINE
  5
17AC21874A3AC2
330
17AC21874A2FC9
100
AcDbEntity
  8
0
  6
Continuous
 62
     0
100
AcDbLine
 10
9216.529859874269
 20
5090.901944810499
 30
0.0
 11
9216.529859874269
 21
5288.468821045137
 31
0.0
  0
LINE
  5
17AC21874A3AC3
330
17AC21874A2FC9
100
AcDbEntity
  8
0
  6
Continuous
 62
     0
100
AcDbLine
 10
9186.529859874267
 20
5091.171768805454
 30
0.0
 11
9186.529859874267
 21
5115.171768805454
 31
0.0
  0
LINE
  5
17AC21874A3AC4
330
17AC21874A2FC9
100
AcDbEntity
  8
0
  6
Continuous
 62
     0
100
AcDbLine
 10
9213.529859874268
 20
5088.171768805454
 30
0.0
 11
9189.529859874268
 21
5088.171768805454
 31
0.0
  0
ARC
  5
17AC21874A3AC5
330
17AC21874A2FC9
100
AcDbEntity
  8
0
  6
Continuous
 62
     0
100
AcDbCircle
 10
9189.529859874268
 20
5091.171768805454
 30
0.0
 40
3.000000000000002
100
AcDbArc
 50
180.0
 51
270.0
  0
ARC
  5
17AC21874A3AC6
330
17AC21874A2FC9
100
AcDbEntity
  8
0
  6
Continuous
 62
     0
100
AcDbCircle
 10
9213.529859874268
 20
5091.171768805454
 30
0.0
 40
3.000000000000002
100
AcDbArc
 50
270.0
 51
0.0
  0
LINE
  5
17AC21874A3AC7
330
17AC21874A2FC9
100
AcDbEntity
  8
0
  6
Continuous
 62
     0
100
AcDbLine
 10
9216.529859874269
 20
5288.449993961059
 30
0.0
 11
9018.625855606718
 21
5288.449993961059
 31
0.0
  0
LINE
  5
17AC21874A3AC8
330
17AC21874A2FC9
100
AcDbEntity
  8
0
  6
Continuous
 62
     0
100
AcDbLine
 10
9016.307968663557
 20
5285.449993961059
 30
0.0
 11
9016.307968663557
 21
5261.449993961059
 31
0.0
  0
LINE
  5
17AC21874A3AC9
330
17AC21874A2FC9
100
AcDbEntity
  8
0
  6
Continuous
 62
     0
100
AcDbLine
 10
9019.307968663557
 20
5258.449993961058
 30
0.0
 11
9046.307968663558
 21
5258.449993961058
 31
0.0
  0
ARC
  5
17AC21874A3ACA
330
17AC21874A2FC9
100
AcDbEntity
  8
0
  6
Continuous
 62
     0
100
AcDbCircle
 10
9019.307968663557
 20
5261.449993961059
 30
0.0
 40
3.000000000000002
100
AcDbArc
 50
180.0
 51
270.0
  0
ARC
  5
17AC21874A3ACB
330
17AC21874A2FC9
100
AcDbEntity
  8
0
  6
Continuous
 62
     0
100
AcDbCircle
 10
9019.307968663557
 20
5285.449993961059
 30
0.0
 40
3.000000000000002
100
AcDbArc
 50
90.0
 51
180.0
  0
LINE
  5
17AC21874A3AD5
330
17AC21874A2FC9
100
AcDbEntity
  8
0
100
AcDbLine
 10
9444.786503739669
 20
4606.347135511447
 30
0.0
 11
9225.605274891533
 21
4606.062836980636
 31
0.0
  0
LINE
  5
17AC21874A3AD6
330
17AC21874A2FC9
100
AcDbEntity
  8
0
100
AcDbLine
 10
9445.18307562904
 20
4407.717302586912
 30
0.0
 11
9225.648166649994
 21
4407.734886697011
 31
0.0
  0
LINE
  5
17AC21874A3AD7
330
17AC21874A2FC9
100
AcDbEntity
  8
0
100
AcDbLine
 10
7965.492671089326
 20
5295.638292111771
 30
0.0
 11
7965.515077232005
 21
5575.071672219262
 31
0.0
  0
LINE
  5
17AC21874A3AD8
330
17AC21874A2FC9
100
AcDbEntity
  8
0
100
AcDbLine
 10
7767.247158032816
 20
5295.656088758669
 30
0.0
 11
7766.88524430747
 21
5574.675100329891
 31
0.0
  0
DIMENSION
  5
17AC21874A3AD9
330
17AC21874A2FC9
100
AcDbEntity
  8
QUOTA
100
AcDbDimension
  2
*D8
 10
6087.079165515222
 20
3292.906236214797
 30
0.0
 11
6062.079165515221
 21
3451.743970137602
 31
0.0
 70
    32
  1
320 mm
 71
     5
 42
317.6754678456091
  3
BASE
100
AcDbAlignedDimension
 13
6121.553413653415
 23
3610.581704060406
 33
0.0
 14
6295.708998057541
 24
3292.906236214797
 34
0.0
 50
90.0
100
AcDbRotatedDimension
1001
ACAD
1000
DSTYLE
1002
{
1070
    40
1040
10.0
1070
   271
1070
     4
1070
   272
1070
     4
1070
   275
1070
     0
1070
   279
1070
     0
1070
   284
1070
     0
1070
   285
1070
     0
1070
   286
1070
     0
1070
   340
1005
17AC21874A2FC1
1002
}
  0
DIMENSION
  5
17AC21874A3AEF
330
17AC21874A2FC9
100
AcDbEntity
  8
QUOTA
100
AcDbDimension
  2
*D9
 10
6087.079165515222
 20
5295.788189190712
 30
0.0
 11
6062.079165515221
 21
4453.18494662556
 31
0.0
 70
    32
  1
1680 mm
 71
     5
 42
1685.206485130306
  3
BASE
100
AcDbAlignedDimension
 13
6121.553413653415
 23
3610.581704060406
 33
0.0
 14
6295.716140243514
 24
5295.788189190711
 34
0.0
 50
90.0
100
AcDbRotatedDimension
1001
ACAD
1000
DSTYLE
1002
{
1070
    40
1040
10.0
1070
   271
1070
     4
1070
   272
1070
     4
1070
   275
1070
     0
1070
   279
1070
     0
1070
   284
1070
     0
1070
   285
1070
     0
1070
   286
1070
     0
1070
   340
1005
17AC21874A2FC1
1002
}
  0
DIMENSION
  5
17AC21874A3B05
330
17AC21874A2FC9
100
AcDbEntity
  8
QUOTA
100
AcDbDimension
  2
*D10
 10
9225.889260365214
 20
3109.018675081316
 30
0.0
 11
7760.799129211378
 21
3134.018675081316
 31
0.0
 70
    32
  1
3000 mm
 71
     5
 42
2930.180262307673
  3
BASE
100
AcDbAlignedDimension
 13
6295.708998057541
 23
3292.906236214797
 33
0.0
 14
9225.889260365214
 24
3292.937450512564
 34
0.0
100
AcDbRotatedDimension
1001
ACAD
1000
DSTYLE
1002
{
1070
    40
1040
10.0
1070
   271
1070
     4
1070
   272
1070
     4
1070
   275
1070
     0
1070
   279
1070
     0
1070
   284
1070
     0
1070
   285
1070
     0
1070
   286
1070
     0
1070
   340
1005
17AC21874A2FC1
1002
}
  0
DIMENSION
  5
17AC21874A3B1B
330
17AC21874A2FC9
100
AcDbEntity
  8
QUOTA
100
AcDbDimension
  2
*D11
 10
9631.26621160959
 20
2942.022704908677
 30
0.0
 11
7881.857720828957
 21
2967.022704908677
 31
0.0
 70
    32
  1
3500 mm
 71
     5
 42
3498.816981561264
  3
BASE
100
AcDbAlignedDimension
 13
6132.449230048324
 23
3550.068520110412
 33
0.0
 14
9631.26621160959
 24
3550.581704060406
 34
0.0
100
AcDbRotatedDimension
1001
ACAD
1000
DSTYLE
1002
{
1070
    40
1040
10.0
1070
   271
1070
     4
1070
   272
1070
     4
1070
   275
1070
     0
1070
   279
1070
     0
1070
   284
1070
     0
1070
   285
1070
     0
1070
   286
1070
     0
1070
   340
1005
17AC21874A2FC1
1002
}
  0
DIMENSION
  5
17AC21874A3B31
330
17AC21874A2FC9
100
AcDbEntity
  8
QUOTA
100
AcDbDimension
  2
*D12
 10
9719.927747305069
 20
5295.525184253248
 30
0.0
 11
9694.927747305065
 21
4294.231317382907
 31
0.0
 70
    32
  1
2000 mm
 71
     5
 42
2002.587733740683
  3
BASE
100
AcDbAlignedDimension
 13
9225.889260365214
 23
3292.937450512564
 33
0.0
 14
9225.456167050579
 24
5295.525184253248
 34
0.0
 50
90.0
100
AcDbRotatedDimension
1001
ACAD
1000
DSTYLE
1002
{
1070
    40
1040
10.0
1070
   271
1070
     4
1070
   272
1070
     4
1070
   275
1070
     0
1070
   279
1070
     0
1070
   284
1070
     0
1070
   285
1070
     0
1070
   286
1070
     0
1070
   340
1005
17AC21874A2FC1
1002
}
  0
ARC
  5
17AC21874A3BD7
330
17AC21874A2FC9
100
AcDbEntity
  8
0
100
AcDbCircle
 10
7244.658437996356
 20
4267.094782481692
 30
0.0
 40
363.460861551727
100
AcDbArc
 50
185.4909209871722
 51
225.9684981198393
  0
LINE
  5
17AC21874A3CC8
330
17AC21874A2FC9
100
AcDbEntity
  8
0
 62
     0
100
AcDbLine
 10
4905.75714181667
 20
5752.91398326669
 30
0.0
 11
5549.800412932546
 21
5752.91398326669
 31
0.0
  0
LINE
  5
17AC21874A3CC9
330
17AC21874A2FC9
100
AcDbEntity
  8
0
 62
     0
100
AcDbLine
 10
4905.75714181667
 20
5648.311548627241
 30
0.0
 11
5549.800412932546
 21
5648.311548627241
 31
0.0
  0
LINE
  5
17AC21874A3CCA
330
17AC21874A2FC9
100
AcDbEntity
  8
0
 62
     0
100
AcDbLine
 10
4905.75714181667
 20
5546.878882555148
 30
0.0
 11
5549.800412932546
 21
5546.878882555148
 31
0.0
  0
LINE
  5
17AC21874A3CCB
330
17AC21874A2FC9
100
AcDbEntity
  8
0
 62
     0
100
AcDbLine
 10
4905.75714181667
 20
5432.767142213632
 30
0.0
 11
5549.800412932546
 21
5432.767142213632
 31
0.0
  0
LINE
  5
17AC21874A3CCC
330
17AC21874A2FC9
100
AcDbEntity
  8
0
 62
     0
100
AcDbLine
 10
4905.75714181667
 20
5310.730969389618
 30
0.0
 11
5549.800412932546
 21
5310.730969389618
 31
0.0
  0
LINE
  5
17AC21874A3CCD
330
17AC21874A2FC9
100
AcDbEntity
  8
0
 62
     0
100
AcDbLine
 10
4905.75714181667
 20
5202.958760650758
 30
0.0
 11
5549.800412932546
 21
5202.958760650758
 31
0.0
  0
LINE
  5
17AC21874A3CCE
330
17AC21874A2FC9
100
AcDbEntity
  8
0
 62
     0
100
AcDbLine
 10
4905.75714181667
 20
5080.922593358799
 30
0.0
 11
5549.800412932546
 21
5080.922593358799
 31
0.0
  0
LINE
  5
17AC21874A3CCF
330
17AC21874A2FC9
100
AcDbEntity
  8
0
 62
     0
100
AcDbLine
 10
4905.75714181667
 20
4963.641073385818
 30
0.0
 11
5549.800412932546
 21
4963.641073385818
 31
0.0
  0
LINE
  5
17AC21874A3CD0
330
17AC21874A2FC9
100
AcDbEntity
  8
0
 62
     0
100
AcDbLine
 10
4905.75714181667
 20
4835.265357895035
 30
0.0
 11
5549.800412932546
 21
4835.265357895035
 31
0.0
  0
LINE
  5
17AC21874A3CD1
330
17AC21874A2FC9
100
AcDbEntity
  8
0
 62
     0
100
AcDbLine
 10
4905.461452915297
 20
6000.849524117836
 30
0.0
 11
4905.461452915297
 21
5044.442229438021
 31
0.0
  0
LINE
  5
17AC21874A3CD2
330
17AC21874A2FC9
100
AcDbEntity
  8
AM_4
100
AcDbLine
 10
4905.461452915297
 20
5468.108638974908
 30
0.0
 11
5266.1575020474
 21
5468.108638974908
 31
0.0
  0
LINE
  5
17AC21874A3CD3
330
17AC21874A2FC9
100
AcDbEntity
  8
AM_4
100
AcDbLine
 10
4905.461452915297
 20
5561.933698316011
 30
0.0
 11
5291.156234410273
 21
5561.933698316011
 31
0.0
  0
LINE
  5
17AC21874A3CD4
330
17AC21874A2FC9
100
AcDbEntity
  8
AM_4
100
AcDbLine
 10
4905.461452915297
 20
5455.429559173433
 30
0.0
 11
5266.1575020474
 21
5455.429559173433
 31
0.0
  0
TEXT
  5
17AC21874A3CD5
330
17AC21874A2FC9
100
AcDbEntity
  8
0
 62
     0
100
AcDbText
 10
4914.584526899678
 20
5474.510553711538
 30
0.0
 40
40.0
  1
6.000 B/h
 41
0.8
  7
ROMANS
100
AcDbText
  0
LINE
  5
17AC21874A3CD6
330
17AC21874A2FC9
100
AcDbEntity
  8
AM_4
100
AcDbLine
 10
4905.461452915297
 20
5225.082283429847
 30
0.0
 11
5184.018795614615
 21
5225.082283429847
 31
0.0
  0
LINE
  5
17AC21874A3CD7
330
17AC21874A2FC9
100
AcDbEntity
  8
AM_4
100
AcDbLine
 10
4905.461452915297
 20
5215.572972195725
 30
0.0
 11
5184.018795614615
 21
5215.572972195725
 31
0.0
  0
TEXT
  5
17AC21874A3CD8
330
17AC21874A2FC9
100
AcDbEntity
  8
0
 62
     0
100
AcDbText
 10
4911.408993929192
 20
5230.170281403824
 30
0.0
 40
40.0
  1
3500 mm
 41
0.8
  7
ROMANS
100
AcDbText
  0
LINE
  5
17AC21874A3CD9
330
17AC21874A2FC9
100
AcDbEntity
  8
AM_4
100
AcDbLine
 10
4905.461452915297
 20
5345.21002966927
 30
0.0
 11
5519.073071436427
 21
5345.210029669271
 31
0.0
  0
LINE
  5
17AC21874A3CDA
330
17AC21874A2FC9
100
AcDbEntity
  8
AM_4
100
AcDbLine
 10
4905.461452915297
 20
5114.317165323797
 30
0.0
 11
5519.073071436426
 21
5114.317165323797
 31
0.0
  0
LINE
  5
17AC21874A3CDB
330
17AC21874A2FC9
100
AcDbEntity
  8
AM_4
100
AcDbLine
 10
4905.461452915297
 20
4994.182315011644
 30
0.0
 11
5434.006155855495
 21
4994.182315011644
 31
0.0
  0
LINE
  5
17AC21874A3CDC
330
17AC21874A2FC9
100
AcDbEntity
  8
AM_4
100
AcDbLine
 10
4905.461452915297
 20
5330.94606005206
 30
0.0
 11
5519.073071436426
 21
5330.94606005206
 31
0.0
  0
LINE
  5
17AC21874A3CDD
330
17AC21874A2FC9
100
AcDbEntity
  8
AM_4
100
AcDbLine
 10
4905.461452915297
 20
5101.63808552232
 30
0.0
 11
5519.073071436426
 21
5101.63808552232
 31
0.0
  0
LINE
  5
17AC21874A3CDE
330
17AC21874A2FC9
100
AcDbEntity
  8
AM_4
100
AcDbLine
 10
4905.461452915297
 20
4979.918350926489
 30
0.0
 11
5434.006155855495
 21
4979.918350926489
 31
0.0
  0
TEXT
  5
17AC21874A3CDF
330
17AC21874A2FC9
100
AcDbEntity
  8
0
 62
     0
100
AcDbText
 10
4911.408993929192
 20
5350.753789288662
 30
0.0
 40
40.0
  1
LUNGHEZZA NASTRO
 41
0.8
  7
ROMANS
100
AcDbText
  0
TEXT
  5
17AC21874A3CE0
330
17AC21874A2FC9
100
AcDbEntity
  8
0
 62
     0
100
AcDbText
 10
4908.23346980356
 20
5122.279772942182
 30
0.0
 40
40.0
  1
DIMENSIONI NASTRO
 41
0.8
  7
ROMANS
100
AcDbText
  0
TEXT
  5
17AC21874A3CE1
330
17AC21874A2FC9
100
AcDbEntity
  8
0
 62
     0
100
AcDbText
 10
4914.584526899678
 20
5001.696265057345
 30
0.0
 40
40.0
  1
ALTEZZA 100 mm
 41
0.8
  7
ROMANS
100
AcDbText
  0
LINE
  5
17AC21874A3CE2
330
17AC21874A2FC9
100
AcDbEntity
  8
AM_4
100
AcDbLine
 10
4905.75714181667
 20
4867.027136871582
 30
0.0
 11
5491.000029128512
 21
4867.027136871582
 31
0.0
  0
LINE
  5
17AC21874A3CE3
330
17AC21874A2FC9
100
AcDbEntity
  8
AM_4
100
AcDbLine
 10
4905.75714181667
 20
4851.178282970694
 30
0.0
 11
5491.000029128512
 21
4851.178282970694
 31
0.0
  0
TEXT
  5
17AC21874A3CE4
330
17AC21874A2FC9
100
AcDbEntity
  8
0
 62
     0
100
AcDbText
 10
4911.408993929192
 20
4877.939505980261
 30
0.0
 40
40.0
  1
LARGHEZZA 120 mm
 41
0.8
  7
ROMANS
100
AcDbText
  0
LINE
  5
17AC21874A3CE5
330
17AC21874A2FC9
100
AcDbEntity
  8
0
 62
     0
100
AcDbLine
 10
4905.461452915297
 20
5044.442229438021
 30
0.0
 11
4905.461452915297
 21
4834.631422990557
 31
0.0
  0
LINE
  5
17AC21874A3CE6
330
17AC21874A2FC9
100
AcDbEntity
  8
AM_4
100
AcDbLine
 10
5491.000029128512
 20
4867.027136871582
 30
0.0
 11
5519.073071436424
 21
4867.027136871582
 31
0.0
  0
LINE
  5
17AC21874A3CE7
330
17AC21874A2FC9
100
AcDbEntity
  8
AM_4
100
AcDbLine
 10
5491.000029128512
 20
4851.178282970694
 30
0.0
 11
5519.073071436424
 21
4851.178282970694
 31
0.0
  0
LINE
  5
17AC21874A3CE8
330
17AC21874A2FC9
100
AcDbEntity
  8
AM_4
100
AcDbLine
 10
5434.006155855495
 20
4994.182315011644
 30
0.0
 11
5519.073071436427
 21
4994.182315011645
 31
0.0
  0
LINE
  5
17AC21874A3CE9
330
17AC21874A2FC9
100
AcDbEntity
  8
AM_4
100
AcDbLine
 10
5434.006155855495
 20
4979.918350926489
 30
0.0
 11
5519.073071436427
 21
4979.918350926491
 31
0.0
  0
LINE
  5
17AC21874A3CEA
330
17AC21874A2FC9
100
AcDbEntity
  8
AM_4
100
AcDbLine
 10
5291.156234410273
 20
5561.933698316011
 30
0.0
 11
5519.073071436426
 21
5561.933698316011
 31
0.0
  0
LINE
  5
17AC21874A3CEB
330
17AC21874A2FC9
100
AcDbEntity
  8
AM_4
100
AcDbLine
 10
5184.018795614615
 20
5215.572972195725
 30
0.0
 11
5519.073071436426
 21
5215.572972195725
 31
0.0
  0
LINE
  5
17AC21874A3CEC
330
17AC21874A2FC9
100
AcDbEntity
  8
AM_4
100
AcDbLine
 10
5184.018795614615
 20
5225.082283429847
 30
0.0
 11
5519.073071436426
 21
5225.082283429846
 31
0.0
  0
LINE
  5
17AC21874A3CED
330
17AC21874A2FC9
100
AcDbEntity
  8
AM_4
100
AcDbLine
 10
5266.1575020474
 20
5455.429559173433
 30
0.0
 11
5519.073071436426
 21
5455.429559173431
 31
0.0
  0
LINE
  5
17AC21874A3CEE
330
17AC21874A2FC9
100
AcDbEntity
  8
AM_4
100
AcDbLine
 10
5266.1575020474
 20
5468.108638974908
 30
0.0
 11
5519.073071436426
 21
5468.108638974908
 31
0.0
  0
LINE
  5
17AC21874A3CEF
330
17AC21874A2FC9
100
AcDbEntity
  8
AM_4
100
AcDbLine
 10
4905.461452915297
 20
5783.159802945451
 30
0.0
 11
5519.073071436426
 21
5783.15980294545
 31
0.0
  0
LINE
  5
17AC21874A3CF0
330
17AC21874A2FC9
100
AcDbEntity
  8
AM_4
100
AcDbLine
 10
4905.461452915297
 20
5770.480717611918
 30
0.0
 11
5519.073071436426
 21
5770.480717611917
 31
0.0
  0
TEXT
  5
17AC21874A3CF1
330
17AC21874A2FC9
100
AcDbEntity
  8
0
 62
     0
100
AcDbText
 10
4914.584526899678
 20
5788.662325519723
 30
0.0
 40
40.0
  1
MODELLO
 41
0.8
  7
ROMANS
100
AcDbText
  0
LINE
  5
17AC21874A3CF2
330
17AC21874A2FC9
100
AcDbEntity
  8
AM_4
100
AcDbLine
 10
4905.461452915297
 20
5574.612783649543
 30
0.0
 11
5291.156234410273
 21
5574.612783649543
 31
0.0
  0
TEXT
  5
17AC21874A3CF3
330
17AC21874A2FC9
100
AcDbEntity
  8
0
 62
     0
100
AcDbText
 10
4914.584526899678
 20
5582.401062173179
 30
0.0
 40
40.0
  1
PRODUZIONE
 41
0.8
  7
ROMANS
100
AcDbText
  0
TEXT
  5
17AC21874A3CF4
330
17AC21874A2FC9
100
AcDbEntity
  8
0
 62
     0
100
AcDbText
 10
4911.408993929192
 20
5687.118319442576
 30
0.0
 40
40.0
  1
XR MO 6P 8T
 41
0.8
  7
ROMANS
100
AcDbText
  0
LINE
  5
17AC21874A3CF5
330
17AC21874A2FC9
100
AcDbEntity
  8
AM_4
100
AcDbLine
 10
4905.461452915297
 20
5680.864711455845
 30
0.0
 11
5519.073071436424
 21
5680.864711455845
 31
0.0
  0
LINE
  5
17AC21874A3CF6
330
17AC21874A2FC9
100
AcDbEntity
  8
AM_4
100
AcDbLine
 10
4905.461452915297
 20
5666.600741838633
 30
0.0
 11
5519.073071436426
 21
5666.600741838633
 31
0.0
  0
LINE
  5
17AC21874A3CF7
330
17AC21874A2FC9
100
AcDbEntity
  8
AM_4
100
AcDbLine
 10
5291.156234410273
 20
5574.612783649543
 30
0.0
 11
5519.073071436426
 21
5574.612783649543
 31
0.0
  0
LINE
  5
17AC21874A3CF8
330
17AC21874A2FC9
100
AcDbEntity
  8
0
 62
     0
100
AcDbLine
 10
5549.561154656618
 20
4835.160268704124
 30
0.0
 11
5549.561154656618
 21
5861.670853734612
 31
0.0
  0
LINE
  5
17AC21874A3CF9
330
17AC21874A2FC9
100
AcDbEntity
  8
0
 62
     0
100
AcDbLine
 10
6206.63648058284
 20
5861.670853734612
 30
0.0
 11
6206.63648058284
 21
6000.849524117836
 31
0.0
  0
LINE
  5
17AC21874A3CFA
330
17AC21874A2FC9
100
AcDbEntity
  8
0
 62
     0
100
AcDbLine
 10
6206.550854696173
 20
6000.849524117836
 30
0.0
 11
4905.461452915297
 21
6000.849524117836
 31
0.0
  0
LINE
  5
17AC21874A3CFB
330
17AC21874A2FC9
100
AcDbEntity
  8
AM_4
100
AcDbLine
 10
4908.164189515322
 20
5889.132234681492
 30
0.0
 11
6105.653559698871
 21
5889.132234681492
 31
0.0
  0
LINE
  5
17AC21874A3CFC
330
17AC21874A2FC9
100
AcDbEntity
  8
AM_4
100
AcDbLine
 10
4908.164189515322
 20
5878.038039163692
 30
0.0
 11
6105.653559698871
 21
5878.038039163692
 31
0.0
  0
LINE
  5
17AC21874A3CFD
330
17AC21874A2FC9
100
AcDbEntity
  8
0
 62
     0
100
AcDbLine
 10
5594.712318625502
 20
5861.670853734612
 30
0.0
 11
6206.550854696173
 21
5861.670853734612
 31
0.0
  0
TEXT
  5
17AC21874A3CFE
330
17AC21874A2FC9
100
AcDbEntity
  8
0
 62
     0
100
AcDbText
 10
4905.057945677928
 20
5899.726090519402
 30
0.0
 40
80.0
  1
ETICAP SYSTEM 
 41
0.8
  7
ROMANS
100
AcDbText
  0
LINE
  5
17AC21874A3CFF
330
17AC21874A2FC9
100
AcDbEntity
  8
0
 62
     0
100
AcDbLine
 10
5594.712318625502
 20
5861.670853734612
 30
0.0
 11
4905.461452915297
 21
5861.670853734612
 31
0.0
  0
TEXT
  5
17AC21874A3D00
330
17AC21874A2FC9
100
AcDbEntity
  8
0
 62
     0
100
AcDbText
 10
5927.766896207128
 20
5898.444244538817
 30
0.0
 40
48.0
  1
canelli
 41
0.8
  7
ROMANS
100
AcDbText
  0
LINE
  5
17AC21874A3D01
330
17AC21874A2FC9
100
AcDbEntity
  8
AM_4
100
AcDbLine
 10
6105.653559698871
 20
5889.132234681492
 30
0.0
 11
6191.189493903765
 21
5889.132234681492
 31
0.0
  0
LINE
  5
17AC21874A3D02
330
17AC21874A2FC9
100
AcDbEntity
  8
AM_4
100
AcDbLine
 10
6105.653559698871
 20
5878.038039163692
 30
0.0
 11
6191.189493903765
 21
5878.038039163692
 31
0.0
  0
ENDSEC
  0
SECTION
  2
OBJECTS
  0
DICTIONARY
  5
17AC21874A2FBD
330
0
100
AcDbDictionary
281
     1
  3
ACAD_COLOR
350
17AC21874A3BDC
  3
ACAD_GROUP
350
17AC21874A2FBE
  3
ACAD_LAYOUT
350
17AC21874A3924
  3
ACAD_MATERIAL
350
17AC21874A3BDB
  3
ACAD_MLINESTYLE
350
17AC21874A2FBF
  3
ACAD_PLOTSETTINGS
350
17AC21874A3925
  3
ACAD_PLOTSTYLENAME
350
17AC21874A3922
  3
ACAD_TABLESTYLE
350
17AC21874A3BDD
  3
ACDBHEADERROUNDTRIPXREC
350
17AC21874A3D14
  3
AcDbVariableDictionary
350
17AC21874A3D0E
  3
AcmDictionary
350
17AC21874A3C3E
  3
AMG
350
17AC21874A3BE6
  3
AMGSNAPSETTINGS
350
17AC21874A3C7F
  0
DICTIONARY
  5
17AC21874A3D08
330
17AC21874A2FB3
100
AcDbDictionary
280
     1
281
     1
  3
AMLAYER_GROUPCOLORS
360
17AC21874A3D09
  0
DICTIONARY
  5
17AC21874A3BDC
102
{ACAD_REACTORS
330
17AC21874A2FBD
102
}
330
17AC21874A2FBD
100
AcDbDictionary
281
     1
  0
DICTIONARY
  5
17AC21874A2FBE
102
{ACAD_REACTORS
330
17AC21874A2FBD
102
}
330
17AC21874A2FBD
100
AcDbDictionary
281
     1
  0
DICTIONARY
  5
17AC21874A3924
102
{ACAD_REACTORS
330
17AC21874A2FBD
102
}
330
17AC21874A2FBD
100
AcDbDictionary
281
     1
  3
Layout1
350
17AC21874A3927
  3
Model
350
17AC21874A3926
  0
DICTIONARY
  5
17AC21874A3BDB
102
{ACAD_REACTORS
330
17AC21874A2FBD
102
}
330
17AC21874A2FBD
100
AcDbDictionary
281
     1
  0
DICTIONARY
  5
17AC21874A2FBF
102
{ACAD_REACTORS
330
17AC21874A2FBD
102
}
330
17AC21874A2FBD
100
AcDbDictionary
281
     1
  3
STANDARD
350
17AC21874A2FCC
  0
DICTIONARY
  5
17AC21874A3925
102
{ACAD_REACTORS
330
17AC21874A2FBD
102
}
330
17AC21874A2FBD
100
AcDbDictionary
281
     1
  0
ACDBDICTIONARYWDFLT
  5
17AC21874A3922
102
{ACAD_REACTORS
330
17AC21874A2FBD
102
}
330
17AC21874A2FBD
100
AcDbDictionary
281
     1
  3
Normal
350
17AC21874A3923
100
AcDbDictionaryWithDefault
340
17AC21874A3923
  0
DICTIONARY
  5
17AC21874A3BDD
102
{ACAD_REACTORS
330
17AC21874A2FBD
102
}
330
17AC21874A2FBD
100
AcDbDictionary
281
     1
  3
Standard
350
17AC21874A3BDE
  0
DICTIONARY
  5
17AC21874A3D14
102
{ACAD_REACTORS
330
17AC21874A2FBD
102
}
330
17AC21874A2FBD
100
AcDbDictionary
281
     1
  0
DICTIONARY
  5
17AC21874A3D0E
102
{ACAD_REACTORS
330
17AC21874A2FBD
102
}
330
17AC21874A2FBD
100
AcDbDictionary
281
     1
  3
CTABLESTYLE
350
17AC21874A3D0F
  3
DIMASSOC
350
17AC21874A3D11
  3
PROJECTNAME
350
17AC21874A3D12
  0
DICTIONARY
  5
17AC21874A3C3E
102
{ACAD_REACTORS
330
17AC21874A2FBD
102
}
330
17AC21874A2FBD
100
AcDbDictionary
281
     1
  3
AcmStdDictionary
350
17AC21874A3C4B
  3
AMDTSECTSYM_ARROWCOLOR
350
17AC21874A3C69
  0
DICTIONARY
  5
17AC21874A3BE6
102
{ACAD_REACTORS
330
17AC21874A2FBD
102
}
330
17AC21874A2FBD
100
AcDbDictionary
281
     1
  0
DICTIONARY
  5
17AC21874A3C7F
102
{ACAD_REACTORS
330
17AC21874A2FBD
102
}
330
17AC21874A2FBD
100
AcDbDictionary
281
     1
  0
DICTIONARY
  5
17AC21874A3D09
102
{ACAD_REACTORS
330
17AC21874A3D08
102
}
330
17AC21874A3D08
100
AcDbDictionary
280
     1
281
     1
  0
LAYOUT
  5
17AC21874A3927
102
{ACAD_XDICTIONARY
360
17AC21874A3D17
102
}
102
{ACAD_REACTORS
330
17AC21874A3924
102
}
330
17AC21874A3924
100
AcDbPlotSettings
  1

  2
Canon Bubble-Jet BJC-4200
  4

  6

 40
0.0
 41
0.0
 42
0.0
 43
0.0
 44
0.0
 45
0.0
 46
0.0
 47
0.0
 48
0.0
 49
0.0
140
0.0
141
0.0
142
1.0
143
1.0
 70
   688
 72
     0
 73
     0
 74
     5
  7

 75
    16
147
1.0
148
0.0
149
0.0
100
AcDbLayout
  1
Layout1
 70
     0
 71
     1
 10
0.0
 20
0.0
 11
12.0
 21
9.0
 12
0.0
 22
0.0
 32
0.0
 14
1.000000000000000E+20
 24
1.000000000000000E+20
 34
1.000000000000000E+20
 15
-1.000000000000000E+20
 25
-1.000000000000000E+20
 35
-1.000000000000000E+20
146
0.0
 13
0.0
 23
0.0
 33
0.0
 16
1.0
 26
0.0
 36
0.0
 17
0.0
 27
1.0
 37
0.0
 76
     0
330
17AC21874A2FC6
  0
LAYOUT
  5
17AC21874A3926
102
{ACAD_XDICTIONARY
360
17AC21874A3D15
102
}
102
{ACAD_REACTORS
330
17AC21874A3924
102
}
330
17AC21874A3924
100
AcDbPlotSettings
  1

  2
Canon Bubble-Jet BJC-4200
  4

  6

 40
0.0
 41
0.0
 42
0.0
 43
0.0
 44
0.0
 45
0.0
 46
0.0
 47
0.0
 48
0.0
 49
0.0
140
0.0
141
0.0
142
1.0
143
1.0
 70
  1712
 72
     0
 73
     0
 74
     0
  7

 75
     0
147
1.0
148
0.0
149
0.0
100
AcDbLayout
  1
Model
 70
     1
 71
     0
 10
0.0
 20
0.0
 11
12.0
 21
9.0
 12
0.0
 22
0.0
 32
0.0
 14
0.0
 24
0.0
 34
0.0
 15
0.0
 25
0.0
 35
0.0
146
0.0
 13
0.0
 23
0.0
 33
0.0
 16
1.0
 26
0.0
 36
0.0
 17
0.0
 27
1.0
 37
0.0
 76
     0
330
17AC21874A2FC9
  0
MLINESTYLE
  5
17AC21874A2FCC
102
{ACAD_REACTORS
330
17AC21874A2FBF
102
}
330
17AC21874A2FBF
100
AcDbMlineStyle
  2
STANDARD
 70
     0
  3

 62
     0
 51
90.0
 52
90.0
 71
     2
 49
0.5
 62
   256
  6
BYLAYER
 49
-0.5
 62
   256
  6
BYLAYER
  0
ACDBPLACEHOLDER
  5
17AC21874A3923
102
{ACAD_REACTORS
330
17AC21874A3922
102
}
330
17AC21874A3922
  0
TABLESTYLE
  5
17AC21874A3BDE
102
{ACAD_REACTORS
330
17AC21874A3BDD
102
}
330
17AC21874A3BDD
100
AcDbTableStyle
  3
Standard
 70
     0
 71
     0
 40
0.06
 41
0.06
280
     0
281
     0
  7
STANDARD
140
0.18
170
     2
 62
     0
 63
     7
283
     0
274
    -2
284
     1
 64
     0
275
    -2
285
     1
 65
     0
276
    -2
286
     1
 66
     0
277
    -2
287
     1
 67
     0
278
    -2
288
     1
 68
     0
279
    -2
289
     1
 69
     0
  7
STANDARD
140
0.25
170
     5
 62
     0
 63
     7
283
     0
274
    -2
284
     1
 64
     0
275
    -2
285
     1
 65
     0
276
    -2
286
     1
 66
     0
277
    -2
287
     1
 67
     0
278
    -2
288
     1
 68
     0
279
    -2
289
     1
 69
     0
  7
STANDARD
140
0.18
170
     5
 62
     0
 63
     7
283
     0
274
    -2
284
     1
 64
     0
275
    -2
285
     1
 65
     0
276
    -2
286
     1
 66
     0
277
    -2
287
     1
 67
     0
278
    -2
288
     1
 68
     0
279
    -2
289
     1
 69
     0
  0
DICTIONARYVAR
  5
17AC21874A3D0F
102
{ACAD_REACTORS
330
17AC21874A3D0E
102
}
330
17AC21874A3D0E
100
DictionaryVariables
280
     0
  1
STANDARD
  0
DICTIONARYVAR
  5
17AC21874A3D11
102
{ACAD_REACTORS
330
17AC21874A3D0E
102
}
330
17AC21874A3D0E
100
DictionaryVariables
280
     0
  1
1
  0
DICTIONARYVAR
  5
17AC21874A3D12
102
{ACAD_REACTORS
330
17AC21874A3D0E
102
}
330
17AC21874A3D0E
100
DictionaryVariables
280
     0
  1

  0
DICTIONARY
  5
17AC21874A3C4B
102
{ACAD_REACTORS
330
17AC21874A3C3E
102
}
330
17AC21874A3C3E
100
AcDbDictionary
281
     1
  0
XRECORD
  5
17AC21874A3C69
102
{ACAD_REACTORS
330
17AC21874A3C3E
102
}
330
17AC21874A3C3E
100
AcDbXrecord
280
     1
 90
-1023410169
  0
DICTIONARY
  5
17AC21874A3D17
330
17AC21874A3927
100
AcDbDictionary
280
     1
281
     1
  3
ACAD_XREC_ROUNDTRIP
360
17AC21874A3D18
  0
DICTIONARY
  5
17AC21874A3D15
330
17AC21874A3926
100
AcDbDictionary
280
     1
281
     1
  3
ACAD_XREC_ROUNDTRIP
360
17AC21874A3D16
  0
XRECORD
  5
17AC21874A3D18
102
{ACAD_REACTORS
330
17AC21874A3D17
102
}
330
17AC21874A3D17
100
AcDbXrecord
280
     1
102
SHADEPLOT
 70
     0
102
SHADEPLOTRESLEVEL
 70
     2
102
SHADEPLOTCUSTOMDPI
 70
   300
  0
XRECORD
  5
17AC21874A3D16
102
{ACAD_REACTORS
330
17AC21874A3D15
102
}
330
17AC21874A3D15
100
AcDbXrecord
280
     1
102
SHADEPLOT
 70
     0
102
SHADEPLOTRESLEVEL
 70
     2
102
SHADEPLOTCUSTOMDPI
 70
   300
  0
ENDSEC
  0
EOF
