  0
SECTION
  2
HEADER
  9
$ACADVER
  1
AC1014
  9
$ACADMAINTVER
 70
     9
  9
$DWGCODEPAGE
  3
ANSI_1252
  9
$INSBASE
 10
0.0
 20
0.0
 30
0.0
  9
$EXTMIN
 10
4066.354523879874
 20
286.7899306263916
 30
0.0
  9
$EXTMAX
 10
8166.354523879874
 20
3156.789930626391
 30
0.0
  9
$LIMMIN
 10
0.0
 20
0.0
  9
$LIMMAX
 10
420.0
 20
297.0
  9
$ORTHOMODE
 70
     0
  9
$REGENMODE
 70
     1
  9
$FILLMODE
 70
     1
  9
$QTEXTMODE
 70
     0
  9
$MIRRTEXT
 70
     1
  9
$DRAGMODE
 70
     2
  9
$LTSCALE
 40
1.0
  9
$OSMODE
 70
    37
  9
$ATTMODE
 70
     1
  9
$TEXTSIZE
 40
3.0
  9
$TRACEWID
 40
1.0
  9
$TEXTSTYLE
  7
ISO
  9
$CLAYER
  8
ASSE1
  9
$CELTYPE
  6
BYLAYER
  9
$CECOLOR
 62
   256
  9
$CELTSCALE
 40
1.0
  9
$DELOBJ
 70
     1
  9
$DISPSILH
 70
     0
  9
$DIMSCALE
 40
10.0
  9
$DIMASZ
 40
3.0
  9
$DIMEXO
 40
2.0
  9
$DIMDLI
 40
12.0
  9
$DIMRND
 40
0.0
  9
$DIMDLE
 40
0.0
  9
$DIMEXE
 40
1.0
  9
$DIMTP
 40
0.0
  9
$DIMTM
 40
0.0
  9
$DIMTXT
 40
35.0
  9
$DIMCEN
 40
-2.5
  9
$DIMTSZ
 40
0.0
  9
$DIMTOL
 70
     0
  9
$DIMLIM
 70
     0
  9
$DIMTIH
 70
     0
  9
$DIMTOH
 70
     0
  9
$DIMSE1
 70
     0
  9
$DIMSE2
 70
     0
  9
$DIMTAD
 70
     1
  9
$DIMZIN
 70
     8
  9
$DIMBLK
  1

  9
$DIMASO
 70
     1
  9
$DIMSHO
 70
     1
  9
$DIMPOST
  1

  9
$DIMAPOST
  1

  9
$DIMALT
 70
     0
  9
$DIMALTD
 70
     4
  9
$DIMALTF
 40
0.0394
  9
$DIMLFAC
 40
1.0
  9
$DIMTOFL
 70
     1
  9
$DIMTVP
 40
0.0
  9
$DIMTIX
 70
     1
  9
$DIMSOXD
 70
     0
  9
$DIMSAH
 70
     0
  9
$DIMBLK1
  1

  9
$DIMBLK2
  1

  9
$DIMSTYLE
  2
PROTO1-10
  9
$DIMCLRD
 70
     3
  9
$DIMCLRE
 70
     3
  9
$DIMCLRT
 70
     7
  9
$DIMTFAC
 40
1.0
  9
$DIMGAP
 40
1.5
  9
$DIMJUST
 70
     0
  9
$DIMSD1
 70
     0
  9
$DIMSD2
 70
     0
  9
$DIMTOLJ
 70
     1
  9
$DIMTZIN
 70
     8
  9
$DIMALTZ
 70
     0
  9
$DIMALTTZ
 70
     0
  9
$DIMFIT
 70
     5
  9
$DIMUPT
 70
     0
  9
$DIMUNIT
 70
     2
  9
$DIMDEC
 70
     2
  9
$DIMTDEC
 70
     2
  9
$DIMALTU
 70
     8
  9
$DIMALTTD
 70
     4
  9
$DIMTXSTY
  7
PROTO10-1
  9
$DIMAUNIT
 70
     0
  9
$LUNITS
 70
     2
  9
$LUPREC
 70
     2
  9
$SKETCHINC
 40
1.0
  9
$FILLETRAD
 40
10.0
  9
$AUNITS
 70
     0
  9
$AUPREC
 70
     1
  9
$MENU
  1
.
  9
$ELEVATION
 40
0.0
  9
$PELEVATION
 40
0.0
  9
$THICKNESS
 40
0.0
  9
$LIMCHECK
 70
     0
  9
$BLIPMODE
 70
     0
  9
$CHAMFERA
 40
0.0
  9
$CHAMFERB
 40
0.0
  9
$CHAMFERC
 40
20.0
  9
$CHAMFERD
 40
0.0
  9
$SKPOLY
 70
     0
  9
$TDCREATE
 40
2452657.458905590
  9
$TDUPDATE
 40
2453469.713723912
  9
$TDINDWG
 40
0.1448932292
  9
$TDUSRTIMER
 40
0.1448932292
  9
$USRTIMER
 70
     1
  9
$ANGBASE
 50
0.0
  9
$ANGDIR
 70
     0
  9
$PDMODE
 70
     0
  9
$PDSIZE
 40
0.0
  9
$PLINEWID
 40
0.0
  9
$COORDS
 70
     1
  9
$SPLFRAME
 70
     0
  9
$SPLINETYPE
 70
     6
  9
$SPLINESEGS
 70
     8
  9
$ATTDIA
 70
     0
  9
$ATTREQ
 70
     1
  9
$HANDLING
 70
 10241
  9
$HANDSEED
  5
46A8
  9
$SURFTAB1
 70
     6
  9
$SURFTAB2
 70
     6
  9
$SURFTYPE
 70
     6
  9
$SURFU
 70
     6
  9
$SURFV
 70
     6
  9
$UCSNAME
  2

  9
$UCSORG
 10
3676.906966574783
 20
488.8960251060198
 30
0.0
  9
$UCSXDIR
 10
1.0
 20
0.0
 30
0.0
  9
$UCSYDIR
 10
0.0
 20
1.0
 30
0.0
  9
$PUCSNAME
  2

  9
$PUCSORG
 10
0.0
 20
0.0
 30
0.0
  9
$PUCSXDIR
 10
1.0
 20
0.0
 30
0.0
  9
$PUCSYDIR
 10
0.0
 20
1.0
 30
0.0
  9
$USERI1
 70
     0
  9
$USERI2
 70
     0
  9
$USERI3
 70
     0
  9
$USERI4
 70
     0
  9
$USERI5
 70
     0
  9
$USERR1
 40
0.0
  9
$USERR2
 40
0.0
  9
$USERR3
 40
0.0
  9
$USERR4
 40
0.0
  9
$USERR5
 40
0.0
  9
$WORLDVIEW
 70
     1
  9
$SHADEDGE
 70
     3
  9
$SHADEDIF
 70
    70
  9
$TILEMODE
 70
     1
  9
$MAXACTVP
 70
    48
  9
$PINSBASE
 10
0.0
 20
0.0
 30
0.0
  9
$PLIMCHECK
 70
     0
  9
$PEXTMIN
 10
28.5178511619568
 20
19.61938247680663
 30
0.0
  9
$PEXTMAX
 10
256.660660457611
 20
176.5744422912597
 30
0.0
  9
$PLIMMIN
 10
-5.027069091796875
 20
-6.043083190917968
  9
$PLIMMAX
 10
291.89892578125
 20
204.0149154663085
  9
$UNITMODE
 70
     0
  9
$VISRETAIN
 70
     1
  9
$PLINEGEN
 70
     0
  9
$PSLTSCALE
 70
     1
  9
$TREEDEPTH
 70
  3020
  9
$PICKSTYLE
 70
     1
  9
$CMLSTYLE
  2
STANDARD
  9
$CMLJUST
 70
     0
  9
$CMLSCALE
 40
20.0
  9
$PROXYGRAPHICS
 70
     1
  9
$MEASUREMENT
 70
     1
  0
ENDSEC
  0
SECTION
  2
CLASSES
  0
CLASS
  1
ACDBDICTIONARYWDFLT
  2
AcDbDictionaryWithDefault
  3
AutoCAD 2000
 90
        0
280
     0
281
     0
  0
CLASS
  1
ACDBPLACEHOLDER
  2
AcDbPlaceHolder
  3
AutoCAD 2000
 90
        0
280
     0
281
     0
  0
CLASS
  1
LAYOUT
  2
AcDbLayout
  3
AutoCAD 2000
 90
        0
280
     0
281
     0
  0
CLASS
  1
DICTIONARYVAR
  2
AcDbDictionaryVar
  3
AutoCAD 2000
 90
        0
280
     0
281
     0
  0
CLASS
  1
LONG_TRANSACTION
  2
AcDbLongTransaction
  3
AutoCAD 2000
 90
        0
280
     0
281
     0
  0
CLASS
  1
LWPOLYLINE
  2
AcDbPolyline
  3
AutoCAD 2000
 90
        0
280
     0
281
     1
  0
CLASS
  1
HATCH
  2
AcDbHatch
  3
AutoCAD 2000
 90
        0
280
     0
281
     1
  0
CLASS
  1
XRECORD
  2
AcDbXrecord
  3
AutoCAD 2000
 90
        0
280
     0
281
     0
  0
ENDSEC
  0
SECTION
  2
TABLES
  0
TABLE
  2
VPORT
  5
8
330
0
100
AcDbSymbolTable
 70
     2
  0
VPORT
  5
4681
330
8
100
AcDbSymbolTableRecord
100
AcDbViewportTableRecord
  2
*ACTIVE
 70
     0
 10
0.0
 20
0.0
 11
1.0
 21
1.0
 12
6621.593902332482
 22
1721.647046786134
 13
0.0
 23
0.0
 14
10.0
 24
10.0
 15
10.0
 25
10.0
 16
0.0
 26
0.0
 36
1.0
 17
0.0
 27
0.0
 37
0.0
 40
2891.810984186871
 41
1.828516377649325
 42
50.0
 43
0.0
 44
0.0
 50
0.0
 51
0.0
 71
     0
 72
   100
 73
     1
 74
     1
 75
     0
 76
     0
 77
     0
 78
     0
  0
ENDTAB
  0
TABLE
  2
LTYPE
  5
5
330
0
100
AcDbSymbolTable
 70
    10
  0
LTYPE
  5
12
330
5
100
AcDbSymbolTableRecord
100
AcDbLinetypeTableRecord
  2
BYBLOCK
 70
     0
  3

 72
    65
 73
     0
 40
0.0
  0
LTYPE
  5
13
330
5
100
AcDbSymbolTableRecord
100
AcDbLinetypeTableRecord
  2
BYLAYER
 70
     0
  3

 72
    65
 73
     0
 40
0.0
  0
LTYPE
  5
14
330
5
100
AcDbSymbolTableRecord
100
AcDbLinetypeTableRecord
  2
CONTINUOUS
 70
     0
  3
Solid line
 72
    65
 73
     0
 40
0.0
  0
LTYPE
  5
3B
330
5
100
AcDbSymbolTableRecord
100
AcDbLinetypeTableRecord
  2
LINEA-LINEETTA
 70
     0
  3
linea-lineetta ____ _ ____ _ ____ _ ____ _ ____
 72
    65
 73
     4
 40
50.8
 49
31.75
 74
     0
 49
-6.349999999999999
 74
     0
 49
6.349999999999999
 74
     0
 49
-6.349999999999999
 74
     0
  0
LTYPE
  5
3C
330
5
100
AcDbSymbolTableRecord
100
AcDbLinetypeTableRecord
  2
ACAD_ISO02W100
 70
     0
  3
tratteggiata ISO __ __ __ __ __ __ __ __ __ __ 
 72
    65
 73
     2
 40
15.0
 49
12.0
 74
     0
 49
-3.0
 74
     0
  0
LTYPE
  5
1067
330
5
100
AcDbSymbolTableRecord
100
AcDbLinetypeTableRecord
  2
TRATTI1
 70
     0
  3
- - - - - - - - - - - - - - - - - - - - - -
 72
    65
 73
     2
 40
4.0
 49
2.5
 74
     0
 49
-1.5
 74
     0
  0
LTYPE
  5
1068
330
5
100
AcDbSymbolTableRecord
100
AcDbLinetypeTableRecord
  2
ASSI1
 70
     0
  3
-.-.-.-.-.-.-.-.-.-.-.-.-.-.-.-.-.-.-.-.-.-.-.-
 72
    65
 73
     4
 40
5.5
 49
3.0
 74
     0
 49
-1.0
 74
     0
 49
0.5
 74
     0
 49
-1.0
 74
     0
  0
LTYPE
  5
1069
330
5
100
AcDbSymbolTableRecord
100
AcDbLinetypeTableRecord
  2
DASHEDX2
 70
     0
  3
____  ____  ____  ____  ____  ____  ____  ____ 
 72
    65
 73
     2
 40
1.5
 49
1.0
 74
     0
 49
-0.5
 74
     0
  0
LTYPE
  5
106A
330
5
100
AcDbSymbolTableRecord
100
AcDbLinetypeTableRecord
  2
DASHED
 70
     0
  3
__ __ __ __ __ __ __ __ __ __ __ __ __ __ __
 72
    65
 73
     2
 40
0.75
 49
0.5
 74
     0
 49
-0.25
 74
     0
  0
LTYPE
  5
106B
330
5
100
AcDbSymbolTableRecord
100
AcDbLinetypeTableRecord
  2
CENTER
 70
     0
  3
____ _ ____ _ ____ _ ____ _ ____ _ ____ _ ____
 72
    65
 73
     4
 40
2.0
 49
1.25
 74
     0
 49
-0.25
 74
     0
 49
0.25
 74
     0
 49
-0.25
 74
     0
  0
LTYPE
  5
106C
330
5
100
AcDbSymbolTableRecord
100
AcDbLinetypeTableRecord
  2
CONTINUA
 70
     0
  3
Linea continua
 72
    65
 73
     0
 40
0.0
  0
LTYPE
  5
2C07
330
5
100
AcDbSymbolTableRecord
100
AcDbLinetypeTableRecord
  2
ASSI5
 70
     0
  3
- . - . - . -
 72
    65
 73
     4
 40
10.0
 49
5.0
 74
     0
 49
-2.5
 74
     0
 49
0.0
 74
     0
 49
-2.5
 74
     0
  0
ENDTAB
  0
TABLE
  2
LAYER
  5
2
330
0
100
AcDbSymbolTable
 70
    13
  0
LAYER
  5
E
330
2
100
AcDbSymbolTableRecord
100
AcDbLayerTableRecord
  2
0
 70
     0
 62
     7
  6
CONTINUOUS
  0
LAYER
  5
31
330
2
100
AcDbSymbolTableRecord
100
AcDbLayerTableRecord
  2
DEFPOINTS
 70
     0
 62
     7
  6
CONTINUOUS
  0
LAYER
  5
3D
330
2
100
AcDbSymbolTableRecord
100
AcDbLayerTableRecord
  2
DISEGNO
 70
     0
 62
     7
  6
CONTINUOUS
  0
LAYER
  5
3E
330
2
100
AcDbSymbolTableRecord
100
AcDbLayerTableRecord
  2
ASSE1
 70
     0
 62
     1
  6
LINEA-LINEETTA
  0
LAYER
  5
40
330
2
100
AcDbSymbolTableRecord
100
AcDbLayerTableRecord
  2
NASCOSTO
 70
     0
 62
     2
  6
ACAD_ISO02W100
  0
LAYER
  5
42
330
2
100
AcDbSymbolTableRecord
100
AcDbLayerTableRecord
  2
TRATTI1F
 70
     0
 62
     4
  6
ACAD_ISO02W100
  0
LAYER
  5
43
330
2
100
AcDbSymbolTableRecord
100
AcDbLayerTableRecord
  2
QUOTA
 70
     0
 62
     3
  6
CONTINUOUS
  0
LAYER
  5
2BBF
330
2
100
AcDbSymbolTableRecord
100
AcDbLayerTableRecord
  2
LINEAFINE
 70
     0
 62
     4
  6
CONTINUOUS
  0
LAYER
  5
2BC0
330
2
100
AcDbSymbolTableRecord
100
AcDbLayerTableRecord
  2
SEZIONE
 70
     0
 62
     5
  6
CONTINUOUS
  0
LAYER
  5
2C08
330
2
100
AcDbSymbolTableRecord
100
AcDbLayerTableRecord
  2
ASSE
 70
     0
 62
     1
  6
ASSI5
  0
LAYER
  5
2C09
330
2
100
AcDbSymbolTableRecord
100
AcDbLayerTableRecord
  2
COSTRUZIONE
 70
     0
 62
     7
  6
CONTINUOUS
  0
LAYER
  5
2C0A
330
2
100
AcDbSymbolTableRecord
100
AcDbLayerTableRecord
  2
TESTO
 70
     0
 62
   254
  6
CONTINUOUS
  0
LAYER
  5
2C0B
330
2
100
AcDbSymbolTableRecord
100
AcDbLayerTableRecord
  2
SQUADRATURA
 70
     0
 62
     9
  6
CONTINUOUS
  0
ENDTAB
  0
TABLE
  2
STYLE
  5
3
330
0
100
AcDbSymbolTable
 70
    13
  0
STYLE
  5
F
330
3
100
AcDbSymbolTableRecord
100
AcDbTextStyleTableRecord
  2
STANDARD
 70
     0
 40
0.0
 41
1.0
 50
0.0
 71
     0
 42
2.5
  3
txt
  4

  0
STYLE
  5
3A
330
3
100
AcDbSymbolTableRecord
100
AcDbTextStyleTableRecord
  2

 70
     1
 40
0.0
 41
1.0
 50
0.0
 71
     0
 42
2.5
  3
ltypeshp.shx
  4

  0
STYLE
  5
49
330
3
100
AcDbSymbolTableRecord
100
AcDbTextStyleTableRecord
  2
PROTO1-1
 70
     0
 40
3.5
 41
1.0
 50
0.0
 71
     0
 42
2.5
  3
isocp.shx
  4

  0
STYLE
  5
4C
330
3
100
AcDbSymbolTableRecord
100
AcDbTextStyleTableRecord
  2
PROTO2-1
 70
     0
 40
7.0
 41
1.0
 50
0.0
 71
     0
 42
2.5
  3
isocp.shx
  4

  0
STYLE
  5
4D
330
3
100
AcDbSymbolTableRecord
100
AcDbTextStyleTableRecord
  2
PROTO5-1
 70
     0
 40
17.5
 41
1.0
 50
0.0
 71
     0
 42
2.5
  3
isocp.shx
  4

  0
STYLE
  5
4E
330
3
100
AcDbSymbolTableRecord
100
AcDbTextStyleTableRecord
  2
PROTO10-1
 70
     0
 40
35.0
 41
1.0
 50
0.0
 71
     0
 42
2.5
  3
isocp.shx
  4

  0
STYLE
  5
4F
330
3
100
AcDbSymbolTableRecord
100
AcDbTextStyleTableRecord
  2
PROTO1-2
 70
     0
 40
1.75
 41
1.0
 50
0.0
 71
     0
 42
2.5
  3
isocp.shx
  4

  0
STYLE
  5
50
330
3
100
AcDbSymbolTableRecord
100
AcDbTextStyleTableRecord
  2
PROTO1-5
 70
     0
 40
0.7
 41
1.0
 50
0.0
 71
     0
 42
2.5
  3
isocp.shx
  4

  0
STYLE
  5
51
330
3
100
AcDbSymbolTableRecord
100
AcDbTextStyleTableRecord
  2
PROTO1-10
 70
     0
 40
0.35
 41
1.0
 50
0.0
 71
     0
 42
2.5
  3
isocp.shx
  4

  0
STYLE
  5
107A
330
3
100
AcDbSymbolTableRecord
100
AcDbTextStyleTableRecord
  2
ISO
 70
     0
 40
0.0
 41
1.0
 50
0.0
 71
     0
 42
3.0
  3
ISO8.SHX
  4

  0
STYLE
  5
107C
330
3
100
AcDbSymbolTableRecord
100
AcDbTextStyleTableRecord
  2
ROMANS
 70
     0
 40
0.0
 41
1.0
 50
0.0
 71
     0
 42
3.0
  3
romans
  4

  0
STYLE
  5
107D
330
3
100
AcDbSymbolTableRecord
100
AcDbTextStyleTableRecord
  2
COMPLEX
 70
     0
 40
0.0
 41
1.0
 50
0.0
 71
     0
 42
3.0
  3
COMPLEX8.SHX
  4

  0
STYLE
  5
2C0C
330
3
100
AcDbSymbolTableRecord
100
AcDbTextStyleTableRecord
  2
ROMANC
 70
     0
 40
50.0
 41
1.0
 50
0.0
 71
     0
 42
50.0
  3
romanc
  4

  0
ENDTAB
  0
TABLE
  2
VIEW
  5
6
330
0
100
AcDbSymbolTable
 70
     0
  0
ENDTAB
  0
TABLE
  2
UCS
  5
7
330
0
100
AcDbSymbolTable
 70
     0
  0
ENDTAB
  0
TABLE
  2
APPID
  5
9
330
0
100
AcDbSymbolTable
 70
    10
  0
APPID
  5
10
330
9
100
AcDbSymbolTableRecord
100
AcDbRegAppTableRecord
  2
ACAD
 70
     0
  0
APPID
  5
1084
330
9
100
AcDbSymbolTableRecord
100
AcDbRegAppTableRecord
  2
ASM_BASE
 70
     0
  0
APPID
  5
1085
330
9
100
AcDbSymbolTableRecord
100
AcDbRegAppTableRecord
  2
ASM_EXPLO_VER_2_00
 70
     0
  0
APPID
  5
1086
330
9
100
AcDbSymbolTableRecord
100
AcDbRegAppTableRecord
  2
ASM_CADM_VER_12_00
 70
     0
  0
APPID
  5
1087
330
9
100
AcDbSymbolTableRecord
100
AcDbRegAppTableRecord
  2
ASM_BASEFORO
 70
     0
  0
APPID
  5
1088
330
9
100
AcDbSymbolTableRecord
100
AcDbRegAppTableRecord
  2
ASM_BASETRAVI
 70
     0
  0
APPID
  5
1089
330
9
100
AcDbSymbolTableRecord
100
AcDbRegAppTableRecord
  2
ASM_BASETRAVI1
 70
     0
  0
APPID
  5
108A
330
9
100
AcDbSymbolTableRecord
100
AcDbRegAppTableRecord
  2
ASM_GRUPPI
 70
     0
  0
APPID
  5
108B
330
9
100
AcDbSymbolTableRecord
100
AcDbRegAppTableRecord
  2
ASM_CADM_ALBERO
 70
     0
  0
APPID
  5
46A7
330
9
100
AcDbSymbolTableRecord
100
AcDbRegAppTableRecord
  2
CONTENTBLOCKICON
 70
     0
  0
ENDTAB
  0
TABLE
  2
DIMSTYLE
  5
A
330
0
100
AcDbSymbolTable
 70
    11
  0
DIMSTYLE
105
1D
330
A
100
AcDbSymbolTableRecord
100
AcDbDimStyleTableRecord
  2
STANDARD
 70
     0
  3

  4

  5

  6

  7

 40
1.0
 41
2.5
 42
0.625
 43
3.75
 44
1.25
 45
0.0
 46
0.0
 47
0.0
 48
0.0
140
0.18
141
2.5
142
0.0
143
25.4
144
1.0
145
0.0
146
1.0
147
0.09
 71
     0
 72
     0
 73
     1
 74
     1
 75
     0
 76
     0
 77
     0
 78
     0
170
     0
171
     2
172
     1
173
     0
174
     1
175
     0
176
     3
177
     3
178
     0
270
     2
271
     4
272
     4
273
     2
274
     2
340
F
275
     0
280
     0
281
     0
282
     0
283
     1
284
     0
285
     0
286
     0
287
     5
288
     0
  0
DIMSTYLE
105
59
330
A
100
AcDbSymbolTableRecord
100
AcDbDimStyleTableRecord
  2
PROTO1-1
 70
     0
  3

  4

  5

  6

  7

 40
1.0
 41
3.0
 42
2.0
 43
12.0
 44
1.0
 45
0.0
 46
0.0
 47
0.0
 48
0.0
140
3.5
141
-2.5
142
0.0
143
0.0394
144
1.0
145
0.0
146
1.0
147
1.5
 71
     0
 72
     0
 73
     0
 74
     0
 75
     0
 76
     0
 77
     1
 78
     8
170
     0
171
     4
172
     1
173
     0
174
     1
175
     0
176
     3
177
     3
178
     7
270
     2
271
     2
272
     2
273
     8
274
     4
340
49
275
     0
280
     0
281
     0
282
     0
283
     1
284
     8
285
     0
286
     0
287
     5
288
     0
  0
DIMSTYLE
105
372
330
A
100
AcDbSymbolTableRecord
100
AcDbDimStyleTableRecord
  2
PROTO1-2
 70
     0
  3

  4

  5

  6

  7

 40
2.0
 41
3.0
 42
2.0
 43
12.0
 44
1.0
 45
0.0
 46
0.0
 47
0.0
 48
0.0
140
7.0
141
-2.5
142
0.0
143
0.0394
144
1.0
145
0.0
146
1.0
147
1.5
 71
     0
 72
     0
 73
     0
 74
     0
 75
     0
 76
     0
 77
     1
 78
     8
170
     0
171
     4
172
     1
173
     0
174
     1
175
     0
176
     3
177
     3
178
     7
270
     2
271
     2
272
     2
273
     8
274
     4
340
4C
275
     0
280
     0
281
     0
282
     0
283
     1
284
     8
285
     0
286
     0
287
     5
288
     0
  0
DIMSTYLE
105
3B8
330
A
100
AcDbSymbolTableRecord
100
AcDbDimStyleTableRecord
  2
PROTO2-1
 70
     0
  3

  4

  5

  6

  7

 40
0.5
 41
3.0
 42
2.0
 43
12.0
 44
1.0
 45
0.0
 46
0.0
 47
0.0
 48
0.0
140
1.75
141
-2.5
142
0.0
143
0.0394
144
1.0
145
0.0
146
1.0
147
1.5
 71
     0
 72
     0
 73
     0
 74
     0
 75
     0
 76
     0
 77
     1
 78
     8
170
     0
171
     4
172
     1
173
     0
174
     1
175
     0
176
     3
177
     3
178
     7
270
     2
271
     2
272
     2
273
     8
274
     4
340
4F
275
     0
280
     0
281
     0
282
     0
283
     1
284
     8
285
     0
286
     0
287
     5
288
     0
  0
DIMSTYLE
105
4C2
330
A
100
AcDbSymbolTableRecord
100
AcDbDimStyleTableRecord
  2
PROTO5-1
 70
     0
  3

  4

  5

  6

  7

 40
0.2
 41
3.0
 42
2.0
 43
12.0
 44
1.0
 45
0.0
 46
0.0
 47
0.0
 48
0.0
140
1.75
141
-2.5
142
0.0
143
0.0394
144
1.0
145
0.0
146
1.0
147
1.5
 71
     0
 72
     0
 73
     0
 74
     0
 75
     0
 76
     0
 77
     1
 78
     8
170
     0
171
     4
172
     1
173
     0
174
     1
175
     0
176
     3
177
     3
178
     7
270
     2
271
     2
272
     2
273
     8
274
     4
340
50
275
     0
280
     0
281
     0
282
     0
283
     1
284
     8
285
     0
286
     0
287
     5
288
     0
  0
DIMSTYLE
105
56A
330
A
100
AcDbSymbolTableRecord
100
AcDbDimStyleTableRecord
  2
PROTO10-1
 70
     0
  3

  4

  5

  6

  7

 40
0.1
 41
3.0
 42
2.0
 43
12.0
 44
1.0
 45
0.0
 46
0.0
 47
0.0
 48
0.0
140
0.35
141
-2.5
142
0.0
143
0.0394
144
1.0
145
0.0
146
1.0
147
1.5
 71
     0
 72
     0
 73
     0
 74
     0
 75
     0
 76
     0
 77
     1
 78
     8
170
     0
171
     4
172
     1
173
     0
174
     1
175
     0
176
     3
177
     3
178
     7
270
     2
271
     2
272
     2
273
     8
274
     4
340
51
275
     0
280
     0
281
     0
282
     0
283
     1
284
     8
285
     0
286
     0
287
     5
288
     0
  0
DIMSTYLE
105
591
330
A
100
AcDbSymbolTableRecord
100
AcDbDimStyleTableRecord
  2
PROTO1-5
 70
     0
  3

  4

  5

  6

  7

 40
5.0
 41
3.0
 42
2.0
 43
12.0
 44
1.0
 45
0.0
 46
0.0
 47
0.0
 48
0.0
140
17.5
141
-2.5
142
0.0
143
0.0394
144
1.0
145
0.0
146
1.0
147
1.5
 71
     0
 72
     0
 73
     0
 74
     0
 75
     0
 76
     0
 77
     1
 78
     8
170
     0
171
     4
172
     1
173
     0
174
     1
175
     0
176
     3
177
     3
178
     7
270
     2
271
     2
272
     2
273
     8
274
     4
340
4D
275
     0
280
     0
281
     0
282
     0
283
     1
284
     8
285
     0
286
     0
287
     5
288
     0
  0
DIMSTYLE
105
592
102
{ACAD_REACTORS
330
44C6
330
44C5
330
44DF
330
4584
330
4583
330
4563
330
4562
330
44E4
102
}
330
A
100
AcDbSymbolTableRecord
100
AcDbDimStyleTableRecord
  2
PROTO1-10
 70
     0
  3

  4

  5

  6

  7

 40
10.0
 41
3.0
 42
2.0
 43
12.0
 44
1.0
 45
0.0
 46
0.0
 47
0.0
 48
0.0
140
35.0
141
-2.5
142
0.0
143
0.0394
144
1.0
145
0.0
146
1.0
147
1.5
 71
     0
 72
     0
 73
     0
 74
     0
 75
     0
 76
     0
 77
     1
 78
     8
170
     0
171
     4
172
     1
173
     0
174
     1
175
     0
176
     3
177
     3
178
     7
270
     2
271
     2
272
     2
273
     8
274
     4
340
4E
275
     0
280
     0
281
     0
282
     0
283
     1
284
     8
285
     0
286
     0
287
     5
288
     0
  0
DIMSTYLE
105
2A30
330
A
100
AcDbSymbolTableRecord
100
AcDbDimStyleTableRecord
  2
TOLL-DIMENS
 70
     0
  3

  4

  5

  6

  7

 40
1.0
 41
2.5
 42
0.625
 43
3.75
 44
1.25
 45
0.0
 46
0.0
 47
0.0
 48
0.0
140
0.18
141
2.5
142
0.0
143
25.4
144
1.0
145
0.0
146
1.0
147
0.09
 71
     0
 72
     0
 73
     1
 74
     1
 75
     0
 76
     0
 77
     0
 78
     0
170
     0
171
     2
172
     1
173
     0
174
     1
175
     0
176
     3
177
     3
178
     0
270
     2
271
     4
272
     4
273
     2
274
     2
340
F
275
     0
280
     0
281
     0
282
     0
283
     1
284
     0
285
     0
286
     0
287
     5
288
     0
  0
DIMSTYLE
105
2A34
330
A
100
AcDbSymbolTableRecord
100
AcDbDimStyleTableRecord
  2
PALLINATURA
 70
     0
  3

  4

  5

  6

  7

 40
1.0
 41
1.0
 42
2.0
 43
12.0
 44
1.0
 45
0.0
 46
0.0
 47
0.0
 48
0.0
140
3.5
141
-2.5
142
0.0
143
0.0394
144
1.0
145
0.0
146
1.0
147
1.5
 71
     0
 72
     0
 73
     0
 74
     0
 75
     0
 76
     0
 77
     1
 78
     8
170
     0
171
     4
172
     1
173
     0
174
     1
175
     0
176
     3
177
     3
178
     7
270
     2
271
     2
272
     2
273
     8
274
     4
340
49
275
     0
280
     0
281
     0
282
     0
283
     1
284
     8
285
     0
286
     0
287
     5
288
     0
  0
DIMSTYLE
105
2C0D
330
A
100
AcDbSymbolTableRecord
100
AcDbDimStyleTableRecord
  2
BASE
 70
     0
  3

  4

  5

  6

  7

 40
150.0
 41
0.18
 42
0.06
 43
0.38
 44
0.18
 45
0.0
 46
0.0
 47
0.0
 48
0.0
140
0.18
141
0.09
142
0.0
143
25.4
144
1.0
145
0.0
146
1.0
147
0.09
 71
     0
 72
     0
 73
     0
 74
     0
 75
     0
 76
     0
 77
     1
 78
     0
170
     0
171
     2
172
     0
173
     0
174
     0
175
     0
176
     0
177
     0
178
     0
270
     2
271
     4
272
     4
273
     2
274
     2
340
F
275
     0
280
     0
281
     0
282
     0
283
     1
284
     0
285
     0
286
     0
287
     3
288
     0
  0
ENDTAB
  0
TABLE
  2
BLOCK_RECORD
  5
1
330
0
100
AcDbSymbolTable
 70
    14
  0
BLOCK_RECORD
  5
18
102
{ACAD_XDICTIONARY
360
46A5
102
}
330
1
100
AcDbSymbolTableRecord
100
AcDbBlockTableRecord
  2
*MODEL_SPACE
  0
BLOCK_RECORD
  5
15
102
{ACAD_XDICTIONARY
360
46A3
102
}
330
1
100
AcDbSymbolTableRecord
100
AcDbBlockTableRecord
  2
*PAPER_SPACE
  0
BLOCK_RECORD
  5
2A09
330
1
100
AcDbSymbolTableRecord
100
AcDbBlockTableRecord
  2
_DOT
  0
BLOCK_RECORD
  5
2A2C
330
1
100
AcDbSymbolTableRecord
100
AcDbBlockTableRecord
  2
_DATUMFILLED
  0
BLOCK_RECORD
  5
2A8E
330
1
100
AcDbSymbolTableRecord
100
AcDbBlockTableRecord
  2
PUNTO-MEDIO
1001
CONTENTBLOCKICON
1071
        0
1004
2800000020000000200000000100080000000000000400000000000000000000000000000000000000000000000080000080000000808000800000008000800080800000C0C0C000C0DCC000F0CAA6000020400000206000002080000020A0000020C0000020E00000400000004020000040400000406000004080000040A0
1004
000040C0000040E00000600000006020000060400000606000006080000060A0000060C0000060E00000800000008020000080400000806000008080000080A0000080C0000080E00000A0000000A0200000A0400000A0600000A0800000A0A00000A0C00000A0E00000C0000000C0200000C0400000C0600000C0800000C0
1004
A00000C0C00000C0E00000E0000000E0200000E0400000E0600000E0800000E0A00000E0C00000E0E00040000000400020004000400040006000400080004000A0004000C0004000E00040200000402020004020400040206000402080004020A0004020C0004020E000404000004040200040404000404060004040800040
1004
40A0004040C0004040E00040600000406020004060400040606000406080004060A0004060C0004060E00040800000408020004080400040806000408080004080A0004080C0004080E00040A0000040A0200040A0400040A0600040A0800040A0A00040A0C00040A0E00040C0000040C0200040C0400040C0600040C08000
1004
40C0A00040C0C00040C0E00040E0000040E0200040E0400040E0600040E0800040E0A00040E0C00040E0E00080000000800020008000400080006000800080008000A0008000C0008000E00080200000802020008020400080206000802080008020A0008020C0008020E00080400000804020008040400080406000804080
1004
008040A0008040C0008040E00080600000806020008060400080606000806080008060A0008060C0008060E00080800000808020008080400080806000808080008080A0008080C0008080E00080A0000080A0200080A0400080A0600080A0800080A0A00080A0C00080A0E00080C0000080C0200080C0400080C0600080C0
1004
800080C0A00080C0C00080C0E00080E0000080E0200080E0400080E0600080E0800080E0A00080E0C00080E0E000C0000000C0002000C0004000C0006000C0008000C000A000C000C000C000E000C0200000C0202000C0204000C0206000C0208000C020A000C020C000C020E000C0400000C0402000C0404000C0406000C0
1004
408000C040A000C040C000C040E000C0600000C0602000C0604000C0606000C0608000C060A000C060C000C060E000C0800000C0802000C0804000C0806000C0808000C080A000C080C000C080E000C0A00000C0A02000C0A04000C0A06000C0A08000C0A0A000C0A0C000C0A0E000C0C00000C0C02000C0C04000C0C06000
1004
C0C08000C0C0A000F0FBFF00A4A0A000808080000000FF0000FF000000FFFF00FF000000FF00FF00FFFF0000FFFFFF0000000000000000000000000000000000000000000000000000000000000000000000000000000000000000000000000000000000000000000000000000000000000000000000000000000000000000
1004
000000000000000000FA000000000000000000000000000000000000000000000000000000000000FAFAFA00000000000000000000000000000000000000000000000000000000FA00FA00FA0000000000000000000000000000000000000000000000000000FA0000FA0000FA000000000000000000000000000000000000
1004
000000000000FA000000FA000000FA00000000000000000000000000000000000000000000FA00000000FA00000000FA0000000000000000000000000000000000000000FA0000000000FA0000000000FA000000000000000000000000000000000000FA000000000000FA000000000000FA00000000000000000000000000
1004
000000FA00000000000000FA00000000000000000000000000000000000000000000FA0000000000000000FA000000000000000000000000000000000000000000FA000000000000000000FA0000000000000000000000000000000000000000FA00000000000000000000FA00000000000000000000000000000000000000
1004
FA00000000000000000000FAFAFA0000000000000000000000000000000000FA00000000000000000000FAFAFAFAFAFAFAFAFAFA00FAFAFAFAFAFAFAFAFAFAFAFAFAFAFAFAFAFAFAFAFAFAFAFAFAFA00000000000000000000000000000000FA0000000000000000000000FAFAFA0000000000000000000000000000000000
1004
00FA0000000000000000000000FA0000000000000000000000000000000000000000FA00000000000000000000FA000000000000000000000000000000000000000000FA000000000000000000FA00000000000000000000000000000000000000000000FA0000000000000000FA0000000000000000000000000000000000
1004
000000000000FAFA000000000000FA000000000000FA000000000000000000000000000000000000FA0000000000FA0000000000FA0000000000000000000000000000000000000000FA00000000FA00000000FA00000000000000000000000000000000000000000000FA000000FA000000FA000000000000000000000000
1004
000000000000000000000000FA0000FA0000FA0000000000000000000000000000000000000000000000000000FA00FA00FA00000000000000000000000000000000000000000000000000000000FAFAFA000000000000000000000000000000000000000000000000000000000000FA000000000000000000000000000000
1004
0000000000000000000000000000000000000000000000000000000000000000000000000000000000000000000000000000000000000000
  0
BLOCK_RECORD
  5
2BC9
330
1
100
AcDbSymbolTableRecord
100
AcDbBlockTableRecord
  2
A$C6
  0
BLOCK_RECORD
  5
2BCF
330
1
100
AcDbSymbolTableRecord
100
AcDbBlockTableRecord
  2
A$C15
  0
BLOCK_RECORD
  5
2BF3
330
1
100
AcDbSymbolTableRecord
100
AcDbBlockTableRecord
  2
A$C18
  0
BLOCK_RECORD
  5
45B1
330
1
100
AcDbSymbolTableRecord
100
AcDbBlockTableRecord
  2
*D6
  0
BLOCK_RECORD
  5
45BD
330
1
100
AcDbSymbolTableRecord
100
AcDbBlockTableRecord
  2
*D7
  0
BLOCK_RECORD
  5
45C9
330
1
100
AcDbSymbolTableRecord
100
AcDbBlockTableRecord
  2
*D8
  0
BLOCK_RECORD
  5
45D5
330
1
100
AcDbSymbolTableRecord
100
AcDbBlockTableRecord
  2
*D9
  0
BLOCK_RECORD
  5
45E1
330
1
100
AcDbSymbolTableRecord
100
AcDbBlockTableRecord
  2
*D10
  0
BLOCK_RECORD
  5
45ED
330
1
100
AcDbSymbolTableRecord
100
AcDbBlockTableRecord
  2
*D11
  0
BLOCK_RECORD
  5
45F9
330
1
100
AcDbSymbolTableRecord
100
AcDbBlockTableRecord
  2
*D12
  0
BLOCK_RECORD
  5
4605
330
1
100
AcDbSymbolTableRecord
100
AcDbBlockTableRecord
  2
*D13
  0
ENDTAB
  0
ENDSEC
  0
SECTION
  2
BLOCKS
  0
BLOCK
  5
19
330
18
100
AcDbEntity
  8
0
100
AcDbBlockBegin
  2
*MODEL_SPACE
 70
     0
 10
0.0
 20
0.0
 30
0.0
  3
*MODEL_SPACE
  1

  0
ENDBLK
  5
1A
330
18
100
AcDbEntity
  8
0
100
AcDbBlockEnd
  0
BLOCK
  5
16
330
15
100
AcDbEntity
 67
     1
  8
0
100
AcDbBlockBegin
  2
*PAPER_SPACE
 70
     0
 10
0.0
 20
0.0
 30
0.0
  3
*PAPER_SPACE
  1

  0
ENDBLK
  5
17
330
15
100
AcDbEntity
 67
     1
  8
0
100
AcDbBlockEnd
  0
BLOCK
  5
2A0C
330
2A09
100
AcDbEntity
  8
0
100
AcDbBlockBegin
  2
_DOT
 70
     0
 10
0.0
 20
0.0
 30
0.0
  3
_DOT
  1

  0
LWPOLYLINE
  5
2A0A
330
2A09
100
AcDbEntity
  8
QUOTA
 62
     0
100
AcDbPolyline
 90
        2
 70
     1
 43
0.5
 10
-0.25
 20
0.0
 42
1.0
 10
0.25
 20
0.0
 42
1.0
  0
LINE
  5
2A0B
330
2A09
100
AcDbEntity
  8
QUOTA
 62
     0
100
AcDbLine
 10
-0.5
 20
0.0
 30
0.0
 11
-1.0
 21
0.0
 31
0.0
  0
ENDBLK
  5
2A0D
330
2A09
100
AcDbEntity
  8
0
100
AcDbBlockEnd
  0
BLOCK
  5
2A2E
330
2A2C
100
AcDbEntity
  8
0
100
AcDbBlockBegin
  2
_DATUMFILLED
 70
     0
 10
0.0
 20
0.0
 30
0.0
  3
_DATUMFILLED
  1

  0
SOLID
  5
2A2D
330
2A2C
100
AcDbEntity
  8
QUOTA
 62
     0
100
AcDbTrace
 10
0.0
 20
0.5773502700000001
 30
0.0
 11
-1.0
 21
0.0
 31
0.0
 12
0.0
 22
-0.5773502700000001
 32
0.0
 13
0.0
 23
-0.5773502700000001
 33
0.0
  0
ENDBLK
  5
2A2F
330
2A2C
100
AcDbEntity
  8
0
100
AcDbBlockEnd
  0
BLOCK
  5
2A8F
330
2A8E
100
AcDbEntity
  8
0
100
AcDbBlockBegin
  2
PUNTO-MEDIO
 70
     0
 10
0.0
 20
0.0
 30
0.0
  3
PUNTO-MEDIO
  1

  0
INSERT
  5
2B50
330
2A8E
100
AcDbEntity
  8
QUOTA
100
AcDbBlockReference
  2
_DOT
 10
0.0
 20
0.0
 30
0.0
 41
1.5
 42
1.5
 43
1.5
1001
ACAD
1000
DSTYLE
1002
{
1070
   147
1040
1.5
1070
    77
1070
     0
1002
}
  0
ENDBLK
  5
2A90
330
2A8E
100
AcDbEntity
  8
0
100
AcDbBlockEnd
  0
BLOCK
  5
2BCD
330
2BC9
100
AcDbEntity
  8
0
100
AcDbBlockBegin
  2
A$C6
 70
     0
 10
0.0
 20
0.0
 30
0.0
  3
A$C6
  1

  0
LINE
  5
2BCA
330
2BC9
100
AcDbEntity
  8
0
100
AcDbLine
 10
1.900637218473519
 20
0.8165157741112096
 30
0.0
 11
1700.64860396784
 21
0.8165157741112096
 31
0.0
  0
LINE
  5
2BCB
330
2BC9
100
AcDbEntity
  8
0
100
AcDbLine
 10
1.900637218473519
 20
14.30680798376833
 30
0.0
 11
1700.64860396784
 21
14.30680798376833
 31
0.0
  0
TEXT
  5
2BCC
330
2BC9
100
AcDbEntity
  8
TESTO
100
AcDbText
 10
8.733529025279011
 20
25.88597534847285
 30
0.0
 40
25.0
  1
DATI NON INPEGNATIVI con la possibilità di modifica da parte del costruttore
  7
ROMANC
100
AcDbText
  0
ENDBLK
  5
2BCE
330
2BC9
100
AcDbEntity
  8
0
100
AcDbBlockEnd
  0
BLOCK
  5
2BF1
330
2BCF
100
AcDbEntity
  8
0
100
AcDbBlockBegin
  2
A$C15
 70
     0
 10
0.0
 20
0.0
 30
0.0
  3
A$C15
  1

  0
LINE
  5
2BD0
330
2BCF
100
AcDbEntity
  8
0
100
AcDbLine
 10
554.1948823955801
 20
75.82640707325322
 30
0.0
 11
684.1172065458615
 21
75.826407073253
 31
0.0
  0
ARC
  5
2BD1
330
2BCF
100
AcDbEntity
  8
0
100
AcDbCircle
 10
554.1948823955801
 20
55.826407073253
 30
0.0
 40
20.0
100
AcDbArc
 50
90.0
 51
160.7538645252642
  0
ARC
  5
2BD2
330
2BCF
100
AcDbEntity
  8
0
100
AcDbCircle
 10
684.1172065458615
 20
55.826407073253
 30
0.0
 40
20.0
100
AcDbArc
 50
347.9928048051886
 51
90.0
  0
ARC
  5
2BD3
330
2BCF
100
AcDbEntity
  8
0
100
AcDbCircle
 10
351.6850847053422
 20
126.5306699492593
 30
0.0
 40
359.867927907635
100
AcDbArc
 50
281.6408242915126
 51
347.9928048051887
  0
ARC
  5
2BD4
330
2BCF
100
AcDbEntity
  8
0
100
AcDbCircle
 10
351.6850847053422
 20
126.5306699492593
 30
0.0
 40
194.4978110596494
100
AcDbArc
 50
289.6072112466733
 51
340.7538645252641
  0
LINE
  5
2BD5
330
2BCF
100
AcDbEntity
  8
0
100
AcDbLine
 10
402.3893350060327
 20
-75.97913213152333
 30
0.0
 11
402.389335006033
 21
-205.901454565876
 31
0.0
  0
ARC
  5
2BD6
330
2BCF
100
AcDbEntity
  8
0
100
AcDbCircle
 10
422.3893350060329
 20
-205.901454565876
 30
0.0
 40
20.0
100
AcDbArc
 50
180.0
 51
282.0071930274138
  0
ARC
  5
2BD7
330
2BCF
100
AcDbEntity
  8
0
100
AcDbCircle
 10
422.3893350060327
 20
-75.97913213152333
 30
0.0
 40
20.0
100
AcDbArc
 50
109.2461319168215
 51
180.0
  0
CIRCLE
  5
2BD8
330
2BCF
100
AcDbEntity
  8
0
100
AcDbCircle
 10
351.6850847053422
 20
125.8057836077987
 30
0.0
 40
40.0
  0
LINE
  5
2BD9
330
2BCF
100
AcDbEntity
  8
0
100
AcDbLine
 10
301.5116215512437
 20
-75.97913213152333
 30
0.0
 11
301.5116215512434
 21
-205.901454565876
 31
0.0
  0
ARC
  5
2BDA
330
2BCF
100
AcDbEntity
  8
0
100
AcDbCircle
 10
281.5116215512434
 20
-205.901454565876
 30
0.0
 40
20.0
100
AcDbArc
 50
257.9928069725862
 51
0.0
  0
ARC
  5
2BDB
330
2BCF
100
AcDbEntity
  8
0
100
AcDbCircle
 10
281.5116215512436
 20
-75.97913213152333
 30
0.0
 40
20.0
100
AcDbArc
 50
0.0
 51
70.75386808317843
  0
ARC
  5
2BDC
330
2BCF
100
AcDbEntity
  8
0
100
AcDbCircle
 10
352.2158718519342
 20
126.5306699492593
 30
0.0
 40
359.867927907635
100
AcDbArc
 50
192.0071951948112
 51
258.3591757084874
  0
ARC
  5
2BDD
330
2BCF
100
AcDbEntity
  8
0
100
AcDbCircle
 10
352.2158718519342
 20
126.5306699492593
 30
0.0
 40
194.4978110596494
100
AcDbArc
 50
199.2461354747359
 51
250.3927887533266
  0
LINE
  5
2BDE
330
2BCF
100
AcDbEntity
  8
0
100
AcDbLine
 10
149.7060741616962
 20
75.82640707325322
 30
0.0
 11
19.78375001141489
 21
75.826407073253
 31
0.0
  0
ARC
  5
2BDF
330
2BCF
100
AcDbEntity
  8
0
100
AcDbCircle
 10
149.7060741616962
 20
55.826407073253
 30
0.0
 40
20.0
100
AcDbArc
 50
19.24613547473572
 51
90.0
  0
ARC
  5
2BE0
330
2BCF
100
AcDbEntity
  8
0
100
AcDbCircle
 10
19.78375001141489
 20
55.826407073253
 30
0.0
 40
20.0
100
AcDbArc
 50
90.0
 51
192.0071951948113
  0
LINE
  5
2BE1
330
2BCF
100
AcDbEntity
  8
0
100
AcDbLine
 10
402.3893350060327
 20
328.3155856885814
 30
0.0
 11
402.389335006033
 21
458.2379081229341
 31
0.0
  0
ARC
  5
2BE2
330
2BCF
100
AcDbEntity
  8
0
100
AcDbCircle
 10
422.3893350060327
 20
328.3155856885814
 30
0.0
 40
20.0
100
AcDbArc
 50
180.0
 51
250.7538680831784
  0
ARC
  5
2BE3
330
2BCF
100
AcDbEntity
  8
0
100
AcDbCircle
 10
422.3893350060329
 20
458.2379081229341
 30
0.0
 40
20.0
100
AcDbArc
 50
77.99280697258622
 51
180.0
  0
ARC
  5
2BE4
330
2BCF
100
AcDbEntity
  8
0
100
AcDbCircle
 10
351.6850847053422
 20
125.8057836077987
 30
0.0
 40
194.4978110596494
100
AcDbArc
 50
19.24613547473588
 51
70.39278875332661
  0
ARC
  5
2BE5
330
2BCF
100
AcDbEntity
  8
0
100
AcDbCircle
 10
351.6850847053422
 20
125.8057836077987
 30
0.0
 40
359.867927907635
100
AcDbArc
 50
12.00719519481122
 51
78.35917570848737
  0
LINE
  5
2BE6
330
2BCF
100
AcDbEntity
  8
0
100
AcDbLine
 10
554.1948823955801
 20
176.5100464838049
 30
0.0
 11
684.1172065458615
 21
176.5100464838051
 31
0.0
  0
ARC
  5
2BE7
330
2BCF
100
AcDbEntity
  8
0
100
AcDbCircle
 10
554.1948823955801
 20
196.5100464838051
 30
0.0
 40
20.0
100
AcDbArc
 50
199.2461354747357
 51
270.0
  0
ARC
  5
2BE8
330
2BCF
100
AcDbEntity
  8
0
100
AcDbCircle
 10
684.1172065458615
 20
196.5100464838051
 30
0.0
 40
20.0
100
AcDbArc
 50
270.0
 51
12.0071951948114
  0
LINE
  5
2BE9
330
2BCF
100
AcDbEntity
  8
0
100
AcDbLine
 10
301.5116215512437
 20
328.3155856885814
 30
0.0
 11
301.5116215512434
 21
458.2379081229341
 31
0.0
  0
ARC
  5
2BEA
330
2BCF
100
AcDbEntity
  8
0
100
AcDbCircle
 10
281.5116215512436
 20
328.3155856885814
 30
0.0
 40
20.0
100
AcDbArc
 50
289.2461319168215
 51
0.0
  0
ARC
  5
2BEB
330
2BCF
100
AcDbEntity
  8
0
100
AcDbCircle
 10
281.5116215512434
 20
458.2379081229341
 30
0.0
 40
20.0
100
AcDbArc
 50
0.0
 51
102.0071930274137
  0
ARC
  5
2BEC
330
2BCF
100
AcDbEntity
  8
0
100
AcDbCircle
 10
352.2158718519342
 20
125.8057836077987
 30
0.0
 40
194.4978110596494
100
AcDbArc
 50
109.6072112466733
 51
160.7538645252641
  0
ARC
  5
2BED
330
2BCF
100
AcDbEntity
  8
0
100
AcDbCircle
 10
352.2158718519342
 20
125.8057836077987
 30
0.0
 40
359.867927907635
100
AcDbArc
 50
101.6408242915126
 51
167.9928048051887
  0
LINE
  5
2BEE
330
2BCF
100
AcDbEntity
  8
0
100
AcDbLine
 10
149.7060741616962
 20
176.5100464838049
 30
0.0
 11
19.78375001141489
 21
176.5100464838051
 31
0.0
  0
ARC
  5
2BEF
330
2BCF
100
AcDbEntity
  8
0
100
AcDbCircle
 10
19.78375001141489
 20
196.5100464838051
 30
0.0
 40
20.0
100
AcDbArc
 50
167.9928048051886
 51
270.0
  0
ARC
  5
2BF0
330
2BCF
100
AcDbEntity
  8
0
100
AcDbCircle
 10
149.7060741616962
 20
196.5100464838051
 30
0.0
 40
20.0
100
AcDbArc
 50
270.0
 51
340.7538645252642
  0
ENDBLK
  5
2BF2
330
2BCF
100
AcDbEntity
  8
0
100
AcDbBlockEnd
  0
BLOCK
  5
2BF9
330
2BF3
100
AcDbEntity
  8
0
100
AcDbBlockBegin
  2
A$C18
 70
     0
 10
0.0
 20
0.0
 30
0.0
  3
A$C18
  1

  0
LINE
  5
2BF4
330
2BF3
100
AcDbEntity
  8
ASSE
100
AcDbLine
 39
0.1234
 10
163.4379881278923
 20
132.2538449780934
 30
0.0
 11
189.7709745327599
 21
265.9072573443886
 31
0.0
  0
LINE
  5
2BF5
330
2BF3
100
AcDbEntity
  8
ASSE
100
AcDbLine
 39
0.1234
 10
292.7080500392733
 20
20.1700765264427
 30
0.0
 11
163.8681767504976
 21
132.7461825582461
 31
0.0
  0
ARC
  5
2BF6
330
2BF3
100
AcDbEntity
  8
0
100
AcDbCircle
 10
283.3338269114735
 20
27.19885322169671
 30
0.0
 40
37.35884596452797
100
AcDbArc
 50
55.54292833930015
 51
224.9806279002979
  0
ARC
  5
2BF7
330
2BF3
100
AcDbEntity
  8
0
100
AcDbCircle
 10
7.920919788870151
 20
80.16046032873623
 30
0.0
 40
37.35884596452797
100
AcDbArc
 50
297.1968554600175
 51
102.1027007444285
  0
LINE
  5
2BF8
330
2BF3
100
AcDbEntity
  8
ASSE
100
AcDbLine
 39
0.1234
 10
2.50010731741213
 20
78.16474293571786
 30
0.0
 11
163.1724683171842
 21
133.0313973068748
 31
0.0
  0
ENDBLK
  5
2BFA
330
2BF3
100
AcDbEntity
  8
0
100
AcDbBlockEnd
  0
BLOCK
  5
45BB
330
45B1
100
AcDbEntity
  8
0
100
AcDbBlockBegin
  2
*D6
 70
     1
 10
0.0
 20
0.0
 30
0.0
  3
*D6
  1

  0
LINE
  5
4611
330
45B1
100
AcDbEntity
  8
QUOTA
 62
     3
100
AcDbLine
 10
5137.083391235496
 20
729.692707136086
 30
0.0
 11
5137.083391235496
 21
606.4643900484853
 31
0.0
  0
LINE
  5
4612
330
45B1
100
AcDbEntity
  8
QUOTA
 62
     3
100
AcDbLine
 10
7454.066766896407
 20
729.692707136086
 30
0.0
 11
7454.066766896407
 21
606.4643900484853
 31
0.0
  0
LINE
  5
4613
330
45B1
100
AcDbEntity
  8
QUOTA
 62
     3
100
AcDbLine
 10
5167.083391235497
 20
616.4643900484852
 30
0.0
 11
7424.066766896408
 21
616.4643900484852
 31
0.0
  0
SOLID
  5
4614
330
45B1
100
AcDbEntity
  8
QUOTA
 62
     3
100
AcDbTrace
 10
5167.083391235497
 20
621.4643900484852
 30
0.0
 11
5167.083391235497
 21
611.4643900484852
 31
0.0
 12
5137.083391235496
 22
616.4643900484852
 32
0.0
 13
5137.083391235496
 23
616.4643900484852
 33
0.0
  0
SOLID
  5
4615
330
45B1
100
AcDbEntity
  8
QUOTA
 62
     3
100
AcDbTrace
 10
7424.066766896408
 20
621.4643900484852
 30
0.0
 11
7424.066766896408
 21
611.4643900484852
 31
0.0
 12
7454.066766896407
 22
616.4643900484852
 32
0.0
 13
7454.066766896407
 23
616.4643900484852
 33
0.0
  0
MTEXT
  5
4616
330
45B1
100
AcDbEntity
  8
QUOTA
 62
     7
100
AcDbMText
 10
6295.575079065952
 20
648.967834930375
 30
0.0
 40
35.0
 41
0.0
 71
     5
 72
     1
  1
\A1;2315
  7
PROTO10-1
1001
ACAD
1000
MTEXTBEGIN
1070
    73
1070
     1
1070
    44
1040
1.0
1070
    74
1070
     0
1000
MTEXTEND
  0
POINT
  5
4617
330
45B1
100
AcDbEntity
  8
DEFPOINTS
 62
     0
100
AcDbPoint
 10
5137.083391235496
 20
749.692707136086
 30
0.0
  0
POINT
  5
4618
330
45B1
100
AcDbEntity
  8
DEFPOINTS
 62
     0
100
AcDbPoint
 10
7454.066766896407
 20
749.692707136086
 30
0.0
  0
POINT
  5
4619
330
45B1
100
AcDbEntity
  8
DEFPOINTS
 62
     0
100
AcDbPoint
 10
7454.066766896407
 20
616.4643900484852
 30
0.0
  0
ENDBLK
  5
45BC
330
45B1
100
AcDbEntity
  8
0
100
AcDbBlockEnd
  0
BLOCK
  5
45C7
330
45BD
100
AcDbEntity
  8
0
100
AcDbBlockBegin
  2
*D7
 70
     1
 10
0.0
 20
0.0
 30
0.0
  3
*D7
  1

  0
LINE
  5
461A
330
45BD
100
AcDbEntity
  8
QUOTA
 62
     3
100
AcDbLine
 10
4772.382575716966
 20
1066.198632287058
 30
0.0
 11
4772.382575716966
 21
440.6146859352038
 31
0.0
  0
LINE
  5
461B
330
45BD
100
AcDbEntity
  8
QUOTA
 62
     3
100
AcDbLine
 10
7773.846871520518
 20
1066.711816237051
 30
0.0
 11
7773.846871520518
 21
440.6146859352038
 31
0.0
  0
LINE
  5
461C
330
45BD
100
AcDbEntity
  8
QUOTA
 62
     3
100
AcDbLine
 10
4802.382575716968
 20
450.6146859352038
 30
0.0
 11
7743.846871520519
 21
450.6146859352038
 31
0.0
  0
SOLID
  5
461D
330
45BD
100
AcDbEntity
  8
QUOTA
 62
     3
100
AcDbTrace
 10
4802.382575716968
 20
455.6146859352038
 30
0.0
 11
4802.382575716968
 21
445.6146859352038
 31
0.0
 12
4772.382575716966
 22
450.6146859352038
 32
0.0
 13
4772.382575716966
 23
450.6146859352038
 33
0.0
  0
SOLID
  5
461E
330
45BD
100
AcDbEntity
  8
QUOTA
 62
     3
100
AcDbTrace
 10
7743.846871520519
 20
455.6146859352038
 30
0.0
 11
7743.846871520519
 21
445.6146859352038
 31
0.0
 12
7773.846871520518
 22
450.6146859352038
 32
0.0
 13
7773.846871520518
 23
450.6146859352038
 33
0.0
  0
MTEXT
  5
461F
330
45BD
100
AcDbEntity
  8
QUOTA
 62
     7
100
AcDbMText
 10
6273.114723618743
 20
483.1146859352038
 30
0.0
 40
35.0
 41
0.0
 71
     5
 72
     1
  1
\A1;3000
  7
PROTO10-1
1001
ACAD
1000
MTEXTBEGIN
1070
    73
1070
     1
1070
    44
1040
1.0
1070
    74
1070
     0
1000
MTEXTEND
  0
POINT
  5
4620
330
45BD
100
AcDbEntity
  8
DEFPOINTS
 62
     0
100
AcDbPoint
 10
4772.382575716966
 20
1086.198632287058
 30
0.0
  0
POINT
  5
4621
330
45BD
100
AcDbEntity
  8
DEFPOINTS
 62
     0
100
AcDbPoint
 10
7773.846871520518
 20
1086.711816237051
 30
0.0
  0
POINT
  5
4622
330
45BD
100
AcDbEntity
  8
DEFPOINTS
 62
     0
100
AcDbPoint
 10
7773.846871520518
 20
450.6146859352038
 30
0.0
  0
ENDBLK
  5
45C8
330
45BD
100
AcDbEntity
  8
0
100
AcDbBlockEnd
  0
BLOCK
  5
45D3
330
45C9
100
AcDbEntity
  8
0
100
AcDbBlockBegin
  2
*D8
 70
     1
 10
0.0
 20
0.0
 30
0.0
  3
*D8
  1

  0
LINE
  5
4623
330
45C9
100
AcDbEntity
  8
QUOTA
 62
     3
100
AcDbLine
 10
5137.083391235496
 20
729.692707136086
 30
0.0
 11
5137.083391235496
 21
606.4643900484853
 31
0.0
  0
LINE
  5
4624
330
45C9
100
AcDbEntity
  8
QUOTA
 62
     3
100
AcDbLine
 10
4772.382575716966
 20
1066.711816237051
 30
0.0
 11
4772.382575716966
 21
606.4643900484853
 31
0.0
  0
LINE
  5
4625
330
45C9
100
AcDbEntity
  8
QUOTA
 62
     3
100
AcDbLine
 10
5107.083391235496
 20
616.4643900484852
 30
0.0
 11
4802.382575716968
 21
616.4643900484852
 31
0.0
  0
SOLID
  5
4626
330
45C9
100
AcDbEntity
  8
QUOTA
 62
     3
100
AcDbTrace
 10
5107.083391235496
 20
621.4643900484852
 30
0.0
 11
5107.083391235496
 21
611.4643900484852
 31
0.0
 12
5137.083391235496
 22
616.4643900484852
 32
0.0
 13
5137.083391235496
 23
616.4643900484852
 33
0.0
  0
SOLID
  5
4627
330
45C9
100
AcDbEntity
  8
QUOTA
 62
     3
100
AcDbTrace
 10
4802.382575716968
 20
621.4643900484852
 30
0.0
 11
4802.382575716968
 21
611.4643900484852
 31
0.0
 12
4772.382575716966
 22
616.4643900484852
 32
0.0
 13
4772.382575716966
 23
616.4643900484852
 33
0.0
  0
MTEXT
  5
4628
330
45C9
100
AcDbEntity
  8
QUOTA
 62
     7
100
AcDbMText
 10
4954.732983476231
 20
648.9643900484852
 30
0.0
 40
35.0
 41
0.0
 71
     5
 72
     1
  1
\A1;365
  7
PROTO10-1
1001
ACAD
1000
MTEXTBEGIN
1070
    73
1070
     1
1070
    44
1040
1.0
1070
    74
1070
     0
1000
MTEXTEND
  0
POINT
  5
4629
330
45C9
100
AcDbEntity
  8
DEFPOINTS
 62
     0
100
AcDbPoint
 10
5137.083391235496
 20
749.692707136086
 30
0.0
  0
POINT
  5
462A
330
45C9
100
AcDbEntity
  8
DEFPOINTS
 62
     0
100
AcDbPoint
 10
4772.382575716966
 20
1086.711816237051
 30
0.0
  0
POINT
  5
462B
330
45C9
100
AcDbEntity
  8
DEFPOINTS
 62
     0
100
AcDbPoint
 10
4772.382575716966
 20
616.4643900484852
 30
0.0
  0
ENDBLK
  5
45D4
330
45C9
100
AcDbEntity
  8
0
100
AcDbBlockEnd
  0
BLOCK
  5
45DF
330
45D5
100
AcDbEntity
  8
0
100
AcDbBlockBegin
  2
*D9
 70
     1
 10
0.0
 20
0.0
 30
0.0
  3
*D9
  1

  0
LINE
  5
462C
330
45D5
100
AcDbEntity
  8
QUOTA
 62
     3
100
AcDbLine
 10
7454.066766896407
 20
729.692707136086
 30
0.0
 11
7454.066766896407
 21
606.4643900484853
 31
0.0
  0
LINE
  5
462D
330
45D5
100
AcDbEntity
  8
QUOTA
 62
     3
100
AcDbLine
 10
7773.522382157205
 20
1066.711816237051
 30
0.0
 11
7773.522382157205
 21
606.4643900484853
 31
0.0
  0
LINE
  5
462E
330
45D5
100
AcDbEntity
  8
QUOTA
 62
     3
100
AcDbLine
 10
7484.066766896408
 20
616.4643900484852
 30
0.0
 11
7743.522382157205
 21
616.4643900484852
 31
0.0
  0
SOLID
  5
462F
330
45D5
100
AcDbEntity
  8
QUOTA
 62
     3
100
AcDbTrace
 10
7484.066766896408
 20
621.4643900484852
 30
0.0
 11
7484.066766896408
 21
611.4643900484852
 31
0.0
 12
7454.066766896407
 22
616.4643900484852
 32
0.0
 13
7454.066766896407
 23
616.4643900484852
 33
0.0
  0
SOLID
  5
4630
330
45D5
100
AcDbEntity
  8
QUOTA
 62
     3
100
AcDbTrace
 10
7743.522382157205
 20
621.4643900484852
 30
0.0
 11
7743.522382157205
 21
611.4643900484852
 31
0.0
 12
7773.522382157205
 22
616.4643900484852
 32
0.0
 13
7773.522382157205
 23
616.4643900484852
 33
0.0
  0
MTEXT
  5
4631
330
45D5
100
AcDbEntity
  8
QUOTA
 62
     7
100
AcDbMText
 10
7613.794574526806
 20
648.967834930375
 30
0.0
 40
35.0
 41
0.0
 71
     5
 72
     1
  1
\A1;320
  7
PROTO10-1
1001
ACAD
1000
MTEXTBEGIN
1070
    73
1070
     1
1070
    44
1040
1.0
1070
    74
1070
     0
1000
MTEXTEND
  0
POINT
  5
4632
330
45D5
100
AcDbEntity
  8
DEFPOINTS
 62
     0
100
AcDbPoint
 10
7454.066766896407
 20
749.692707136086
 30
0.0
  0
POINT
  5
4633
330
45D5
100
AcDbEntity
  8
DEFPOINTS
 62
     0
100
AcDbPoint
 10
7773.522382157205
 20
1086.711816237051
 30
0.0
  0
POINT
  5
4634
330
45D5
100
AcDbEntity
  8
DEFPOINTS
 62
     0
100
AcDbPoint
 10
7773.522382157205
 20
616.4643900484852
 30
0.0
  0
ENDBLK
  5
45E0
330
45D5
100
AcDbEntity
  8
0
100
AcDbBlockEnd
  0
BLOCK
  5
45EB
330
45E1
100
AcDbEntity
  8
0
100
AcDbBlockBegin
  2
*D10
 70
     1
 10
0.0
 20
0.0
 30
0.0
  3
*D10
  1

  0
LINE
  5
4635
330
45E1
100
AcDbEntity
  8
QUOTA
 62
     3
100
AcDbLine
 10
7793.846871520519
 20
1146.711816237051
 30
0.0
 11
7928.054235982632
 21
1146.711816237051
 31
0.0
  0
LINE
  5
4636
330
45E1
100
AcDbEntity
  8
QUOTA
 62
     3
100
AcDbLine
 10
7474.260785478461
 20
749.7974654540439
 30
0.0
 11
7928.054235982632
 21
749.7974654540439
 31
0.0
  0
LINE
  5
4637
330
45E1
100
AcDbEntity
  8
QUOTA
 62
     3
100
AcDbLine
 10
7918.054235982632
 20
1116.711816237051
 30
0.0
 11
7918.054235982632
 21
779.7974654540439
 31
0.0
  0
SOLID
  5
4638
330
45E1
100
AcDbEntity
  8
QUOTA
 62
     3
100
AcDbTrace
 10
7913.054235982632
 20
1116.711816237051
 30
0.0
 11
7923.054235982633
 21
1116.711816237051
 31
0.0
 12
7918.054235982632
 22
1146.711816237051
 32
0.0
 13
7918.054235982632
 23
1146.711816237051
 33
0.0
  0
SOLID
  5
4639
330
45E1
100
AcDbEntity
  8
QUOTA
 62
     3
100
AcDbTrace
 10
7913.054235982632
 20
779.7974654540439
 30
0.0
 11
7923.054235982633
 21
779.7974654540439
 31
0.0
 12
7918.054235982632
 22
749.7974654540439
 32
0.0
 13
7918.054235982632
 23
749.7974654540439
 33
0.0
  0
MTEXT
  5
463A
330
45E1
100
AcDbEntity
  8
QUOTA
 62
     7
100
AcDbMText
 10
7885.554235982633
 20
948.2546408455489
 30
0.0
 40
35.0
 41
0.0
 71
     5
 72
     1
  1
\A1;400
  7
PROTO10-1
 11
0.0000000000000001
 21
1.0
 31
0.0
1001
ACAD
1000
MTEXTBEGIN
1070
    73
1070
     1
1070
    44
1040
1.0
1070
    74
1070
     0
1000
MTEXTEND
  0
POINT
  5
463B
330
45E1
100
AcDbEntity
  8
DEFPOINTS
 62
     0
100
AcDbPoint
 10
7773.846871520518
 20
1146.711816237051
 30
0.0
  0
POINT
  5
463C
330
45E1
100
AcDbEntity
  8
DEFPOINTS
 62
     0
100
AcDbPoint
 10
7454.26078547846
 20
749.7974654540439
 30
0.0
  0
POINT
  5
463D
330
45E1
100
AcDbEntity
  8
DEFPOINTS
 62
     0
100
AcDbPoint
 10
7918.054235982632
 20
749.7974654540439
 30
0.0
  0
ENDBLK
  5
45EC
330
45E1
100
AcDbEntity
  8
0
100
AcDbBlockEnd
  0
BLOCK
  5
45F7
330
45ED
100
AcDbEntity
  8
0
100
AcDbBlockBegin
  2
*D11
 70
     1
 10
0.0
 20
0.0
 30
0.0
  3
*D11
  1

  0
LINE
  5
463E
330
45ED
100
AcDbEntity
  8
QUOTA
 62
     3
100
AcDbLine
 10
7793.846871520519
 20
1146.711816237051
 30
0.0
 11
7928.054235982632
 21
1146.711816237051
 31
0.0
  0
LINE
  5
463F
330
45ED
100
AcDbEntity
  8
QUOTA
 62
     3
100
AcDbLine
 10
7474.260785478461
 20
2742.365028153739
 30
0.0
 11
7928.054235982632
 21
2742.365028153739
 31
0.0
  0
LINE
  5
4640
330
45ED
100
AcDbEntity
  8
QUOTA
 62
     3
100
AcDbLine
 10
7918.054235982632
 20
1176.711816237051
 30
0.0
 11
7918.054235982632
 21
2712.365028153739
 31
0.0
  0
SOLID
  5
4641
330
45ED
100
AcDbEntity
  8
QUOTA
 62
     3
100
AcDbTrace
 10
7913.054235982632
 20
1176.711816237051
 30
0.0
 11
7923.054235982632
 21
1176.711816237051
 31
0.0
 12
7918.054235982632
 22
1146.711816237051
 32
0.0
 13
7918.054235982632
 23
1146.711816237051
 33
0.0
  0
SOLID
  5
4642
330
45ED
100
AcDbEntity
  8
QUOTA
 62
     3
100
AcDbTrace
 10
7913.054235982632
 20
2712.365028153739
 30
0.0
 11
7923.054235982633
 21
2712.365028153739
 31
0.0
 12
7918.054235982632
 22
2742.365028153739
 32
0.0
 13
7918.054235982632
 23
2742.365028153739
 33
0.0
  0
MTEXT
  5
4643
330
45ED
100
AcDbEntity
  8
QUOTA
 62
     7
100
AcDbMText
 10
7885.554235982631
 20
1944.538422195396
 30
0.0
 40
35.0
 41
0.0
 71
     5
 72
     1
  1
\A1;1595
  7
PROTO10-1
 11
0.0000000000000001
 21
1.0
 31
0.0
1001
ACAD
1000
MTEXTBEGIN
1070
    73
1070
     1
1070
    44
1040
1.0
1070
    74
1070
     0
1000
MTEXTEND
  0
POINT
  5
4644
330
45ED
100
AcDbEntity
  8
DEFPOINTS
 62
     0
100
AcDbPoint
 10
7773.846871520518
 20
1146.711816237051
 30
0.0
  0
POINT
  5
4645
330
45ED
100
AcDbEntity
  8
DEFPOINTS
 62
     0
100
AcDbPoint
 10
7454.26078547846
 20
2742.365028153739
 30
0.0
  0
POINT
  5
4646
330
45ED
100
AcDbEntity
  8
DEFPOINTS
 62
     0
100
AcDbPoint
 10
7918.054235982632
 20
2742.365028153739
 30
0.0
  0
ENDBLK
  5
45F8
330
45ED
100
AcDbEntity
  8
0
100
AcDbBlockEnd
  0
BLOCK
  5
4603
330
45F9
100
AcDbEntity
  8
0
100
AcDbBlockBegin
  2
*D12
 70
     1
 10
0.0
 20
0.0
 30
0.0
  3
*D12
  1

  0
LINE
  5
4647
330
45F9
100
AcDbEntity
  8
QUOTA
 62
     3
100
AcDbLine
 10
7474.255252615846
 20
2742.474109712341
 30
0.0
 11
8055.728570848263
 21
2742.474109712341
 31
0.0
  0
LINE
  5
4648
330
45F9
100
AcDbEntity
  8
QUOTA
 62
     3
100
AcDbLine
 10
7474.260785478461
 20
749.7974654540439
 30
0.0
 11
8055.728570848261
 21
749.7974654540438
 31
0.0
  0
LINE
  5
4649
330
45F9
100
AcDbEntity
  8
QUOTA
 62
     3
100
AcDbLine
 10
8045.728570848263
 20
2712.474109712341
 30
0.0
 11
8045.728570848261
 21
779.7974654540438
 31
0.0
  0
SOLID
  5
464A
330
45F9
100
AcDbEntity
  8
QUOTA
 62
     3
100
AcDbTrace
 10
8040.728570848262
 20
2712.474109712341
 30
0.0
 11
8050.728570848262
 21
2712.474109712341
 31
0.0
 12
8045.728570848263
 22
2742.474109712341
 32
0.0
 13
8045.728570848263
 23
2742.474109712341
 33
0.0
  0
SOLID
  5
464B
330
45F9
100
AcDbEntity
  8
QUOTA
 62
     3
100
AcDbTrace
 10
8040.728570848262
 20
779.7974654540438
 30
0.0
 11
8050.728570848262
 21
779.7974654540438
 31
0.0
 12
8045.728570848261
 22
749.7974654540438
 32
0.0
 13
8045.728570848261
 23
749.7974654540438
 33
0.0
  0
MTEXT
  5
464C
330
45F9
100
AcDbEntity
  8
QUOTA
 62
     7
100
AcDbMText
 10
8013.22857084826
 20
1746.135787583193
 30
0.0
 40
35.0
 41
0.0
 71
     5
 72
     1
  1
\A1;1995
  7
PROTO10-1
 11
0.0000000000000001
 21
1.0
 31
0.0
1001
ACAD
1000
MTEXTBEGIN
1070
    73
1070
     1
1070
    44
1040
1.0
1070
    74
1070
     0
1000
MTEXTEND
  0
POINT
  5
464D
330
45F9
100
AcDbEntity
  8
DEFPOINTS
 62
     0
100
AcDbPoint
 10
7454.255252615846
 20
2742.474109712341
 30
0.0
  0
POINT
  5
464E
330
45F9
100
AcDbEntity
  8
DEFPOINTS
 62
     0
100
AcDbPoint
 10
7454.26078547846
 20
749.7974654540439
 30
0.0
  0
POINT
  5
464F
330
45F9
100
AcDbEntity
  8
DEFPOINTS
 62
     0
100
AcDbPoint
 10
8045.728570848261
 20
749.7974654540438
 30
0.0
  0
ENDBLK
  5
4604
330
45F9
100
AcDbEntity
  8
0
100
AcDbBlockEnd
  0
BLOCK
  5
460F
330
4605
100
AcDbEntity
  8
0
100
AcDbBlockBegin
  2
*D13
 70
     1
 10
0.0
 20
0.0
 30
0.0
  3
*D13
  1

  0
LINE
  5
4650
330
4605
100
AcDbEntity
  8
QUOTA
 62
     3
100
AcDbLine
 10
4752.365738247475
 20
1086.711816237051
 30
0.0
 11
4579.510017764515
 21
1086.711816237051
 31
0.0
  0
LINE
  5
4651
330
4605
100
AcDbEntity
  8
QUOTA
 62
     3
100
AcDbLine
 10
4752.382575716967
 20
1205.779045194193
 30
0.0
 11
4579.510017764515
 21
1205.779045194194
 31
0.0
  0
LINE
  5
4652
330
4605
100
AcDbEntity
  8
QUOTA
 62
     3
100
AcDbLine
 10
4589.510017764514
 20
1116.711816237051
 30
0.0
 11
4589.510017764514
 21
1175.779045194194
 31
0.0
  0
SOLID
  5
4653
330
4605
100
AcDbEntity
  8
QUOTA
 62
     3
100
AcDbTrace
 10
4584.510017764514
 20
1116.711816237051
 30
0.0
 11
4594.510017764514
 21
1116.711816237051
 31
0.0
 12
4589.510017764514
 22
1086.711816237051
 32
0.0
 13
4589.510017764514
 23
1086.711816237051
 33
0.0
  0
SOLID
  5
4654
330
4605
100
AcDbEntity
  8
QUOTA
 62
     3
100
AcDbTrace
 10
4584.510017764514
 20
1175.779045194194
 30
0.0
 11
4594.510017764514
 21
1175.779045194194
 31
0.0
 12
4589.510017764514
 22
1205.779045194194
 32
0.0
 13
4589.510017764514
 23
1205.779045194194
 33
0.0
  0
MTEXT
  5
4655
330
4605
100
AcDbEntity
  8
QUOTA
 62
     7
100
AcDbMText
 10
4557.006572882625
 20
1146.245430715623
 30
0.0
 40
35.0
 41
0.0
 71
     5
 72
     1
  1
\A1;120
  7
PROTO10-1
 11
0.0000000000000001
 21
1.0
 31
0.0
1001
ACAD
1000
MTEXTBEGIN
1070
    73
1070
     1
1070
    44
1040
1.0
1070
    74
1070
     0
1000
MTEXTEND
  0
POINT
  5
4656
330
4605
100
AcDbEntity
  8
DEFPOINTS
 62
     0
100
AcDbPoint
 10
4772.365738247475
 20
1086.711816237051
 30
0.0
  0
POINT
  5
4657
330
4605
100
AcDbEntity
  8
DEFPOINTS
 62
     0
100
AcDbPoint
 10
4772.382575716966
 20
1205.779045194193
 30
0.0
  0
POINT
  5
4658
330
4605
100
AcDbEntity
  8
DEFPOINTS
 62
     0
100
AcDbPoint
 10
4589.510017764514
 20
1205.779045194194
 30
0.0
  0
ENDBLK
  5
4610
330
4605
100
AcDbEntity
  8
0
100
AcDbBlockEnd
  0
ENDSEC
  0
SECTION
  2
ENTITIES
  0
LINE
  5
44C4
330
18
100
AcDbEntity
  8
ASSE1
100
AcDbLine
 10
6034.611143031316
 20
2407.970412946101
 30
0.0
 11
6212.389671375197
 21
1746.386283303528
 31
0.0
  0
DIMENSION
  5
44C5
330
18
100
AcDbEntity
  8
QUOTA
100
AcDbDimension
  2
*D7
 10
7773.846871520518
 20
450.6146859352038
 30
0.0
 11
6273.114723618743
 21
483.1146859352038
 31
0.0
 70
    32
  1
3000
  3
PROTO1-10
100
AcDbAlignedDimension
 13
4772.382575716966
 23
1086.198632287058
 33
0.0
 14
7773.846871520518
 24
1086.711816237051
 34
0.0
100
AcDbRotatedDimension
  0
DIMENSION
  5
44C6
330
18
100
AcDbEntity
  8
QUOTA
100
AcDbDimension
  2
*D6
 10
7454.066766896407
 20
616.4643900484852
 30
0.0
 11
6295.575079065952
 21
648.967834930375
 31
0.0
 70
    32
  1
2315
  3
PROTO1-10
100
AcDbAlignedDimension
 13
5137.083391235496
 23
749.692707136086
 33
0.0
 14
7454.066766896407
 24
749.692707136086
 34
0.0
100
AcDbRotatedDimension
  0
LINE
  5
44C7
330
18
100
AcDbEntity
  8
ASSE1
100
AcDbLine
 10
6127.541723234454
 20
2421.367790810451
 30
0.0
 11
6106.460116466859
 21
2516.38624688354
 31
0.0
  0
LINE
  5
44C8
330
18
100
AcDbEntity
  8
ASSE1
100
AcDbLine
 10
6064.154915750485
 20
2456.573791834426
 30
0.0
 11
6167.486520340244
 21
2479.783028219674
 31
0.0
  0
CIRCLE
  5
44C9
330
18
100
AcDbEntity
  8
0
100
AcDbCircle
 10
6117.123219650978
 20
2468.325792446996
 30
0.0
 40
45.0
  0
LINE
  5
44CA
330
18
100
AcDbEntity
  8
ASSE1
100
AcDbLine
 10
5956.628203662453
 20
2208.20008437949
 30
0.0
 11
6372.162442177463
 21
2473.095167667345
 31
0.0
  0
ARC
  5
44CB
330
18
100
AcDbEntity
  8
0
100
AcDbCircle
 10
6069.31811867583
 20
2279.925395051819
 30
0.0
 40
117.5
100
AcDbArc
 50
306.5451352386642
 51
264.030306363624
  0
LINE
  5
44CC
330
18
100
AcDbEntity
  8
0
100
AcDbLine
 10
5895.725458676968
 20
1048.931195233442
 30
0.0
 11
6212.01165283079
 21
1048.931195233442
 31
0.0
  0
ARC
  5
44CD
330
18
100
AcDbEntity
  8
0
100
AcDbCircle
 10
5895.725458676968
 20
1296.281807071349
 30
0.0
 40
180.870707679096
100
AcDbArc
 50
270.0
 51
8.739980512229744
  0
LINE
  5
44CE
330
18
100
AcDbEntity
  8
ASSE1
100
AcDbLine
 10
5670.486180825468
 20
1598.207982315817
 30
0.0
 11
6212.422990989314
 21
1746.397717069893
 31
0.0
  0
LWPOLYLINE
  5
44CF
330
18
100
AcDbEntity
  8
SQUADRATURA
100
AcDbPolyline
 90
        4
 70
     1
 43
0.0
 10
4066.354523879874
 20
286.7899306263916
 10
8166.354523879874
 20
286.7899306263916
 10
8166.354523879874
 20
3156.789930626391
 10
4066.354523879874
 20
3156.789930626391
  0
LWPOLYLINE
  5
44D0
330
18
100
AcDbEntity
  8
SQUADRATURA
100
AcDbPolyline
 90
        4
 70
     1
 43
0.0
 10
4116.354523879873
 20
336.7899306263916
 10
8116.354523879875
 20
336.7899306263916
 10
8116.354523879875
 20
3106.789930626391
 10
4116.354523879873
 20
3106.789930626391
  0
CIRCLE
  5
44D1
330
18
100
AcDbEntity
  8
ASSE1
100
AcDbCircle
 10
6212.389671375197
 20
1746.386283303528
 30
0.0
 40
400.0
  0
LINE
  5
44D2
330
18
100
AcDbEntity
  8
ASSE1
100
AcDbLine
 10
6644.842467083707
 20
1746.386283303528
 30
0.0
 11
5781.066960458842
 21
1746.386283303528
 31
0.0
  0
CIRCLE
  5
44D3
330
18
100
AcDbEntity
  8
0
100
AcDbCircle
 10
6212.389671375197
 20
1746.386283303528
 30
0.0
 40
442.5963020646904
  0
INSERT
  5
44D4
330
18
100
AcDbEntity
  8
0
100
AcDbBlockReference
  2
A$C15
 10
5862.079733277236
 20
1619.239660172054
 30
0.0
  0
LINE
  5
44D5
330
18
100
AcDbEntity
  8
0
100
AcDbLine
 10
5427.081392207906
 20
2742.474109712341
 30
0.0
 11
7264.970079248818
 21
2742.442946512375
 31
0.0
  0
LINE
  5
44D6
330
18
100
AcDbEntity
  8
0
100
AcDbLine
 10
5427.183391235498
 20
2702.474109712341
 30
0.0
 11
7164.160785478459
 21
2702.474109712341
 31
0.0
  0
LINE
  5
44D7
330
18
100
AcDbEntity
  8
0
100
AcDbLine
 10
5303.584259009829
 20
749.6890659178971
 30
0.0
 11
7263.952093344572
 21
749.6890659178971
 31
0.0
  0
LINE
  5
44D8
330
18
100
AcDbEntity
  8
0
100
AcDbLine
 10
5427.183391235498
 20
789.692707136086
 30
0.0
 11
6885.850978912343
 21
789.707907389177
 31
0.0
  0
LINE
  5
44D9
330
18
100
AcDbEntity
  8
ASSE1
100
AcDbLine
 10
5723.5944459284
 20
1502.453337839402
 30
0.0
 11
5495.390082671113
 21
1913.907706181435
 31
0.0
  0
CIRCLE
  5
44DA
330
18
100
AcDbEntity
  8
0
100
AcDbCircle
 10
5670.847639384399
 20
1598.01356817491
 30
0.0
 40
118.9817572139172
  0
LINE
  5
44DB
330
18
100
AcDbEntity
  8
ASSE1
100
AcDbLine
 10
5780.283310877575
 20
1660.161226506028
 30
0.0
 11
5560.56617927997
 21
1536.185407646472
 31
0.0
  0
ARC
  5
44DC
330
18
100
AcDbEntity
  8
0
100
AcDbCircle
 10
5626.578864464071
 20
1671.304402318671
 30
0.0
 40
186.1574668619968
100
AcDbArc
 50
189.0573962738995
 51
271.6668801517931
  0
LINE
  5
44DD
330
18
100
AcDbEntity
  8
0
100
AcDbLine
 10
5137.083391235496
 20
901.6971115154175
 30
0.0
 11
5137.048610021231
 21
2616.907859685539
 31
0.0
  0
LINE
  5
44DE
330
18
100
AcDbEntity
  8
0
100
AcDbLine
 10
5177.083391235496
 20
1039.792707136086
 30
0.0
 11
5177.083391235496
 21
2452.374109712341
 31
0.0
  0
DIMENSION
  5
44DF
330
18
100
AcDbEntity
  8
QUOTA
100
AcDbDimension
  2
*D8
 10
4772.382575716966
 20
616.4643900484852
 30
0.0
 11
4954.732983476231
 21
648.9643900484852
 31
0.0
 70
    32
  1
365
  3
PROTO1-10
100
AcDbAlignedDimension
 13
5137.083391235496
 23
749.692707136086
 33
0.0
 14
4772.382575716966
 24
1086.711816237051
 34
0.0
100
AcDbRotatedDimension
  0
LINE
  5
44E0
330
18
100
AcDbEntity
  8
ASSE1
100
AcDbLine
 10
5833.843358224496
 20
1146.711816237051
 30
0.0
 11
4747.609051413379
 21
1146.711816237051
 31
0.0
  0
INSERT
  5
44E1
330
18
100
AcDbEntity
  8
0
100
AcDbBlockReference
  2
A$C6
 10
4186.681207839877
 20
358.4655516194225
 30
0.0
  0
LINE
  5
44E2
330
18
100
AcDbEntity
  8
0
100
AcDbLine
 10
5137.0796394889
 20
1086.711816237051
 30
0.0
 11
4772.365738247475
 21
1086.711816237051
 31
0.0
  0
LINE
  5
44E3
330
18
100
AcDbEntity
  8
0
100
AcDbLine
 10
5137.077206116956
 20
1206.711816237051
 30
0.0
 11
4772.365738247475
 21
1206.711816237051
 31
0.0
  0
DIMENSION
  5
44E4
330
18
100
AcDbEntity
  8
QUOTA
100
AcDbDimension
  2
*D13
 10
4589.510017764514
 20
1205.779045194194
 30
0.0
 11
4557.006572882625
 21
1146.245430715623
 31
0.0
 70
    32
  1
120
  3
PROTO1-10
100
AcDbAlignedDimension
 13
4772.365738247475
 23
1086.711816237051
 33
0.0
 14
4772.382575716966
 24
1205.779045194193
 34
0.0
 50
90.0
100
AcDbRotatedDimension
  0
LINE
  5
44E5
330
18
100
AcDbEntity
  8
0
100
AcDbLine
 10
4772.382575716966
 20
1205.779045194193
 30
0.0
 11
4772.382575716966
 21
1086.198632287058
 31
0.0
  0
ARC
  5
44E6
330
18
100
AcDbEntity
  8
0
100
AcDbCircle
 10
5442.398405324157
 20
943.8487881933934
 30
0.0
 40
83.07217110933803
100
AcDbArc
 50
61.18683045303288
 51
118.8131695469671
  0
LINE
  5
44E7
330
18
100
AcDbEntity
  8
0
100
AcDbLine
 10
5482.584485131312
 20
1115.898734948061
 30
0.0
 11
5402.510375023916
 21
1016.795577214397
 31
0.0
  0
LINE
  5
44E8
330
18
100
AcDbEntity
  8
0
100
AcDbLine
 10
5401.30964894321
 20
1116.494563513453
 30
0.0
 11
5482.880221713942
 21
1116.494563513453
 31
0.0
  0
LINE
  5
44E9
330
18
100
AcDbEntity
  8
0
100
AcDbLine
 10
5759.316715057991
 20
1206.711816237051
 30
0.0
 11
5177.083391235496
 21
1206.711816237051
 31
0.0
  0
LINE
  5
44EA
330
18
100
AcDbEntity
  8
0
100
AcDbLine
 10
5402.510375023916
 20
1116.632832412754
 30
0.0
 11
5331.986386720293
 21
1032.945721437661
 31
0.0
  0
LINE
  5
44EB
330
18
100
AcDbEntity
  8
0
100
AcDbLine
 10
5331.973875884834
 20
1016.494563513453
 30
0.0
 11
5331.973875884834
 21
1111.816575385945
 31
0.0
  0
LINE
  5
44EC
330
18
100
AcDbEntity
  8
0
100
AcDbLine
 10
5215.652254785156
 20
1107.560687540345
 30
0.0
 11
5215.652254785156
 21
994.7007515592114
 31
0.0
  0
LINE
  5
44ED
330
18
100
AcDbEntity
  8
0
 48
10.0
100
AcDbLine
 10
5177.083391235496
 20
1039.792707136086
 30
0.0
 11
5137.083391235496
 21
1039.792707136086
 31
0.0
  0
LINE
  5
44EE
330
18
100
AcDbEntity
  8
0
 48
10.0
100
AcDbLine
 10
5427.081392207906
 20
749.692707136086
 30
0.0
 11
5137.083391235496
 21
749.692707136086
 31
0.0
  0
LINE
  5
44EF
330
18
100
AcDbEntity
  8
0
 48
10.0
100
AcDbLine
 10
5137.083391235496
 20
1039.799657840742
 30
0.0
 11
5137.083391235496
 21
749.8727175539379
 31
0.0
  0
LINE
  5
44F0
330
18
100
AcDbEntity
  8
0
 48
10.0
100
AcDbLine
 10
5427.183391235498
 20
789.692707136086
 30
0.0
 11
5387.183391235499
 21
789.692707136086
 31
0.0
  0
LINE
  5
44F1
330
18
100
AcDbEntity
  8
0
 48
10.0
100
AcDbLine
 10
5427.183391235498
 20
789.692707136086
 30
0.0
 11
5427.183391235498
 21
749.692707136086
 31
0.0
  0
LINE
  5
44F2
330
18
100
AcDbEntity
  8
0
100
AcDbLine
 10
5215.652254785156
 20
994.7007515592114
 30
0.0
 11
5331.995120605519
 21
994.7007515592114
 31
0.0
  0
LINE
  5
44F3
330
18
100
AcDbEntity
  8
0
 48
10.0
100
AcDbLine
 10
5177.083391235496
 20
999.7927071360864
 30
0.0
 11
5177.083391235496
 21
1039.792707136086
 31
0.0
  0
LINE
  5
44F4
330
18
100
AcDbEntity
  8
0
100
AcDbLine
 10
5402.722983229947
 20
1016.494563513453
 30
0.0
 11
5331.973875884834
 21
1016.494563513453
 31
0.0
  0
LINE
  5
44F5
330
18
100
AcDbEntity
  8
0
100
AcDbLine
 10
5331.995120605519
 20
994.7007515592114
 30
0.0
 11
5331.995120605519
 21
1016.456884745248
 31
0.0
  0
LINE
  5
44F6
330
18
100
AcDbEntity
  8
0
100
AcDbLine
 10
5331.995120605519
 20
1107.560687540345
 30
0.0
 11
5215.652254785156
 21
1107.560687540345
 31
0.0
  0
LINE
  5
44F7
330
18
100
AcDbEntity
  8
0
100
AcDbLine
 10
5215.652254785156
 20
1086.711816237051
 30
0.0
 11
5177.083391235496
 21
1086.711816237051
 31
0.0
  0
ARC
  5
44F8
330
18
100
AcDbEntity
  8
0
100
AcDbCircle
 10
5361.738677356282
 20
1189.420330209055
 30
0.0
 40
83.07217110933803
100
AcDbArc
 50
248.4746009503481
 51
298.8131695469671
  0
LINE
  5
44F9
330
18
100
AcDbEntity
  8
0
100
AcDbLine
 10
5895.725458676968
 20
1115.411099392253
 30
0.0
 11
5895.725458676968
 21
1048.931195233442
 31
0.0
  0
LINE
  5
44FA
330
18
100
AcDbEntity
  8
0
100
AcDbLine
 10
5881.973875884835
 20
1116.494563513453
 30
0.0
 11
5881.973875884835
 21
1016.494563513453
 31
0.0
  0
LINE
  5
44FB
330
18
100
AcDbEntity
  8
0
100
AcDbLine
 10
5882.22042622256
 20
1116.632832412754
 30
0.0
 11
5802.146316115164
 21
1016.795577214397
 31
0.0
  0
LINE
  5
44FC
330
18
100
AcDbEntity
  8
0
100
AcDbLine
 10
5722.072206007768
 20
1116.632832412754
 30
0.0
 11
5641.998095900372
 21
1016.795577214397
 31
0.0
  0
LINE
  5
44FD
330
18
100
AcDbEntity
  8
0
100
AcDbLine
 10
5802.146316115164
 20
1116.632832412754
 30
0.0
 11
5722.072206007768
 21
1016.795577214397
 31
0.0
  0
LINE
  5
44FE
330
18
100
AcDbEntity
  8
0
100
AcDbLine
 10
5561.923974736906
 20
1116.632832412754
 30
0.0
 11
5482.584485131312
 21
1017.529674679091
 31
0.0
  0
LINE
  5
44FF
330
18
100
AcDbEntity
  8
0
100
AcDbLine
 10
5641.998095900372
 20
1116.632832412754
 30
0.0
 11
5561.923974736906
 21
1016.061479749703
 31
0.0
  0
ARC
  5
4500
330
18
100
AcDbEntity
  8
0
100
AcDbCircle
 10
5762.110687294366
 20
943.8001882656617
 30
0.0
 40
83.07217110933803
100
AcDbArc
 50
61.18683045303288
 51
118.8131695469671
  0
ARC
  5
4501
330
18
100
AcDbEntity
  8
0
100
AcDbCircle
 10
5602.397633953692
 20
943.6998811688418
 30
0.0
 40
83.07217110933803
100
AcDbArc
 50
61.18683045303288
 51
118.8131695469671
  0
LINE
  5
4502
330
18
100
AcDbEntity
  8
0
100
AcDbLine
 10
5562.472156747899
 20
1016.494563513453
 30
0.0
 11
5482.590134782549
 21
1016.494563513453
 31
0.0
  0
LINE
  5
4503
330
18
100
AcDbEntity
  8
0
100
AcDbLine
 10
5722.123240822069
 20
1016.494563513453
 30
0.0
 11
5642.190294603108
 21
1016.494563513453
 31
0.0
  0
LINE
  5
4504
330
18
100
AcDbEntity
  8
0
100
AcDbLine
 10
5881.973875884835
 20
1016.494563513453
 30
0.0
 11
5802.145376349303
 21
1016.494563513453
 31
0.0
  0
LINE
  5
4505
330
18
100
AcDbEntity
  8
ASSE1
100
AcDbLine
 10
5735.007550287917
 20
1242.847143419542
 30
0.0
 11
5895.67991128769
 21
1297.713797790699
 31
0.0
  0
ARC
  5
4506
330
18
100
AcDbEntity
  8
0
100
AcDbCircle
 10
5894.739839995724
 20
1295.951439202325
 30
0.0
 40
162.3885412590509
100
AcDbArc
 50
95.81987483626528
 51
185.1214713781497
  0
LINE
  5
4507
330
18
100
AcDbEntity
  8
0
100
AcDbLine
 10
5721.976585370255
 20
1116.494563513453
 30
0.0
 11
5802.153939861737
 21
1116.494563513453
 31
0.0
  0
ARC
  5
4508
330
18
100
AcDbEntity
  8
0
100
AcDbCircle
 10
5894.644657232155
 20
1296.129975233297
 30
0.0
 40
162.201291891808
100
AcDbArc
 50
211.6235785840532
 51
305.9706746594747
  0
LINE
  5
4509
330
18
100
AcDbEntity
  8
0
100
AcDbLine
 10
5561.833094186713
 20
1116.494563513453
 30
0.0
 11
5641.757069696234
 21
1116.494563513453
 31
0.0
  0
ARC
  5
450A
330
18
100
AcDbEntity
  8
0
100
AcDbCircle
 10
5521.886908627142
 20
1189.420330209055
 30
0.0
 40
83.07217110933803
100
AcDbArc
 50
241.1868304530328
 51
298.8131695469671
  0
ARC
  5
450B
330
18
100
AcDbEntity
  8
0
100
AcDbCircle
 10
5682.035139898006
 20
1189.420330209055
 30
0.0
 40
83.07217110933803
100
AcDbArc
 50
241.1868304530328
 51
298.8131695469671
  0
ARC
  5
450C
330
18
100
AcDbEntity
  8
0
100
AcDbCircle
 10
5740.412081582879
 20
1244.813637836692
 30
0.0
 40
37.38401232512029
100
AcDbArc
 50
295.5375700494198
 51
101.4363559133411
  0
LINE
  5
450D
330
18
100
AcDbEntity
  8
ASSE1
100
AcDbLine
 10
5895.945431098398
 20
1296.936245461917
 30
0.0
 11
5922.278417503266
 21
1430.589657828213
 31
0.0
  0
ARC
  5
450E
330
18
100
AcDbEntity
  8
0
100
AcDbCircle
 10
5894.644657232155
 20
1296.129975233297
 30
0.0
 40
162.201291891808
100
AcDbArc
 50
332.9638514448671
 51
14.00590331823629
  0
CIRCLE
  5
450F
330
18
100
AcDbEntity
  8
0
100
AcDbCircle
 10
5896.092870126103
 20
1294.393372860112
 30
0.0
 40
53.58434662298532
  0
LINE
  5
4510
330
18
100
AcDbEntity
  8
ASSE1
100
AcDbLine
 10
6025.215493009778
 20
1184.852477010267
 30
0.0
 11
5896.375619721003
 21
1297.42858304207
 31
0.0
  0
LINE
  5
4511
330
18
100
AcDbEntity
  8
ASSE1
100
AcDbLine
 10
5998.862252225508
 20
1146.711816237051
 30
0.0
 11
5954.169630263205
 21
1146.711816237051
 31
0.0
  0
ARC
  5
4512
330
18
100
AcDbEntity
  8
0
100
AcDbCircle
 10
5842.183371168864
 20
1189.420330209055
 30
0.0
 40
83.07217110933803
100
AcDbArc
 50
241.1868304530328
 51
298.8131695469671
  0
LINE
  5
4513
330
18
100
AcDbEntity
  8
0
100
AcDbLine
 10
5895.725447620901
 20
1086.711816237051
 30
0.0
 11
5882.22042622256
 21
1086.711816237051
 31
0.0
  0
LINE
  5
4514
330
18
100
AcDbEntity
  8
0
100
AcDbLine
 10
5881.951294528064
 20
1116.494563513453
 30
0.0
 11
5881.973875884835
 21
1116.494563513453
 31
0.0
  0
ARC
  5
4515
330
18
100
AcDbEntity
  8
0
100
AcDbCircle
 10
6016.567449247708
 20
1191.877536156292
 30
0.0
 40
37.95159115602986
100
AcDbArc
 50
53.540070909844
 51
225.3944551944977
  0
LINE
  5
4516
330
18
100
AcDbEntity
  8
0
100
AcDbLine
 10
6052.722577622455
 20
1206.711816237051
 30
0.0
 11
5981.552236842249
 21
1206.711816237051
 31
0.0
  0
LINE
  5
4517
330
18
100
AcDbEntity
  8
ASSE1
100
AcDbLine
 10
5914.344163105067
 20
1448.340775033398
 30
0.0
 11
5944.749754696089
 21
1478.746366624419
 31
0.0
  0
CIRCLE
  5
4518
330
18
100
AcDbEntity
  8
COSTRUZIONE
100
AcDbCircle
 10
5929.546958900576
 20
1463.543570828908
 30
0.0
 40
20.0
  0
TEXT
  5
4519
330
18
100
AcDbEntity
  8
0
100
AcDbText
 10
4138.406810102556
 20
2982.47569463308
 30
0.0
 40
80.0
  1
ETICAP SYSTEM 
 41
0.8
  7
ROMANS
100
AcDbText
  0
LINE
  5
451A
330
18
100
AcDbEntity
  8
SQUADRATURA
100
AcDbLine
 10
4828.06118305013
 20
2944.420457848289
 30
0.0
 11
5155.346414765297
 21
2944.420457848289
 31
0.0
  0
LINE
  5
451B
330
18
100
AcDbEntity
  8
0
100
AcDbLine
 10
4141.51305393995
 20
2960.78764327737
 30
0.0
 11
5125.081093614956
 21
2960.78764327737
 31
0.0
  0
LINE
  5
451C
330
18
100
AcDbEntity
  8
0
100
AcDbLine
 10
4141.51305393995
 20
2971.881838795169
 30
0.0
 11
5124.119475414115
 21
2971.881838795169
 31
0.0
  0
LINE
  5
451D
330
18
100
AcDbEntity
  8
SQUADRATURA
100
AcDbLine
 10
5155.346414765297
 20
3083.599128231514
 30
0.0
 11
4138.810317339925
 21
3083.599128231514
 31
0.0
  0
LINE
  5
451E
330
18
100
AcDbEntity
  8
SQUADRATURA
100
AcDbLine
 10
4684.75988800211
 20
1917.909872817801
 30
0.0
 11
4684.75988800211
 21
2944.420457848289
 31
0.0
  0
LINE
  5
451F
330
18
100
AcDbEntity
  8
SQUADRATURA
100
AcDbLine
 10
4138.810317339925
 20
3082.725952832637
 30
0.0
 11
4138.810317339925
 21
1917.381027104234
 31
0.0
  0
TEXT
  5
4520
330
18
100
AcDbEntity
  8
TESTO
100
AcDbText
 10
4147.933391324306
 20
2557.260157825216
 30
0.0
 40
40.0
  1
7.000 B/h
 41
0.8
  7
ROMANS
100
AcDbText
  0
TEXT
  5
4521
330
18
100
AcDbEntity
  8
TESTO
100
AcDbText
 10
4144.757858353821
 20
1960.689110093938
 30
0.0
 40
40.0
  1
LARGHEZZA 120 mm
 41
0.8
  7
ROMANS
100
AcDbText
  0
LINE
  5
4522
330
18
100
AcDbEntity
  8
SQUADRATURA
100
AcDbLine
 10
4139.106006241298
 20
1918.014962008713
 30
0.0
 11
4684.670951019316
 21
1918.014962008713
 31
0.0
  0
LINE
  5
4523
330
18
100
AcDbEntity
  8
0
100
AcDbLine
 10
4139.106006241298
 20
1933.927887084372
 30
0.0
 11
4670.235730382791
 21
1933.927887084372
 31
0.0
  0
LINE
  5
4524
330
18
100
AcDbEntity
  8
0
100
AcDbLine
 10
4139.106006241298
 20
1949.776740985259
 30
0.0
 11
4668.312493981111
 21
1949.776740985259
 31
0.0
  0
LINE
  5
4525
330
18
100
AcDbEntity
  8
SQUADRATURA
100
AcDbLine
 10
4139.106006241298
 20
2046.390677499495
 30
0.0
 11
4685.621610154933
 21
2046.390677499495
 31
0.0
  0
LINE
  5
4526
330
18
100
AcDbEntity
  8
SQUADRATURA
100
AcDbLine
 10
4139.106006241298
 20
2163.672197472477
 30
0.0
 11
4685.621644478827
 21
2163.672197472477
 31
0.0
  0
LINE
  5
4527
330
18
100
AcDbEntity
  8
SQUADRATURA
100
AcDbLine
 10
4139.106006241298
 20
2285.708364764436
 30
0.0
 11
4685.621644478827
 21
2285.708364764436
 31
0.0
  0
LINE
  5
4528
330
18
100
AcDbEntity
  8
SQUADRATURA
100
AcDbLine
 10
4139.106006241298
 20
2393.480573503296
 30
0.0
 11
4684.686428533965
 21
2393.480573503296
 31
0.0
  0
LINE
  5
4529
330
18
100
AcDbEntity
  8
SQUADRATURA
100
AcDbLine
 10
4139.106006241298
 20
2515.51674632731
 30
0.0
 11
4683.698408077147
 21
2515.51674632731
 31
0.0
  0
TEXT
  5
452A
330
18
100
AcDbEntity
  8
TESTO
100
AcDbText
 10
4147.933391324306
 20
2084.445869171023
 30
0.0
 40
40.0
  1
ALTEZZA 100 mm
 41
0.8
  7
ROMANS
100
AcDbText
  0
TEXT
  5
452B
330
18
100
AcDbEntity
  8
TESTO
100
AcDbText
 10
4141.582334228188
 20
2205.029377055859
 30
0.0
 40
40.0
  1
DIMENSIONI NASTRO
 41
0.8
  7
ROMANS
100
AcDbText
  0
TEXT
  5
452C
330
18
100
AcDbEntity
  8
TESTO
100
AcDbText
 10
4144.757858353821
 20
2433.50339340234
 30
0.0
 40
40.0
  1
LUNGHEZZA NASTRO
 41
0.8
  7
ROMANS
100
AcDbText
  0
LINE
  5
452D
330
18
100
AcDbEntity
  8
0
100
AcDbLine
 10
4138.810317339925
 20
2062.667955040167
 30
0.0
 11
4667.355020280123
 21
2062.667955040167
 31
0.0
  0
LINE
  5
452E
330
18
100
AcDbEntity
  8
0
100
AcDbLine
 10
4138.810317339925
 20
2184.387689635996
 30
0.0
 11
4643.310443641865
 21
2184.387689635996
 31
0.0
  0
LINE
  5
452F
330
18
100
AcDbEntity
  8
0
100
AcDbLine
 10
4138.810317339925
 20
2413.695664165738
 30
0.0
 11
4645.233680043545
 21
2413.695664165738
 31
0.0
  0
LINE
  5
4530
330
18
100
AcDbEntity
  8
0
100
AcDbLine
 10
4138.810317339925
 20
2076.931919125322
 30
0.0
 11
4667.355020280123
 21
2076.931919125322
 31
0.0
  0
LINE
  5
4531
330
18
100
AcDbEntity
  8
0
100
AcDbLine
 10
4138.810317339925
 20
2197.066769437474
 30
0.0
 11
4643.310443641865
 21
2197.066769437474
 31
0.0
  0
LINE
  5
4532
330
18
100
AcDbEntity
  8
0
100
AcDbLine
 10
4138.810317339925
 20
2427.959633782948
 30
0.0
 11
4643.310443641865
 21
2427.959633782948
 31
0.0
  0
TEXT
  5
4533
330
18
100
AcDbEntity
  8
TESTO
100
AcDbText
 10
4144.757858353821
 20
2312.919885517502
 30
0.0
 40
40.0
  1
3000 mm
 41
0.8
  7
ROMANS
100
AcDbText
  0
LINE
  5
4534
330
18
100
AcDbEntity
  8
0
100
AcDbLine
 10
4138.810317339925
 20
2298.322576309403
 30
0.0
 11
4417.367660039244
 21
2298.322576309403
 31
0.0
  0
LINE
  5
4535
330
18
100
AcDbEntity
  8
0
100
AcDbLine
 10
4138.810317339925
 20
2307.831887543524
 30
0.0
 11
4417.367660039244
 21
2307.831887543524
 31
0.0
  0
LINE
  5
4536
330
18
100
AcDbEntity
  8
0
100
AcDbLine
 10
4138.810317339925
 20
2538.17916328711
 30
0.0
 11
4499.506366472028
 21
2538.17916328711
 31
0.0
  0
LINE
  5
4537
330
18
100
AcDbEntity
  8
0
100
AcDbLine
 10
4138.810317339925
 20
2550.858243088585
 30
0.0
 11
4499.506366472028
 21
2550.858243088585
 31
0.0
  0
LINE
  5
4538
330
18
100
AcDbEntity
  8
SQUADRATURA
100
AcDbLine
 10
4828.06118305013
 20
2944.420457848289
 30
0.0
 11
4138.810317339925
 21
2944.420457848289
 31
0.0
  0
TEXT
  5
4539
330
18
100
AcDbEntity
  8
TESTO
100
AcDbText
 10
4147.933391324306
 20
2871.411929633401
 30
0.0
 40
40.0
  1
MODELLO
 41
0.8
  7
ROMANS
100
AcDbText
  0
LINE
  5
453A
330
18
100
AcDbEntity
  8
0
100
AcDbLine
 10
4138.810317339925
 20
2865.909407059128
 30
0.0
 11
4449.508892593244
 21
2865.909407059128
 31
0.0
  0
LINE
  5
453B
330
18
100
AcDbEntity
  8
0
100
AcDbLine
 10
4138.810317339925
 20
2749.350345952311
 30
0.0
 11
4589.148563887088
 21
2749.350345952311
 31
0.0
  0
LINE
  5
453C
330
18
100
AcDbEntity
  8
0
100
AcDbLine
 10
4138.810317339925
 20
2763.614315569522
 30
0.0
 11
4589.148563887088
 21
2763.614315569522
 31
0.0
  0
LINE
  5
453D
330
18
100
AcDbEntity
  8
SQUADRATURA
100
AcDbLine
 10
4139.106006241298
 20
2731.061152740918
 30
0.0
 11
4683.698408077147
 21
2731.061152740918
 31
0.0
  0
LINE
  5
453E
330
18
100
AcDbEntity
  8
SQUADRATURA
100
AcDbLine
 10
4139.106006241298
 20
2835.663587380368
 30
0.0
 11
4683.698408077147
 21
2835.663587380368
 31
0.0
  0
TEXT
  5
453F
330
18
100
AcDbEntity
  8
TESTO
100
AcDbText
 10
4144.757858353821
 20
2769.867923556253
 30
0.0
 40
40.0
  1
PF3 8T 3S CA
 41
0.8
  7
ROMANS
100
AcDbText
  0
TEXT
  5
4540
330
18
100
AcDbEntity
  8
TESTO
100
AcDbText
 10
4147.933391324306
 20
2665.150666286857
 30
0.0
 40
40.0
  1
PRODUZIONE
 41
0.8
  7
ROMANS
100
AcDbText
  0
LINE
  5
4541
330
18
100
AcDbEntity
  8
0
100
AcDbLine
 10
4138.810317339925
 20
2657.362387763221
 30
0.0
 11
4524.505098834901
 21
2657.362387763221
 31
0.0
  0
LINE
  5
4542
330
18
100
AcDbEntity
  8
0
100
AcDbLine
 10
4138.810317339925
 20
2853.230321725596
 30
0.0
 11
4449.508892593244
 21
2853.230321725596
 31
0.0
  0
LINE
  5
4543
330
18
100
AcDbEntity
  8
SQUADRATURA
100
AcDbLine
 10
4139.106006241298
 20
2629.628486668825
 30
0.0
 11
4683.698408077147
 21
2629.628486668825
 31
0.0
  0
LINE
  5
4544
330
18
100
AcDbEntity
  8
0
100
AcDbLine
 10
4138.810317339925
 20
2644.683302429689
 30
0.0
 11
4524.505098834901
 21
2644.683302429689
 31
0.0
  0
LINE
  5
4545
330
18
100
AcDbEntity
  8
ASSE1
100
AcDbLine
 10
5535.300246323084
 20
1922.701538461507
 30
0.0
 11
5422.154762605818
 21
2640.211468526662
 31
0.0
  0
LINE
  5
4546
330
18
100
AcDbEntity
  8
0
100
AcDbLine
 10
5519.882615349691
 20
2635.180081281308
 30
0.0
 11
5630.4664460215
 21
1943.970115790396
 31
0.0
  0
LINE
  5
4547
330
18
100
AcDbEntity
  8
0
100
AcDbLine
 10
5325.191397498977
 20
2604.032236569896
 30
0.0
 11
5435.775228170787
 21
1912.822271078984
 31
0.0
  0
LINE
  5
4548
330
18
100
AcDbEntity
  8
0
 48
10.0
100
AcDbLine
 10
5137.083391235496
 20
2452.781706860375
 30
0.0
 11
5137.083391235496
 21
2742.474109712341
 31
0.0
  0
LINE
  5
4549
330
18
100
AcDbEntity
  8
ASSE1
100
AcDbLine
 10
5539.314251229352
 20
1667.053384974951
 30
0.0
 11
5436.216060911982
 21
1650.043164120314
 31
0.0
  0
CIRCLE
  5
454A
330
18
100
AcDbEntity
  8
0
100
AcDbCircle
 10
5554.657811482432
 20
1804.767641286042
 30
0.0
 40
117.5
  0
LINE
  5
454B
330
18
100
AcDbEntity
  8
ASSE1
100
AcDbLine
 10
5668.411868584088
 20
1865.734883254769
 30
0.0
 11
5447.002912157153
 21
1743.425555894562
 31
0.0
  0
LINE
  5
454C
330
18
100
AcDbEntity
  8
0
100
AcDbLine
 10
5630.4664460215
 20
1943.970115790396
 30
0.0
 11
5435.775228170787
 21
1912.822271078984
 31
0.0
  0
CIRCLE
  5
454D
330
18
100
AcDbEntity
  8
0
100
AcDbCircle
 10
5484.795158084343
 20
1658.016893992881
 30
0.0
 40
45.0
  0
LINE
  5
454E
330
18
100
AcDbEntity
  8
0
100
AcDbLine
 10
5416.095365683228
 20
1815.465707192695
 30
0.0
 11
5394.877070268979
 21
1944.735904607697
 31
0.0
  0
LINE
  5
454F
330
18
100
AcDbEntity
  8
0
100
AcDbLine
 10
5416.095365683228
 20
1815.465707192695
 30
0.0
 11
5439.873067220108
 21
1660.663732179354
 31
0.0
  0
LINE
  5
4550
330
18
100
AcDbEntity
  8
0
100
AcDbLine
 10
5394.877070268979
 20
1944.735904607697
 30
0.0
 11
5423.745899047808
 21
1984.942753836887
 31
0.0
  0
LINE
  5
4551
330
18
100
AcDbEntity
  8
0
 48
10.0
100
AcDbLine
 10
5177.083391235496
 20
2452.374109712341
 30
0.0
 11
5137.083391235496
 21
2452.374109712341
 31
0.0
  0
LINE
  5
4552
330
18
100
AcDbEntity
  8
0
 48
10.0
100
AcDbLine
 10
5177.083391235496
 20
2492.374109712341
 30
0.0
 11
5177.083391235496
 21
2452.374109712341
 31
0.0
  0
CIRCLE
  5
4553
330
18
100
AcDbEntity
  8
COSTRUZIONE
100
AcDbCircle
 10
5812.389671375196
 20
1746.386283303528
 30
0.0
 40
20.0
  0
LINE
  5
4554
330
18
100
AcDbEntity
  8
0
100
AcDbLine
 10
5719.999774405294
 20
1820.797267217933
 30
0.0
 11
5638.615175242109
 21
1904.627094008446
 31
0.0
  0
LINE
  5
4555
330
18
100
AcDbEntity
  8
ASSE1
100
AcDbLine
 10
5535.300246323084
 20
1922.701538461507
 30
0.0
 11
5554.657811482432
 21
1804.767641286042
 31
0.0
  0
LINE
  5
4556
330
18
100
AcDbEntity
  8
ASSE1
100
AcDbLine
 10
5493.583151291275
 20
1604.476984468416
 30
0.0
 11
5476.750100219945
 21
1706.593084710573
 31
0.0
  0
LINE
  5
4557
330
18
100
AcDbEntity
  8
0
100
AcDbLine
 10
5750.027315202064
 20
1686.416513939166
 30
0.0
 11
5720.018016740566
 21
1820.794052647246
 31
0.0
  0
LINE
  5
4558
330
18
100
AcDbEntity
  8
0
100
AcDbLine
 10
5630.4664460215
 20
1943.970115790396
 30
0.0
 11
5636.524309753724
 21
1906.1051245357
 31
0.0
  0
CIRCLE
  5
4559
330
18
100
AcDbEntity
  8
COSTRUZIONE
100
AcDbCircle
 10
5929.546958900576
 20
2029.228995778147
 30
0.0
 40
20.0
  0
LINE
  5
455A
330
18
100
AcDbEntity
  8
ASSE1
100
AcDbLine
 10
5914.344163105067
 20
2044.431791573658
 30
0.0
 11
5944.749754696087
 21
2014.026199982636
 31
0.0
  0
ARC
  5
455B
330
18
100
AcDbEntity
  8
0
100
AcDbCircle
 10
6137.47945886547
 20
2326.595650260074
 30
0.0
 40
186.0804430678615
100
AcDbArc
 50
102.9482308397461
 51
188.5347920589678
  0
LINE
  5
455C
330
18
100
AcDbEntity
  8
0
100
AcDbLine
 10
5325.191397498977
 20
2604.032236569896
 30
0.0
 11
5519.690602838112
 21
2635.149361991762
 31
0.0
  0
LINE
  5
455D
330
18
100
AcDbEntity
  8
SQUADRATURA
100
AcDbLine
 10
5155.346414765297
 20
2944.420457848289
 30
0.0
 11
5155.346414765297
 21
3083.599128231514
 31
0.0
  0
LINE
  5
455E
330
18
100
AcDbEntity
  8
0
 48
10.0
100
AcDbLine
 10
5427.081392207906
 20
2742.474109712341
 30
0.0
 11
5137.083391235496
 21
2742.474109712341
 31
0.0
  0
TEXT
  5
455F
330
18
100
AcDbEntity
  8
TESTO
100
AcDbText
 10
4927.442583592808
 20
2981.193848652495
 30
0.0
 40
48.0
  1
canelli
 41
0.8
  7
ROMANS
100
AcDbText
  0
LINE
  5
4560
330
18
100
AcDbEntity
  8
0
 48
10.0
100
AcDbLine
 10
5427.183391235498
 20
2702.474109712341
 30
0.0
 11
5387.183391235499
 21
2702.474109712341
 31
0.0
  0
LINE
  5
4561
330
18
100
AcDbEntity
  8
0
 48
10.0
100
AcDbLine
 10
5427.183391235498
 20
2702.474109712341
 30
0.0
 11
5427.183391235498
 21
2742.474109712341
 31
0.0
  0
DIMENSION
  5
4562
330
18
100
AcDbEntity
  8
QUOTA
100
AcDbDimension
  2
*D12
 10
8045.728570848261
 20
749.7974654540438
 30
0.0
 11
8013.22857084826
 21
1746.135787583193
 31
0.0
 70
    32
  1
1995
  3
PROTO1-10
100
AcDbAlignedDimension
 13
7454.255252615846
 23
2742.474109712341
 33
0.0
 14
7454.26078547846
 24
749.7974654540439
 34
0.0
 50
90.0
100
AcDbRotatedDimension
  0
DIMENSION
  5
4563
330
18
100
AcDbEntity
  8
QUOTA
100
AcDbDimension
  2
*D11
 10
7918.054235982632
 20
2742.365028153739
 30
0.0
 11
7885.554235982631
 21
1944.538422195396
 31
0.0
 70
    32
  1
1595
  3
PROTO1-10
100
AcDbAlignedDimension
 13
7773.846871520518
 23
1146.711816237051
 33
0.0
 14
7454.26078547846
 24
2742.365028153739
 34
0.0
 50
90.0
100
AcDbRotatedDimension
  0
LINE
  5
4564
330
18
100
AcDbEntity
  8
ASSE1
100
AcDbLine
 10
6903.166217506414
 20
1874.880224968903
 30
0.0
 11
7333.261328303875
 21
1256.668490359688
 31
0.0
  0
LINE
  5
4565
330
18
100
AcDbEntity
  8
0
100
AcDbLine
 10
7388.381583390672
 20
1352.459611622855
 30
0.0
 11
6988.519238579202
 21
1927.011702561415
 31
0.0
  0
LINE
  5
4566
330
18
100
AcDbEntity
  8
0
100
AcDbLine
 10
7226.549069555232
 20
1239.831480127822
 30
0.0
 11
6826.68672474376
 21
1814.383571066383
 31
0.0
  0
LINE
  5
4567
330
18
100
AcDbEntity
  8
0
100
AcDbLine
 10
7454.205721119753
 20
2607.401013900716
 30
0.0
 11
7454.26078547846
 21
901.2825636627278
 31
0.0
  0
LINE
  5
4568
330
18
100
AcDbEntity
  8
0
100
AcDbLine
 10
7414.260785478457
 20
2452.374109712341
 30
0.0
 11
7414.260785478457
 21
1045.535509281545
 31
0.0
  0
LINE
  5
4569
330
18
100
AcDbEntity
  8
ASSE1
100
AcDbLine
 10
6212.389671375197
 20
2180.682633915015
 30
0.0
 11
6212.389671375197
 21
1315.313164913909
 31
0.0
  0
LINE
  5
456A
330
18
100
AcDbEntity
  8
0
 48
10.0
100
AcDbLine
 10
7164.262784506047
 20
749.692707136086
 30
0.0
 11
7454.066766896407
 21
749.692707136086
 31
0.0
  0
LINE
  5
456B
330
18
100
AcDbEntity
  8
ASSE1
100
AcDbLine
 10
7797.731184691848
 20
1146.711816237051
 30
0.0
 11
6595.909755173694
 21
1146.711816237051
 31
0.0
  0
LINE
  5
456C
330
18
100
AcDbEntity
  8
0
100
AcDbLine
 10
7454.260586976538
 20
1045.535509281545
 30
0.0
 11
6885.850978912343
 21
1045.535509281545
 31
0.0
  0
LINE
  5
456D
330
18
100
AcDbEntity
  8
0
100
AcDbLine
 10
7414.260785478457
 20
1086.711816237051
 30
0.0
 11
6528.297846984611
 21
1086.711816237051
 31
0.0
  0
LINE
  5
456E
330
18
100
AcDbEntity
  8
0
100
AcDbLine
 10
7414.260785478457
 20
1206.711816237051
 30
0.0
 11
6664.667624910098
 21
1206.711816237051
 31
0.0
  0
LINE
  5
456F
330
18
100
AcDbEntity
  8
0
100
AcDbLine
 10
6528.297846984611
 20
1115.411099392253
 30
0.0
 11
6528.297846984611
 21
1048.931195233442
 31
0.0
  0
ARC
  5
4570
330
18
100
AcDbEntity
  8
0
100
AcDbCircle
 10
6528.297846984611
 20
1296.281807071349
 30
0.0
 40
180.870707679096
100
AcDbArc
 50
171.2600194877702
 51
270.0
  0
LINE
  5
4571
330
18
100
AcDbEntity
  8
0
100
AcDbLine
 10
6528.297846984611
 20
1048.931195233442
 30
0.0
 11
6212.01165283079
 21
1048.931195233442
 31
0.0
  0
ARC
  5
4572
330
18
100
AcDbEntity
  8
0
100
AcDbCircle
 10
6408.438691674207
 20
1191.789163852906
 30
0.0
 40
37.74219361534213
100
AcDbArc
 50
314.3680990052784
 51
126.8954512725897
  0
LINE
  5
4573
330
18
100
AcDbEntity
  8
ASSE1
100
AcDbLine
 10
6399.465704102666
 20
1184.852477010267
 30
0.0
 11
6528.305577391441
 21
1297.42858304207
 31
0.0
  0
LINE
  5
4574
330
18
100
AcDbEntity
  8
0
100
AcDbLine
 10
6443.128960270195
 20
1206.711816237051
 30
0.0
 11
6372.446678530377
 21
1206.711816237051
 31
0.0
  0
LINE
  5
4575
330
18
100
AcDbEntity
  8
ASSE1
100
AcDbLine
 10
6468.707702794985
 20
1146.711816237051
 30
0.0
 11
6425.161042380003
 21
1146.711816237051
 31
0.0
  0
ARC
  5
4576
330
18
100
AcDbEntity
  8
0
100
AcDbCircle
 10
6529.899537652018
 20
1295.503763443862
 30
0.0
 40
161.6147307933074
100
AcDbArc
 50
233.9674431602439
 51
328.5914830199599
  0
ARC
  5
4577
330
18
100
AcDbEntity
  8
0
100
AcDbCircle
 10
6530.036539880289
 20
1296.129975233297
 30
0.0
 40
162.201291891808
100
AcDbArc
 50
165.9940966817637
 51
207.2060706827631
  0
CIRCLE
  5
4578
330
18
100
AcDbEntity
  8
COSTRUZIONE
100
AcDbCircle
 10
6212.389671375197
 20
1346.386283303528
 30
0.0
 40
20.0
  0
LINE
  5
4579
330
18
100
AcDbEntity
  8
ASSE1
100
AcDbLine
 10
6528.735766014046
 20
1296.936245461917
 30
0.0
 11
6502.402779609179
 21
1430.589657828213
 31
0.0
  0
CIRCLE
  5
457A
330
18
100
AcDbEntity
  8
0
100
AcDbCircle
 10
6528.617968239593
 20
1294.393372860112
 30
0.0
 40
53.58434662298532
  0
ARC
  5
457B
330
18
100
AcDbEntity
  8
0
100
AcDbCircle
 10
6530.19304013649
 20
1296.4235255941
 30
0.0
 40
161.8934938475176
100
AcDbArc
 50
354.7220593954727
 51
84.25179751793811
  0
LINE
  5
457C
330
18
100
AcDbEntity
  8
ASSE1
100
AcDbLine
 10
6689.673646824528
 20
1242.847143419542
 30
0.0
 11
6529.001285824755
 21
1297.713797790699
 31
0.0
  0
ARC
  5
457D
330
18
100
AcDbEntity
  8
0
100
AcDbCircle
 10
6684.267986220821
 20
1244.845590227795
 30
0.0
 40
37.37266014135402
100
AcDbArc
 50
78.99826635901449
 51
243.912141864237
  0
LINE
  5
457E
330
18
100
AcDbEntity
  8
ASSE1
100
AcDbLine
 10
6510.435179645327
 20
1448.340775033398
 30
0.0
 11
6480.029588054306
 21
1478.74636662442
 31
0.0
  0
CIRCLE
  5
457F
330
18
100
AcDbEntity
  8
COSTRUZIONE
100
AcDbCircle
 10
6495.232383849816
 20
1463.543570828909
 30
0.0
 40
20.0
  0
MTEXT
  5
4580
330
18
100
AcDbEntity
  8
0
100
AcDbMText
 10
6993.934367553871
 20
960.7866550630307
 30
0.0
 40
50.0
 41
425.55
 71
     1
 72
     5
  1
 Quadro Elettrico
1001
ACAD
1000
MTEXTBEGIN
1070
    73
1070
     1
1070
    44
1040
1.0
1070
    74
1070
     0
1000
MTEXTEND
  0
LINE
  5
4581
330
18
100
AcDbEntity
  8
0
100
AcDbLine
 10
6885.850978912343
 20
1045.535509281545
 30
0.0
 11
6885.850978912343
 21
750.4079946804113
 31
0.0
  0
LINE
  5
4582
330
18
100
AcDbEntity
  8
0
100
AcDbLine
 10
7388.381583390672
 20
1352.459611622855
 30
0.0
 11
7226.708675457233
 21
1239.942558637894
 31
0.0
  0
DIMENSION
  5
4583
330
18
100
AcDbEntity
  8
QUOTA
100
AcDbDimension
  2
*D10
 10
7918.054235982632
 20
749.7974654540439
 30
0.0
 11
7885.554235982633
 21
948.2546408455489
 31
0.0
 70
    32
  1
400
  3
PROTO1-10
100
AcDbAlignedDimension
 13
7773.846871520518
 23
1146.711816237051
 33
0.0
 14
7454.26078547846
 24
749.7974654540439
 34
0.0
 50
90.0
100
AcDbRotatedDimension
  0
DIMENSION
  5
4584
330
18
100
AcDbEntity
  8
QUOTA
100
AcDbDimension
  2
*D9
 10
7773.522382157205
 20
616.4643900484852
 30
0.0
 11
7613.794574526806
 21
648.967834930375
 31
0.0
 70
    32
  1
320
  3
PROTO1-10
100
AcDbAlignedDimension
 13
7454.066766896407
 23
749.692707136086
 33
0.0
 14
7773.522382157205
 24
1086.711816237051
 34
0.0
100
AcDbRotatedDimension
  0
LINE
  5
4585
330
18
100
AcDbEntity
  8
0
 48
10.0
100
AcDbLine
 10
7454.26078547846
 20
1039.385109988052
 30
0.0
 11
7454.26078547846
 21
749.7974654540439
 31
0.0
  0
LINE
  5
4586
330
18
100
AcDbEntity
  8
0
100
AcDbLine
 10
7454.250927859302
 20
1206.711816237051
 30
0.0
 11
7773.522382157205
 21
1206.711816237051
 31
0.0
  0
LINE
  5
4587
330
18
100
AcDbEntity
  8
0
100
AcDbLine
 10
7454.254800816096
 20
1086.711816237051
 30
0.0
 11
7773.522382157205
 21
1086.711816237051
 31
0.0
  0
LINE
  5
4588
330
18
100
AcDbEntity
  8
0
100
AcDbLine
 10
7773.846871520518
 20
1206.711816237051
 30
0.0
 11
7773.846871520518
 21
1086.711816237051
 31
0.0
  0
LINE
  5
4589
330
18
100
AcDbEntity
  8
0
 48
10.0
100
AcDbLine
 10
7164.262784506047
 20
2742.474109712341
 30
0.0
 11
7454.255252615846
 21
2742.474109712341
 31
0.0
  0
LINE
  5
458A
330
18
100
AcDbEntity
  8
0
100
AcDbLine
 10
6397.63270162331
 20
2571.875380622512
 30
0.0
 11
6439.382855432244
 21
2545.287325843522
 31
0.0
  0
LINE
  5
458B
330
18
100
AcDbEntity
  8
ASSE1
100
AcDbLine
 10
6266.767232489359
 20
2405.678516103554
 30
0.0
 11
7106.918007528441
 21
2586.394082042277
 31
0.0
  0
LINE
  5
458C
330
18
100
AcDbEntity
  8
0
100
AcDbLine
 10
7051.897670622782
 20
2679.862945771843
 30
0.0
 11
7093.910459472812
 21
2486.812691185238
 31
0.0
  0
LINE
  5
458D
330
18
100
AcDbEntity
  8
0
100
AcDbLine
 10
6367.907581101586
 20
2529.887913513894
 30
0.0
 11
7051.897670622782
 21
2678.742061715369
 31
0.0
  0
LINE
  5
458E
330
18
100
AcDbEntity
  8
0
100
AcDbLine
 10
6269.742625551631
 20
2543.500595295045
 30
0.0
 11
6397.63270162331
 21
2571.875380622512
 31
0.0
  0
ARC
  5
458F
330
18
100
AcDbEntity
  8
0
100
AcDbCircle
 10
6711.744229294819
 20
2061.66868451517
 30
0.0
 40
186.1574668619996
100
AcDbArc
 50
34.9899882216153
 51
117.4135684849117
  0
CIRCLE
  5
4590
330
18
100
AcDbEntity
  8
0
100
AcDbCircle
 10
6834.500723993973
 20
1972.697245126873
 30
0.0
 40
117.5
  0
LINE
  5
4591
330
18
100
AcDbEntity
  8
0
100
AcDbLine
 10
6692.536517948846
 20
1886.435562945977
 30
0.0
 11
6802.256633071076
 21
1846.28099685139
 31
0.0
  0
LINE
  5
4592
330
18
100
AcDbEntity
  8
ASSE1
100
AcDbLine
 10
6535.505808736252
 20
2182.094252293703
 30
0.0
 11
6935.294252835427
 21
1900.137738599403
 31
0.0
  0
CIRCLE
  5
4593
330
18
100
AcDbEntity
  8
0
100
AcDbCircle
 10
6640.033270374823
 20
2108.453395406762
 30
0.0
 40
118.9817572139172
  0
LINE
  5
4594
330
18
100
AcDbEntity
  8
0
100
AcDbLine
 10
6409.970341722256
 20
2336.608036869146
 30
0.0
 11
7093.960431243451
 21
2485.462185070621
 31
0.0
  0
LINE
  5
4595
330
18
100
AcDbEntity
  8
ASSE1
100
AcDbLine
 10
6568.458525873353
 20
2004.937437309699
 30
0.0
 11
6712.508624098244
 21
2212.048979191787
 31
0.0
  0
LINE
  5
4596
330
18
100
AcDbEntity
  8
ASSE1
100
AcDbLine
 10
6212.38713592865
 20
1746.389601402627
 30
0.0
 11
6640.443296718548
 21
2108.43529718968
 31
0.0
  0
CIRCLE
  5
4597
330
18
100
AcDbEntity
  8
COSTRUZIONE
100
AcDbCircle
 10
6612.389671375196
 20
1746.386283303528
 30
0.0
 40
20.0
  0
CIRCLE
  5
4598
330
18
100
AcDbEntity
  8
COSTRUZIONE
100
AcDbCircle
 10
6495.232383849816
 20
2029.228995778147
 30
0.0
 40
20.0
  0
LINE
  5
4599
330
18
100
AcDbEntity
  8
ASSE1
100
AcDbLine
 10
6510.435179645327
 20
2044.431791573658
 30
0.0
 11
6480.029588054304
 21
2014.026199982636
 31
0.0
  0
LINE
  5
459A
330
18
100
AcDbEntity
  8
0
100
AcDbLine
 10
6607.115925851828
 20
1994.431685579455
 30
0.0
 11
6692.518690263899
 21
1886.430534038515
 31
0.0
  0
LINE
  5
459B
330
18
100
AcDbEntity
  8
ASSE1
100
AcDbLine
 10
6331.433884046892
 20
2295.171296464059
 30
0.0
 11
6203.338276072509
 21
2513.283682089096
 31
0.0
  0
LINE
  5
459C
330
18
100
AcDbEntity
  8
0
100
AcDbLine
 10
6291.9675009665
 20
2241.483936170533
 30
0.0
 11
6371.141400567451
 21
2327.404751242656
 31
0.0
  0
CIRCLE
  5
459D
330
18
100
AcDbEntity
  8
0
100
AcDbCircle
 10
6266.767232489359
 20
2405.678516103554
 30
0.0
 40
117.5
  0
LINE
  5
459E
330
18
100
AcDbEntity
  8
0
100
AcDbLine
 10
6156.728192152286
 20
2203.25615378743
 30
0.0
 11
6291.965305913872
 21
2241.465543291344
 31
0.0
  0
CIRCLE
  5
459F
330
18
100
AcDbEntity
  8
COSTRUZIONE
100
AcDbCircle
 10
6212.389671375197
 20
2146.386283303528
 30
0.0
 40
20.0
  0
LINE
  5
45A0
330
18
100
AcDbEntity
  8
0
100
AcDbLine
 10
6269.742625551631
 20
2544.621479351519
 30
0.0
 11
6120.789139080174
 21
2513.176222040687
 31
0.0
  0
LINE
  5
45A1
330
18
100
AcDbEntity
  8
0
100
AcDbLine
 10
6409.970341722256
 20
2336.608036869146
 30
0.0
 11
6367.907581101586
 21
2529.887913513894
 31
0.0
  0
LINE
  5
45A2
330
18
100
AcDbEntity
  8
0
100
AcDbLine
 10
6409.970341722256
 20
2337.72892092562
 30
0.0
 11
6372.286225639811
 21
2329.527870813762
 31
0.0
  0
LINE
  5
45A3
330
18
100
AcDbEntity
  8
ASSE1
100
AcDbLine
 10
6758.523543909788
 20
1868.368638279013
 30
0.0
 11
6904.82142082989
 21
2074.714049553509
 31
0.0
  0
LINE
  5
45A4
330
18
100
AcDbEntity
  8
0
100
AcDbLine
 10
6963.954321203662
 20
2023.251831164858
 30
0.0
 11
6877.479183840211
 21
2149.172240628057
 31
0.0
  0
LINE
  5
45A5
330
18
100
AcDbEntity
  8
0
100
AcDbLine
 10
6826.68672474376
 20
1814.383571066383
 30
0.0
 11
6804.781970840777
 21
1845.857957989182
 31
0.0
  0
LINE
  5
45A6
330
18
100
AcDbEntity
  8
0
100
AcDbLine
 10
6826.68672474376
 20
1814.383571066383
 30
0.0
 11
6988.519238579202
 21
1927.011702561415
 31
0.0
  0
LINE
  5
45A7
330
18
100
AcDbEntity
  8
0
100
AcDbLine
 10
6963.954321203662
 20
2023.251831164858
 30
0.0
 11
7039.220229602712
 21
1916.032229258929
 31
0.0
  0
LINE
  5
45A8
330
18
100
AcDbEntity
  8
0
100
AcDbLine
 10
7039.220229602712
 20
1916.032229258929
 30
0.0
 11
7030.682983245913
 21
1867.276558566759
 31
0.0
  0
LINE
  5
45A9
330
18
100
AcDbEntity
  8
ASSE1
100
AcDbLine
 10
6791.740762103742
 20
2105.262967820325
 30
0.0
 11
6874.566939063379
 21
2163.14305849072
 31
0.0
  0
CIRCLE
  5
45AA
330
18
100
AcDbEntity
  8
0
100
AcDbCircle
 10
6834.274345999189
 20
2134.858504502261
 30
0.0
 40
45.0
  0
LINE
  5
45AB
330
18
100
AcDbEntity
  8
ASSE1
100
AcDbLine
 10
6803.101422877361
 20
2179.265706626844
 30
0.0
 11
6866.136717112737
 21
2089.314820417836
 31
0.0
  0
LINE
  5
45AC
330
18
100
AcDbEntity
  8
0
 48
10.0
100
AcDbLine
 10
7164.160785478459
 20
2702.474109712341
 30
0.0
 11
7204.160785478459
 21
2702.474109712341
 31
0.0
  0
LINE
  5
45AD
330
18
100
AcDbEntity
  8
0
 48
10.0
100
AcDbLine
 10
7164.160785478459
 20
2702.474109712341
 30
0.0
 11
7164.160785478459
 21
2742.474109712341
 31
0.0
  0
LINE
  5
45AE
330
18
100
AcDbEntity
  8
0
 48
10.0
100
AcDbLine
 10
7454.26078547846
 20
2452.781706860375
 30
0.0
 11
7454.26078547846
 21
2742.365028153739
 31
0.0
  0
LINE
  5
45AF
330
18
100
AcDbEntity
  8
0
 48
10.0
100
AcDbLine
 10
7414.260785478457
 20
2452.374109712341
 30
0.0
 11
7454.26078547846
 21
2452.374109712341
 31
0.0
  0
LINE
  5
45B0
330
18
100
AcDbEntity
  8
0
 48
10.0
100
AcDbLine
 10
7414.260785478457
 20
2492.374109712341
 30
0.0
 11
7414.260785478457
 21
2452.374109712341
 31
0.0
  0
VIEWPORT
  5
4BB
330
15
100
AcDbEntity
 67
     1
  8
0
100
AcDbViewport
 10
143.4359283447265
 20
98.98591613769532
 30
0.0
 40
342.894455254162
 41
222.2413625793457
 68
     1
 69
     1
1001
ACAD
1000
MVIEW
1002
{
1070
    16
1010
0.0
1020
0.0
1030
0.0
1010
0.0
1020
0.0
1030
1.0
1040
0.0
1040
222.2413625793457
1040
143.4359283447265
1040
98.98591613769532
1040
50.0
1040
0.0
1040
0.0
1070
     0
1070
   100
1070
     1
1070
     1
1070
     0
1070
     0
1070
     0
1070
     0
1040
0.0
1040
0.0
1040
0.0
1040
10.0
1040
10.0
1040
10.0
1040
10.0
1070
     0
1002
{
1002
}
1002
}
  0
VIEWPORT
  5
4BD
330
15
100
AcDbEntity
 67
     1
  8
DISEGNO
100
AcDbViewport
 10
142.5892558097839
 20
98.09691238403321
 30
0.0
 40
228.1428092956542
 41
156.9550598144531
 68
     2
 69
     2
1001
ACAD
1000
MVIEW
1002
{
1070
    16
1010
0.0
1020
0.0
1030
0.0
1010
0.0
1020
0.0
1030
1.0
1040
0.0
1040
300.0991304347826
1040
210.0
1040
148.5
1040
50.0
1040
0.0
1040
0.0
1070
     0
1070
   100
1070
     1
1070
     1
1070
     0
1070
     0
1070
     0
1070
     0
1040
0.0
1040
0.0
1040
0.0
1040
10.0
1040
10.0
1040
10.0
1040
10.0
1070
     0
1002
{
1002
}
1002
}
  0
ENDSEC
  0
SECTION
  2
OBJECTS
  0
DICTIONARY
  5
C
330
0
100
AcDbDictionary
  3
ACAD_GROUP
350
D
  3
ACAD_LAYOUT
350
4AF
  3
ACAD_MLINESTYLE
350
1B
  3
ACAD_PLOTSETTINGS
350
4B0
  3
ACAD_PLOTSTYLENAME
350
4AD
  3
ACADDIM
350
2B4C
  3
ACDBVARIABLEDICTIONARY
350
188C
  3
ACDBHEADERROUNDTRIPXREC
350
4682
  0
DICTIONARY
  5
46A5
330
18
100
AcDbDictionary
280
     1
  3
ACAD_LAYOUTSELFREF
360
46A6
  0
DICTIONARY
  5
46A3
330
15
100
AcDbDictionary
280
     1
  3
ACAD_LAYOUTSELFREF
360
46A4
  0
DICTIONARY
  5
D
102
{ACAD_REACTORS
330
C
102
}
330
C
100
AcDbDictionary
  0
DICTIONARY
  5
4AF
102
{ACAD_REACTORS
330
C
102
}
330
C
100
AcDbDictionary
  0
DICTIONARY
  5
1B
102
{ACAD_REACTORS
330
C
102
}
330
C
100
AcDbDictionary
  3
STANDARD
350
1C
  0
DICTIONARY
  5
4B0
102
{ACAD_REACTORS
330
C
102
}
330
C
100
AcDbDictionary
  0
ACDBDICTIONARYWDFLT
  5
4AD
102
{ACAD_REACTORS
330
C
102
}
330
C
100
AcDbDictionary
281
     1
  3
Normal
350
4AE
100
AcDbDictionaryWithDefault
340
4AE
  0
XRECORD
  5
2B4C
102
{ACAD_REACTORS
330
C
102
}
330
C
100
AcDbXrecord
 90
   990106
  3

 60
     0
 61
     0
 62
     1
 63
     1
 64
     0
 65
     0
 66
     0
 67
     3
 68
     1
 69
     0
 70
     0
 71
     0
 72
     0
 40
3649.817019401083
170
     2
340
0
  0
DICTIONARY
  5
188C
102
{ACAD_REACTORS
330
C
102
}
330
C
100
AcDbDictionary
  3
SORTENTS
350
188D
  0
DICTIONARY
  5
4682
102
{ACAD_REACTORS
330
C
102
}
330
C
100
AcDbDictionary
  3
TSTACKALIGN
350
4683
  3
TSTACKSIZE
350
4684
  3
HYPERLINKBASE
350
4685
  3
STYLESHEET
350
4686
  3
LAYOUTDICT
350
4687
  3
PLOTSETDICT
350
4688
  3
PLOTSTYLNAMDICT
350
4689
  3
LWETCUNION
350
468A
  3
INSUNITS
350
468B
  3
CEPSNTYPE
350
468C
  3
FINGERPRINTGUID
350
468D
  3
VERSIONGUID
350
468E
  3
PSVPSCALE
350
468F
  3
DIMSTYLEDATA
350
4690
  3
PUCSORTHOREF
350
4691
  3
PUCSORTHOVIEW
350
4692
  3
PUCSBASE
350
4693
  3
PUCSORGTOP
350
4694
  3
PUCSORGBOTTOM
350
4695
  3
PUCSORGLEFT
350
4696
  3
PUCSORGRIGHT
350
4697
  3
PUCSORGFRONT
350
4698
  3
PUCSORGBACK
350
4699
  3
UCSORTHOREF
350
469A
  3
UCSORTHOVIEW
350
469B
  3
UCSBASE
350
469C
  3
UCSORGTOP
350
469D
  3
UCSORGBOTTOM
350
469E
  3
UCSORGLEFT
350
469F
  3
UCSORGRIGHT
350
46A0
  3
UCSORGFRONT
350
46A1
  3
UCSORGBACK
350
46A2
  0
XRECORD
  5
46A6
102
{ACAD_REACTORS
330
46A5
102
}
330
46A5
100
AcDbXrecord
340
18
  0
XRECORD
  5
46A4
102
{ACAD_REACTORS
330
46A3
102
}
330
46A3
100
AcDbXrecord
340
15
  0
MLINESTYLE
  5
1C
102
{ACAD_REACTORS
330
1B
102
}
330
1B
100
AcDbMlineStyle
  2
STANDARD
 70
     0
  3

 62
   256
 51
90.0
 52
90.0
 71
     2
 49
0.5
 62
   256
  6
BYLAYER
 49
-0.5
 62
   256
  6
BYLAYER
  0
ACDBPLACEHOLDER
  5
4AE
102
{ACAD_REACTORS
330
4AD
102
}
330
4AD
100
AcDbPlaceHolder
280
     0
  0
DICTIONARYVAR
  5
188D
102
{ACAD_REACTORS
330
188C
102
}
330
188C
100
DictionaryVariables
280
     0
  1
96
  0
XRECORD
  5
4683
102
{ACAD_REACTORS
330
4682
102
}
330
4682
100
AcDbXrecord
 90
        1
  0
XRECORD
  5
4684
102
{ACAD_REACTORS
330
4682
102
}
330
4682
100
AcDbXrecord
 90
       70
  0
XRECORD
  5
4685
102
{ACAD_REACTORS
330
4682
102
}
330
4682
100
AcDbXrecord
  1

  0
XRECORD
  5
4686
102
{ACAD_REACTORS
330
4682
102
}
330
4682
100
AcDbXrecord
  1
monochrome.ctb
  0
XRECORD
  5
4687
102
{ACAD_REACTORS
330
4682
102
}
330
4682
100
AcDbXrecord
340
4AF
  0
XRECORD
  5
4688
102
{ACAD_REACTORS
330
4682
102
}
330
4682
100
AcDbXrecord
340
4B0
  0
XRECORD
  5
4689
102
{ACAD_REACTORS
330
4682
102
}
330
4682
100
AcDbXrecord
340
4AD
  0
XRECORD
  5
468A
102
{ACAD_REACTORS
330
4682
102
}
330
4682
100
AcDbXrecord
 90
    10781
  0
XRECORD
  5
468B
102
{ACAD_REACTORS
330
4682
102
}
330
4682
100
AcDbXrecord
 90
        0
  0
XRECORD
  5
468C
102
{ACAD_REACTORS
330
4682
102
}
330
4682
100
AcDbXrecord
 90
        0
  0
XRECORD
  5
468D
102
{ACAD_REACTORS
330
4682
102
}
330
4682
100
AcDbXrecord
  1
{0AF5C342-B131-11D3-8615-0050BAAF1E12}
  0
XRECORD
  5
468E
102
{ACAD_REACTORS
330
4682
102
}
330
4682
100
AcDbXrecord
  1
{F782AC65-E06F-4751-B867-FF662E1333FD}
  0
XRECORD
  5
468F
102
{ACAD_REACTORS
330
4682
102
}
330
4682
100
AcDbXrecord
 40
0.0
  0
XRECORD
  5
4690
102
{ACAD_REACTORS
330
4682
102
}
330
4682
100
AcDbXrecord
1000
DSTYLE
1002
{
1070
   279
 70
     2
1002
}
  0
XRECORD
  5
4691
102
{ACAD_REACTORS
330
4682
102
}
330
4682
100
AcDbXrecord
340
0
  0
XRECORD
  5
4692
102
{ACAD_REACTORS
330
4682
102
}
330
4682
100
AcDbXrecord
 70
     0
  0
XRECORD
  5
4693
102
{ACAD_REACTORS
330
4682
102
}
330
4682
100
AcDbXrecord
340
0
  0
XRECORD
  5
4694
102
{ACAD_REACTORS
330
4682
102
}
330
4682
100
AcDbXrecord
 10
0.0
 20
0.0
 30
0.0
  0
XRECORD
  5
4695
102
{ACAD_REACTORS
330
4682
102
}
330
4682
100
AcDbXrecord
 10
0.0
 20
0.0
 30
0.0
  0
XRECORD
  5
4696
102
{ACAD_REACTORS
330
4682
102
}
330
4682
100
AcDbXrecord
 10
0.0
 20
0.0
 30
0.0
  0
XRECORD
  5
4697
102
{ACAD_REACTORS
330
4682
102
}
330
4682
100
AcDbXrecord
 10
0.0
 20
0.0
 30
0.0
  0
XRECORD
  5
4698
102
{ACAD_REACTORS
330
4682
102
}
330
4682
100
AcDbXrecord
 10
0.0
 20
0.0
 30
0.0
  0
XRECORD
  5
4699
102
{ACAD_REACTORS
330
4682
102
}
330
4682
100
AcDbXrecord
 10
0.0
 20
0.0
 30
0.0
  0
XRECORD
  5
469A
102
{ACAD_REACTORS
330
4682
102
}
330
4682
100
AcDbXrecord
340
0
  0
XRECORD
  5
469B
102
{ACAD_REACTORS
330
4682
102
}
330
4682
100
AcDbXrecord
 70
     0
  0
XRECORD
  5
469C
102
{ACAD_REACTORS
330
4682
102
}
330
4682
100
AcDbXrecord
340
0
  0
XRECORD
  5
469D
102
{ACAD_REACTORS
330
4682
102
}
330
4682
100
AcDbXrecord
 10
0.0
 20
0.0
 30
0.0
  0
XRECORD
  5
469E
102
{ACAD_REACTORS
330
4682
102
}
330
4682
100
AcDbXrecord
 10
0.0
 20
0.0
 30
0.0
  0
XRECORD
  5
469F
102
{ACAD_REACTORS
330
4682
102
}
330
4682
100
AcDbXrecord
 10
0.0
 20
0.0
 30
0.0
  0
XRECORD
  5
46A0
102
{ACAD_REACTORS
330
4682
102
}
330
4682
100
AcDbXrecord
 10
0.0
 20
0.0
 30
0.0
  0
XRECORD
  5
46A1
102
{ACAD_REACTORS
330
4682
102
}
330
4682
100
AcDbXrecord
 10
0.0
 20
0.0
 30
0.0
  0
XRECORD
  5
46A2
102
{ACAD_REACTORS
330
4682
102
}
330
4682
100
AcDbXrecord
 10
0.0
 20
0.0
 30
0.0
  0
ENDSEC
  0
EOF
