  0
SECTION
  2
HEADER
  9
$ACADVER
  1
AC1014
  9
$ACADMAINTVER
 70
     9
  9
$DWGCODEPAGE
  3
ANSI_1252
  9
$INSBASE
 10
0.0
 20
0.0
 30
0.0
  9
$EXTMIN
 10
-111.067233749156
 20
194.4777378765393
 30
0.0
  9
$EXTMAX
 10
3988.932766250844
 20
3064.477737876539
 30
0.0
  9
$LIMMIN
 10
0.0
 20
0.0
  9
$LIMMAX
 10
4200.0
 20
2970.0
  9
$ORTHOMODE
 70
     0
  9
$REGENMODE
 70
     1
  9
$FILLMODE
 70
     1
  9
$QTEXTMODE
 70
     0
  9
$MIRRTEXT
 70
     1
  9
$DRAGMODE
 70
     2
  9
$LTSCALE
 40
10.0
  9
$OSMODE
 70
    37
  9
$ATTMODE
 70
     1
  9
$TEXTSIZE
 40
50.0
  9
$TRACEWID
 40
0.05
  9
$TEXTSTYLE
  7
STANDARD
  9
$CLAYER
  8
COSTRUZIONE
  9
$CELTYPE
  6
BYLAYER
  9
$CECOLOR
 62
   256
  9
$CELTSCALE
 40
1.0
  9
$DELOBJ
 70
     1
  9
$DISPSILH
 70
     0
  9
$DIMSCALE
 40
150.0
  9
$DIMASZ
 40
0.18
  9
$DIMEXO
 40
0.06
  9
$DIMDLI
 40
0.38
  9
$DIMRND
 40
0.0
  9
$DIMDLE
 40
0.0
  9
$DIMEXE
 40
0.18
  9
$DIMTP
 40
0.0
  9
$DIMTM
 40
0.0
  9
$DIMTXT
 40
0.18
  9
$DIMCEN
 40
0.09
  9
$DIMTSZ
 40
0.0
  9
$DIMTOL
 70
     0
  9
$DIMLIM
 70
     0
  9
$DIMTIH
 70
     0
  9
$DIMTOH
 70
     0
  9
$DIMSE1
 70
     0
  9
$DIMSE2
 70
     0
  9
$DIMTAD
 70
     1
  9
$DIMZIN
 70
     0
  9
$DIMBLK
  1

  9
$DIMASO
 70
     1
  9
$DIMSHO
 70
     1
  9
$DIMPOST
  1

  9
$DIMAPOST
  1

  9
$DIMALT
 70
     0
  9
$DIMALTD
 70
     2
  9
$DIMALTF
 40
25.4
  9
$DIMLFAC
 40
1.0
  9
$DIMTOFL
 70
     0
  9
$DIMTVP
 40
0.0
  9
$DIMTIX
 70
     0
  9
$DIMSOXD
 70
     0
  9
$DIMSAH
 70
     0
  9
$DIMBLK1
  1

  9
$DIMBLK2
  1

  9
$DIMSTYLE
  2
BASE
  9
$DIMCLRD
 70
     0
  9
$DIMCLRE
 70
     0
  9
$DIMCLRT
 70
     0
  9
$DIMTFAC
 40
1.0
  9
$DIMGAP
 40
0.09
  9
$DIMJUST
 70
     0
  9
$DIMSD1
 70
     0
  9
$DIMSD2
 70
     0
  9
$DIMTOLJ
 70
     1
  9
$DIMTZIN
 70
     0
  9
$DIMALTZ
 70
     0
  9
$DIMALTTZ
 70
     0
  9
$DIMFIT
 70
     3
  9
$DIMUPT
 70
     0
  9
$DIMUNIT
 70
     2
  9
$DIMDEC
 70
     4
  9
$DIMTDEC
 70
     4
  9
$DIMALTU
 70
     2
  9
$DIMALTTD
 70
     2
  9
$DIMTXSTY
  7
STANDARD
  9
$DIMAUNIT
 70
     0
  9
$LUNITS
 70
     2
  9
$LUPREC
 70
     2
  9
$SKETCHINC
 40
0.1
  9
$FILLETRAD
 40
40.0
  9
$AUNITS
 70
     0
  9
$AUPREC
 70
     0
  9
$MENU
  1
C:\promecad\acad
  9
$ELEVATION
 40
0.0
  9
$PELEVATION
 40
0.0
  9
$THICKNESS
 40
0.0
  9
$LIMCHECK
 70
     0
  9
$BLIPMODE
 70
     0
  9
$CHAMFERA
 40
0.0
  9
$CHAMFERB
 40
0.0
  9
$CHAMFERC
 40
0.0
  9
$CHAMFERD
 40
0.0
  9
$SKPOLY
 70
     0
  9
$TDCREATE
 40
2450589.653282187
  9
$TDUPDATE
 40
2453469.713261250
  9
$TDINDWG
 40
2.9765678356
  9
$TDUSRTIMER
 40
2.9765678356
  9
$USRTIMER
 70
     1
  9
$ANGBASE
 50
0.0
  9
$ANGDIR
 70
     0
  9
$PDMODE
 70
     0
  9
$PDSIZE
 40
0.0
  9
$PLINEWID
 40
0.0
  9
$COORDS
 70
     1
  9
$SPLFRAME
 70
     0
  9
$SPLINETYPE
 70
     6
  9
$SPLINESEGS
 70
     8
  9
$ATTDIA
 70
     0
  9
$ATTREQ
 70
     1
  9
$HANDLING
 70
 10241
  9
$HANDSEED
  5
30BD
  9
$SURFTAB1
 70
     6
  9
$SURFTAB2
 70
     6
  9
$SURFTYPE
 70
     6
  9
$SURFU
 70
     6
  9
$SURFV
 70
     6
  9
$UCSNAME
  2

  9
$UCSORG
 10
0.0
 20
0.0
 30
0.0
  9
$UCSXDIR
 10
1.0
 20
0.0
 30
0.0
  9
$UCSYDIR
 10
0.0
 20
1.0
 30
0.0
  9
$PUCSNAME
  2

  9
$PUCSORG
 10
0.0
 20
0.0
 30
0.0
  9
$PUCSXDIR
 10
1.0
 20
0.0
 30
0.0
  9
$PUCSYDIR
 10
0.0
 20
1.0
 30
0.0
  9
$USERI1
 70
    10
  9
$USERI2
 70
     1
  9
$USERI3
 70
     0
  9
$USERI4
 70
     2
  9
$USERI5
 70
     0
  9
$USERR1
 40
0.0
  9
$USERR2
 40
0.0
  9
$USERR3
 40
0.0
  9
$USERR4
 40
0.0
  9
$USERR5
 40
0.0
  9
$WORLDVIEW
 70
     1
  9
$SHADEDGE
 70
     3
  9
$SHADEDIF
 70
    70
  9
$TILEMODE
 70
     1
  9
$MAXACTVP
 70
    16
  9
$PINSBASE
 10
0.0
 20
0.0
 30
0.0
  9
$PLIMCHECK
 70
     0
  9
$PEXTMIN
 10
1.000000000000000E+20
 20
1.000000000000000E+20
 30
1.000000000000000E+20
  9
$PEXTMAX
 10
-1.000000000000000E+20
 20
-1.000000000000000E+20
 30
-1.000000000000000E+20
  9
$PLIMMIN
 10
0.0
 20
0.0
  9
$PLIMMAX
 10
12.0
 20
9.0
  9
$UNITMODE
 70
     0
  9
$VISRETAIN
 70
     0
  9
$PLINEGEN
 70
     0
  9
$PSLTSCALE
 70
     1
  9
$TREEDEPTH
 70
  3020
  9
$PICKSTYLE
 70
     1
  9
$CMLSTYLE
  2
STANDARD
  9
$CMLJUST
 70
     0
  9
$CMLSCALE
 40
1.0
  9
$PROXYGRAPHICS
 70
     1
  9
$MEASUREMENT
 70
     0
  0
ENDSEC
  0
SECTION
  2
CLASSES
  0
CLASS
  1
ACDBDICTIONARYWDFLT
  2
AcDbDictionaryWithDefault
  3
AutoCAD 2000
 90
        0
280
     0
281
     0
  0
CLASS
  1
ACDBPLACEHOLDER
  2
AcDbPlaceHolder
  3
AutoCAD 2000
 90
        0
280
     0
281
     0
  0
CLASS
  1
LAYOUT
  2
AcDbLayout
  3
AutoCAD 2000
 90
        0
280
     0
281
     0
  0
CLASS
  1
LONG_TRANSACTION
  2
AcDbLongTransaction
  3
AutoCAD 2000
 90
        0
280
     0
281
     0
  0
CLASS
  1
LWPOLYLINE
  2
AcDbPolyline
  3
AutoCAD 2000
 90
        0
280
     0
281
     1
  0
CLASS
  1
HATCH
  2
AcDbHatch
  3
AutoCAD 2000
 90
        0
280
     0
281
     1
  0
CLASS
  1
XRECORD
  2
AcDbXrecord
  3
AutoCAD 2000
 90
        0
280
     0
281
     0
  0
ENDSEC
  0
SECTION
  2
TABLES
  0
TABLE
  2
VPORT
  5
8
330
0
100
AcDbSymbolTable
 70
     2
  0
VPORT
  5
3098
330
8
100
AcDbSymbolTableRecord
100
AcDbViewportTableRecord
  2
*ACTIVE
 70
     0
 10
0.0
 20
0.0
 11
1.0
 21
1.0
 12
1938.942894975944
 22
1629.458455975652
 13
0.0
 23
0.0
 14
1.0
 24
1.0
 15
0.0
 25
0.0
 16
0.0
 26
0.0
 36
1.0
 17
0.0
 27
0.0
 37
0.0
 40
2903.561002019705
 41
1.828516377649325
 42
50.0
 43
0.0
 44
0.0
 50
0.0
 51
0.0
 71
     0
 72
   100
 73
     1
 74
     0
 75
     0
 76
     0
 77
     0
 78
     0
  0
ENDTAB
  0
TABLE
  2
LTYPE
  5
5
330
0
100
AcDbSymbolTable
 70
     7
  0
LTYPE
  5
14
330
5
100
AcDbSymbolTableRecord
100
AcDbLinetypeTableRecord
  2
BYBLOCK
 70
     0
  3

 72
    65
 73
     0
 40
0.0
  0
LTYPE
  5
15
330
5
100
AcDbSymbolTableRecord
100
AcDbLinetypeTableRecord
  2
BYLAYER
 70
     0
  3

 72
    65
 73
     0
 40
0.0
  0
LTYPE
  5
16
330
5
100
AcDbSymbolTableRecord
100
AcDbLinetypeTableRecord
  2
CONTINUOUS
 70
     0
  3
Solid line
 72
    65
 73
     0
 40
0.0
  0
LTYPE
  5
32
330
5
100
AcDbSymbolTableRecord
100
AcDbLinetypeTableRecord
  2
LIRIF
 70
     0
  3
. . . . . . . . . . . . . . . . . .
 72
    65
 73
     4
 40
0.1
 49
0.0
 74
     0
 49
-0.05
 74
     0
 49
0.0
 74
     0
 49
-0.05
 74
     0
  0
LTYPE
  5
33
330
5
100
AcDbSymbolTableRecord
100
AcDbLinetypeTableRecord
  2
ASSI5
 70
     0
  3
- . - . - . -
 72
    65
 73
     4
 40
10.0
 49
5.0
 74
     0
 49
-2.5
 74
     0
 49
0.0
 74
     0
 49
-2.5
 74
     0
  0
LTYPE
  5
34
330
5
100
AcDbSymbolTableRecord
100
AcDbLinetypeTableRecord
  2
ASSI10
 70
     0
  3
- . - . - . -
 72
    65
 73
     4
 40
20.0
 49
10.0
 74
     0
 49
-5.0
 74
     0
 49
0.0
 74
     0
 49
-5.0
 74
     0
  0
LTYPE
  5
35
330
5
100
AcDbSymbolTableRecord
100
AcDbLinetypeTableRecord
  2
TRATTO
 70
     0
  3
- - - - - - - - -
 72
    65
 73
     2
 40
5.0
 49
2.5
 74
     0
 49
-2.5
 74
     0
  0
LTYPE
  5
36
330
5
100
AcDbSymbolTableRecord
100
AcDbLinetypeTableRecord
  2
TRATTINO
 70
     0
  3
- - - - - - - - -
 72
    65
 73
     2
 40
3.0
 49
2.0
 74
     0
 49
-1.0
 74
     0
  0
LTYPE
  5
D2A
330
5
100
AcDbSymbolTableRecord
100
AcDbLinetypeTableRecord
  2
ASSI
 70
     0
  3
assi
 72
    65
 73
     4
 40
17.0
 49
8.0
 74
     0
 49
-4.0
 74
     0
 49
1.0
 74
     0
 49
-4.0
 74
     0
  0
ENDTAB
  0
TABLE
  2
LAYER
  5
2
330
0
100
AcDbSymbolTable
 70
    19
  0
LAYER
  5
F
330
2
100
AcDbSymbolTableRecord
100
AcDbLayerTableRecord
  2
0
 70
     0
 62
     7
  6
CONTINUOUS
  0
LAYER
  5
37
330
2
100
AcDbSymbolTableRecord
100
AcDbLayerTableRecord
  2
VITE
 70
     0
 62
    30
  6
CONTINUOUS
  0
LAYER
  5
38
330
2
100
AcDbSymbolTableRecord
100
AcDbLayerTableRecord
  2
FILETTO
 70
     0
 62
     3
  6
CONTINUOUS
  0
LAYER
  5
39
330
2
100
AcDbSymbolTableRecord
100
AcDbLayerTableRecord
  2
ASSE
 70
     0
 62
     1
  6
ASSI5
  0
LAYER
  5
3A
330
2
100
AcDbSymbolTableRecord
100
AcDbLayerTableRecord
  2
NASCOSTO
 70
     0
 62
     6
  6
TRATTINO
  0
LAYER
  5
3B
330
2
100
AcDbSymbolTableRecord
100
AcDbLayerTableRecord
  2
COSTRUZIONE
 70
     0
 62
     7
  6
CONTINUOUS
  0
LAYER
  5
3C
330
2
100
AcDbSymbolTableRecord
100
AcDbLayerTableRecord
  2
CUSCINETTO
 70
     0
 62
   240
  6
CONTINUOUS
  0
LAYER
  5
3D
330
2
100
AcDbSymbolTableRecord
100
AcDbLayerTableRecord
  2
SEZIONE
 70
     0
 62
     4
  6
CONTINUOUS
  0
LAYER
  5
3E
330
2
100
AcDbSymbolTableRecord
100
AcDbLayerTableRecord
  2
SPINA
 70
     0
 62
     7
  6
CONTINUOUS
  0
LAYER
  5
3F
330
2
100
AcDbSymbolTableRecord
100
AcDbLayerTableRecord
  2
SALDATURA
 70
     0
 62
     2
  6
CONTINUOUS
  0
LAYER
  5
40
330
2
100
AcDbSymbolTableRecord
100
AcDbLayerTableRecord
  2
SIMBOLO
 70
     0
 62
     4
  6
CONTINUOUS
  0
LAYER
  5
41
330
2
100
AcDbSymbolTableRecord
100
AcDbLayerTableRecord
  2
BOLLINI
 70
     0
 62
     4
  6
CONTINUOUS
  0
LAYER
  5
42
330
2
100
AcDbSymbolTableRecord
100
AcDbLayerTableRecord
  2
DISTINTA
 70
     0
 62
     7
  6
CONTINUOUS
  0
LAYER
  5
43
330
2
100
AcDbSymbolTableRecord
100
AcDbLayerTableRecord
  2
TESTO
 70
     0
 62
   254
  6
CONTINUOUS
  0
LAYER
  5
44
330
2
100
AcDbSymbolTableRecord
100
AcDbLayerTableRecord
  2
LINEAFIN
 70
     0
 62
     3
  6
CONTINUOUS
  0
LAYER
  5
45
330
2
100
AcDbSymbolTableRecord
100
AcDbLayerTableRecord
  2
SQUADRATURA
 70
     0
 62
     9
  6
CONTINUOUS
  0
LAYER
  5
46
330
2
100
AcDbSymbolTableRecord
100
AcDbLayerTableRecord
  2
CARTIGLIO
 70
     0
 62
     9
  6
CONTINUOUS
  0
LAYER
  5
47
330
2
100
AcDbSymbolTableRecord
100
AcDbLayerTableRecord
  2
QUOTA
 70
     0
 62
     3
  6
CONTINUOUS
  0
LAYER
  5
119
330
2
100
AcDbSymbolTableRecord
100
AcDbLayerTableRecord
  2
DEFPOINTS
 70
     0
 62
     7
  6
CONTINUOUS
  0
ENDTAB
  0
TABLE
  2
STYLE
  5
3
330
0
100
AcDbSymbolTable
 70
     4
  0
STYLE
  5
10
330
3
100
AcDbSymbolTableRecord
100
AcDbTextStyleTableRecord
  2
STANDARD
 70
     0
 40
0.0
 41
1.0
 50
0.0
 71
     0
 42
50.0
  3
txt
  4

  0
STYLE
  5
D2B
330
3
100
AcDbSymbolTableRecord
100
AcDbTextStyleTableRecord
  2
SANSSERIFBOLD
 70
     0
 40
0.0
 41
1.0
 50
0.0
 71
     0
 42
40.0
  3
sasb____.pfb
  4

  0
STYLE
  5
D2C
330
3
100
AcDbSymbolTableRecord
100
AcDbTextStyleTableRecord
  2
ROMANS
 70
     0
 40
0.0
 41
0.8
 50
0.0
 71
     0
 42
60.0
  3
romans
  4

  0
STYLE
  5
1B60
330
3
100
AcDbSymbolTableRecord
100
AcDbTextStyleTableRecord
  2
ROMANC
 70
     0
 40
50.0
 41
1.0
 50
0.0
 71
     0
 42
50.0
  3
romanc
  4

  0
ENDTAB
  0
TABLE
  2
VIEW
  5
6
330
0
100
AcDbSymbolTable
 70
     0
  0
ENDTAB
  0
TABLE
  2
UCS
  5
7
330
0
100
AcDbSymbolTable
 70
     0
  0
ENDTAB
  0
TABLE
  2
APPID
  5
9
330
0
100
AcDbSymbolTable
 70
     1
  0
APPID
  5
11
330
9
100
AcDbSymbolTableRecord
100
AcDbRegAppTableRecord
  2
ACAD
 70
     0
  0
ENDTAB
  0
TABLE
  2
DIMSTYLE
  5
A
330
0
100
AcDbSymbolTable
 70
     2
  0
DIMSTYLE
105
1D
330
A
100
AcDbSymbolTableRecord
100
AcDbDimStyleTableRecord
  2
STANDARD
 70
     0
  3

  4

  5

  6

  7

 40
50.0
 41
0.18
 42
0.06
 43
0.38
 44
0.18
 45
0.0
 46
0.0
 47
0.0
 48
0.0
140
0.18
141
0.09
142
0.0
143
25.4
144
1.0
145
0.0
146
1.0
147
0.09
 71
     0
 72
     0
 73
     0
 74
     0
 75
     0
 76
     0
 77
     2
 78
     0
170
     0
171
     2
172
     0
173
     0
174
     0
175
     0
176
     0
177
     0
178
     0
270
     2
271
     4
272
     4
273
     2
274
     2
340
10
275
     0
280
     0
281
     0
282
     0
283
     1
284
     0
285
     0
286
     0
287
     3
288
     0
  0
DIMSTYLE
105
10F
102
{ACAD_REACTORS
330
25A2
330
263D
330
266E
102
}
330
A
100
AcDbSymbolTableRecord
100
AcDbDimStyleTableRecord
  2
BASE
 70
     0
  3

  4

  5

  6

  7

 40
150.0
 41
0.18
 42
0.06
 43
0.38
 44
0.18
 45
0.0
 46
0.0
 47
0.0
 48
0.0
140
0.18
141
0.09
142
0.0
143
25.4
144
1.0
145
0.0
146
1.0
147
0.09
 71
     0
 72
     0
 73
     0
 74
     0
 75
     0
 76
     0
 77
     1
 78
     0
170
     0
171
     2
172
     0
173
     0
174
     0
175
     0
176
     0
177
     0
178
     0
270
     2
271
     4
272
     4
273
     2
274
     2
340
10
275
     0
280
     0
281
     0
282
     0
283
     1
284
     0
285
     0
286
     0
287
     3
288
     0
  0
ENDTAB
  0
TABLE
  2
BLOCK_RECORD
  5
1
330
0
100
AcDbSymbolTable
 70
    16
  0
BLOCK_RECORD
  5
1A
102
{ACAD_XDICTIONARY
360
30BB
102
}
330
1
100
AcDbSymbolTableRecord
100
AcDbBlockTableRecord
  2
*MODEL_SPACE
  0
BLOCK_RECORD
  5
17
102
{ACAD_XDICTIONARY
360
30B9
102
}
330
1
100
AcDbSymbolTableRecord
100
AcDbBlockTableRecord
  2
*PAPER_SPACE
  0
BLOCK_RECORD
  5
28
330
1
100
AcDbSymbolTableRecord
100
AcDbBlockTableRecord
  2
FR0
  0
BLOCK_RECORD
  5
2D
330
1
100
AcDbSymbolTableRecord
100
AcDbBlockTableRecord
  2
FR1
  0
BLOCK_RECORD
  5
CD0
330
1
100
AcDbSymbolTableRecord
100
AcDbBlockTableRecord
  2
*X2
  0
BLOCK_RECORD
  5
D2D
330
1
100
AcDbSymbolTableRecord
100
AcDbBlockTableRecord
  2
A$C1
  0
BLOCK_RECORD
  5
10FA
330
1
100
AcDbSymbolTableRecord
100
AcDbBlockTableRecord
  2
A$C2
  0
BLOCK_RECORD
  5
17E9
330
1
100
AcDbSymbolTableRecord
100
AcDbBlockTableRecord
  2
A$C3
  0
BLOCK_RECORD
  5
1B5A
330
1
100
AcDbSymbolTableRecord
100
AcDbBlockTableRecord
  2
A$C6
  0
BLOCK_RECORD
  5
1B61
330
1
100
AcDbSymbolTableRecord
100
AcDbBlockTableRecord
  2
A$C4
  0
BLOCK_RECORD
  5
1DE9
330
1
100
AcDbSymbolTableRecord
100
AcDbBlockTableRecord
  2
A$C5
  0
BLOCK_RECORD
  5
25A3
330
1
100
AcDbSymbolTableRecord
100
AcDbBlockTableRecord
  2
*D9
  0
BLOCK_RECORD
  5
263E
330
1
100
AcDbSymbolTableRecord
100
AcDbBlockTableRecord
  2
*D10
  0
BLOCK_RECORD
  5
266F
330
1
100
AcDbSymbolTableRecord
100
AcDbBlockTableRecord
  2
*D11
  0
BLOCK_RECORD
  5
2706
330
1
100
AcDbSymbolTableRecord
100
AcDbBlockTableRecord
  2
*X12
  0
BLOCK_RECORD
  5
2760
330
1
100
AcDbSymbolTableRecord
100
AcDbBlockTableRecord
  2
*X13
  0
BLOCK_RECORD
  5
27E1
330
1
100
AcDbSymbolTableRecord
100
AcDbBlockTableRecord
  2
A$C66AF3990
  0
BLOCK_RECORD
  5
306E
330
1
100
AcDbSymbolTableRecord
100
AcDbBlockTableRecord
  2
A$C36FE21C4
  0
ENDTAB
  0
ENDSEC
  0
SECTION
  2
BLOCKS
  0
BLOCK
  5
1B
330
1A
100
AcDbEntity
  8
0
100
AcDbBlockBegin
  2
*MODEL_SPACE
 70
     0
 10
0.0
 20
0.0
 30
0.0
  3
*MODEL_SPACE
  1

  0
ENDBLK
  5
1C
330
1A
100
AcDbEntity
  8
0
100
AcDbBlockEnd
  0
BLOCK
  5
18
330
17
100
AcDbEntity
 67
     1
  8
0
100
AcDbBlockBegin
  2
*PAPER_SPACE
 70
     0
 10
0.0
 20
0.0
 30
0.0
  3
*PAPER_SPACE
  1

  0
ENDBLK
  5
19
330
17
100
AcDbEntity
 67
     1
  8
0
100
AcDbBlockEnd
  0
BLOCK
  5
2A
330
28
100
AcDbEntity
  8
0
100
AcDbBlockBegin
  2
FR0
 70
     0
 10
0.0
 20
0.0
 30
0.0
  3
FR0
  1

  0
LINE
  5
29
330
28
100
AcDbEntity
  8
0
 62
     0
100
AcDbLine
 10
-1.0
 20
0.0
 30
0.0
 11
0.0
 21
0.0
 31
0.0
  0
ENDBLK
  5
2B
330
28
100
AcDbEntity
  8
0
100
AcDbBlockEnd
  0
BLOCK
  5
2F
330
2D
100
AcDbEntity
  8
0
100
AcDbBlockBegin
  2
FR1
 70
     0
 10
0.0
 20
0.0
 30
0.0
  3
FR1
  1

  0
SOLID
  5
2E
330
2D
100
AcDbEntity
  8
0
  6
BYBLOCK
 62
     0
100
AcDbTrace
 10
-1.0
 20
0.1666666666666572
 30
0.0
 11
-1.0
 21
-0.1666666666666572
 31
0.0
 12
0.0
 22
0.0
 32
0.0
 13
0.0
 23
0.0
 33
0.0
  0
ENDBLK
  5
30
330
2D
100
AcDbEntity
  8
0
100
AcDbBlockEnd
  0
BLOCK
  5
D28
330
CD0
100
AcDbEntity
  8
0
100
AcDbBlockBegin
  2
*X2
 70
     1
 10
0.0
 20
0.0
 30
0.0
  3
*X2
  1

  0
LINE
  5
CD1
330
CD0
100
AcDbEntity
  8
0
 62
     0
100
AcDbLine
 10
2712.260624128366
 20
1999.496988692327
 30
0.0
 11
2712.461612631596
 21
1999.697977195557
 31
0.0
  0
LINE
  5
CD2
330
CD0
100
AcDbEntity
  8
0
 62
     0
100
AcDbLine
 10
2715.290039756343
 20
2002.526404320303
 30
0.0
 11
2723.775321130581
 21
2011.011685694542
 31
0.0
  0
LINE
  5
CD3
330
CD0
100
AcDbEntity
  8
0
 62
     0
100
AcDbLine
 10
2726.603748255327
 20
2013.840112819288
 30
0.0
 11
2731.635890503998
 21
2018.872255067959
 31
0.0
  0
LINE
  5
CD4
330
CD0
100
AcDbEntity
  8
0
 62
     0
100
AcDbLine
 10
2731.635890504
 20
2018.87225506796
 30
0.0
 11
2735.089029629566
 21
2022.325394193525
 31
0.0
  0
LINE
  5
CD5
330
CD0
100
AcDbEntity
  8
0
 62
     0
100
AcDbLine
 10
2706.603769878874
 20
1999.496988692327
 30
0.0
 11
2712.461612631596
 21
2005.354831445049
 31
0.0
  0
LINE
  5
CD6
330
CD0
100
AcDbEntity
  8
0
 62
     0
100
AcDbLine
 10
2715.290039756343
 20
2008.183258569795
 30
0.0
 11
2723.775321130581
 21
2016.668539944034
 31
0.0
  0
LINE
  5
CD7
330
CD0
100
AcDbEntity
  8
0
 62
     0
100
AcDbLine
 10
2726.603748255327
 20
2019.49696706878
 30
0.0
 11
2729.795766271061
 21
2022.688985084513
 31
0.0
  0
LINE
  5
CD8
330
CD0
100
AcDbEntity
  8
0
 62
     0
100
AcDbLine
 10
2700.946915629382
 20
1999.496988692327
 30
0.0
 11
2701.147904132612
 21
1999.697977195556
 31
0.0
  0
LINE
  5
CD9
330
CD0
100
AcDbEntity
  8
0
 62
     0
100
AcDbLine
 10
2703.976331257358
 20
2002.526404320303
 30
0.0
 11
2712.461612631597
 21
2011.011685694541
 31
0.0
  0
LINE
  5
CDA
330
CD0
100
AcDbEntity
  8
0
 62
     0
100
AcDbLine
 10
2715.290039756343
 20
2013.840112819287
 30
0.0
 11
2723.775321130581
 21
2022.325394193526
 31
0.0
  0
LINE
  5
CDB
330
CD0
100
AcDbEntity
  8
0
 62
     0
100
AcDbLine
 10
2695.29006137989
 20
1999.496988692327
 30
0.0
 11
2701.147904132611
 21
2005.354831445049
 31
0.0
  0
LINE
  5
CDC
330
CD0
100
AcDbEntity
  8
0
 62
     0
100
AcDbLine
 10
2703.976331257357
 20
2008.183258569795
 30
0.0
 11
2712.461612631596
 21
2016.668539944034
 31
0.0
  0
LINE
  5
CDD
330
CD0
100
AcDbEntity
  8
0
 62
     0
100
AcDbLine
 10
2715.290039756343
 20
2019.49696706878
 30
0.0
 11
2718.482057772076
 21
2022.688985084513
 31
0.0
  0
LINE
  5
CDE
330
CD0
100
AcDbEntity
  8
0
 62
     0
100
AcDbLine
 10
2692.662622758373
 20
2002.526404320302
 30
0.0
 11
2701.147904132611
 21
2011.011685694541
 31
0.0
  0
LINE
  5
CDF
330
CD0
100
AcDbEntity
  8
0
 62
     0
100
AcDbLine
 10
2703.976331257357
 20
2013.840112819287
 30
0.0
 11
2712.461612631596
 21
2022.325394193526
 31
0.0
  0
LINE
  5
CE0
330
CD0
100
AcDbEntity
  8
0
 62
     0
100
AcDbLine
 10
2687.122353954997
 20
2002.642989766418
 30
0.0
 11
2689.834195633627
 21
2005.354831445048
 31
0.0
  0
LINE
  5
CE1
330
CD0
100
AcDbEntity
  8
0
 62
     0
100
AcDbLine
 10
2692.662622758373
 20
2008.183258569795
 30
0.0
 11
2701.147904132612
 21
2016.668539944033
 31
0.0
  0
LINE
  5
CE2
330
CD0
100
AcDbEntity
  8
0
 62
     0
100
AcDbLine
 10
2703.976331257358
 20
2019.496967068779
 30
0.0
 11
2707.168349273092
 21
2022.688985084513
 31
0.0
  0
LINE
  5
CE3
330
CD0
100
AcDbEntity
  8
0
 62
     0
100
AcDbLine
 10
2686.765918101504
 20
2007.943408162419
 30
0.0
 11
2689.834195633627
 21
2011.011685694541
 31
0.0
  0
LINE
  5
CE4
330
CD0
100
AcDbEntity
  8
0
 62
     0
100
AcDbLine
 10
2692.662622758373
 20
2013.840112819287
 30
0.0
 11
2701.147904132612
 21
2022.325394193526
 31
0.0
  0
LINE
  5
CE5
330
CD0
100
AcDbEntity
  8
0
 62
     0
100
AcDbLine
 10
2686.765918101504
 20
2013.600262411911
 30
0.0
 11
2689.834195633627
 21
2016.668539944034
 31
0.0
  0
LINE
  5
CE6
330
CD0
100
AcDbEntity
  8
0
 62
     0
100
AcDbLine
 10
2692.662622758373
 20
2019.49696706878
 30
0.0
 11
2695.854640774106
 21
2022.688985084514
 31
0.0
  0
LINE
  5
CE7
330
CD0
100
AcDbEntity
  8
0
 62
     0
100
AcDbLine
 10
2686.765918101505
 20
2019.257116661404
 30
0.0
 11
2689.834195633627
 21
2022.325394193525
 31
0.0
  0
LINE
  5
CE8
330
CD0
100
AcDbEntity
  8
0
 62
     0
100
AcDbLine
 10
2717.917478377859
 20
1999.496988692327
 30
0.0
 11
2723.775321130581
 21
2005.354831445049
 31
0.0
  0
LINE
  5
CE9
330
CD0
100
AcDbEntity
  8
0
 62
     0
100
AcDbLine
 10
2726.603748255327
 20
2008.183258569795
 30
0.0
 11
2731.635890503998
 21
2013.215400818467
 31
0.0
  0
LINE
  5
CEA
330
CD0
100
AcDbEntity
  8
0
 62
     0
100
AcDbLine
 10
2731.635890504
 20
2013.215400818467
 30
0.0
 11
2735.089029629566
 21
2016.668539944033
 31
0.0
  0
LINE
  5
CEB
330
CD0
100
AcDbEntity
  8
0
 62
     0
100
AcDbLine
 10
2737.917456754312
 20
2019.496967068779
 30
0.0
 11
2741.109474770046
 21
2022.688985084513
 31
0.0
  0
LINE
  5
CEC
330
CD0
100
AcDbEntity
  8
0
 62
     0
100
AcDbLine
 10
2723.574332627351
 20
1999.496988692327
 30
0.0
 11
2723.775321130581
 21
1999.697977195557
 31
0.0
  0
LINE
  5
CED
330
CD0
100
AcDbEntity
  8
0
 62
     0
100
AcDbLine
 10
2726.603748255327
 20
2002.526404320303
 30
0.0
 11
2731.635890503998
 21
2007.558546568974
 31
0.0
  0
LINE
  5
CEE
330
CD0
100
AcDbEntity
  8
0
 62
     0
100
AcDbLine
 10
2731.635890504
 20
2007.558546568974
 30
0.0
 11
2735.089029629566
 21
2011.011685694541
 31
0.0
  0
LINE
  5
CEF
330
CD0
100
AcDbEntity
  8
0
 62
     0
100
AcDbLine
 10
2737.917456754312
 20
2013.840112819287
 30
0.0
 11
2746.402738128551
 21
2022.325394193526
 31
0.0
  0
LINE
  5
CF0
330
CD0
100
AcDbEntity
  8
0
 62
     0
100
AcDbLine
 10
2729.231186876844
 20
1999.496988692327
 30
0.0
 11
2731.635890503999
 21
2001.901692319482
 31
0.0
  0
LINE
  5
CF1
330
CD0
100
AcDbEntity
  8
0
 62
     0
100
AcDbLine
 10
2731.635890504
 20
2001.901692319482
 30
0.0
 11
2735.089029629566
 21
2005.354831445048
 31
0.0
  0
LINE
  5
CF2
330
CD0
100
AcDbEntity
  8
0
 62
     0
100
AcDbLine
 10
2737.917456754312
 20
2008.183258569795
 30
0.0
 11
2746.402738128551
 21
2016.668539944033
 31
0.0
  0
LINE
  5
CF3
330
CD0
100
AcDbEntity
  8
0
 62
     0
100
AcDbLine
 10
2749.231165253297
 20
2019.49696706878
 30
0.0
 11
2752.42318326903
 21
2022.688985084513
 31
0.0
  0
LINE
  5
CF4
330
CD0
100
AcDbEntity
  8
0
 62
     0
100
AcDbLine
 10
2734.888041126336
 20
1999.496988692327
 30
0.0
 11
2735.089029629566
 21
1999.697977195556
 31
0.0
  0
LINE
  5
CF5
330
CD0
100
AcDbEntity
  8
0
 62
     0
100
AcDbLine
 10
2737.917456754312
 20
2002.526404320303
 30
0.0
 11
2746.402738128551
 21
2011.011685694541
 31
0.0
  0
LINE
  5
CF6
330
CD0
100
AcDbEntity
  8
0
 62
     0
100
AcDbLine
 10
2749.231165253297
 20
2013.840112819287
 30
0.0
 11
2757.716446627536
 21
2022.325394193526
 31
0.0
  0
LINE
  5
CF7
330
CD0
100
AcDbEntity
  8
0
 62
     0
100
AcDbLine
 10
2740.544895375829
 20
1999.496988692327
 30
0.0
 11
2746.402738128551
 21
2005.354831445049
 31
0.0
  0
LINE
  5
CF8
330
CD0
100
AcDbEntity
  8
0
 62
     0
100
AcDbLine
 10
2749.231165253297
 20
2008.183258569795
 30
0.0
 11
2757.716446627536
 21
2016.668539944034
 31
0.0
  0
LINE
  5
CF9
330
CD0
100
AcDbEntity
  8
0
 62
     0
100
AcDbLine
 10
2760.544873752282
 20
2019.49696706878
 30
0.0
 11
2763.736891768015
 21
2022.688985084513
 31
0.0
  0
LINE
  5
CFA
330
CD0
100
AcDbEntity
  8
0
 62
     0
100
AcDbLine
 10
2746.201749625321
 20
1999.496988692327
 30
0.0
 11
2746.402738128551
 21
1999.697977195556
 31
0.0
  0
LINE
  5
CFB
330
CD0
100
AcDbEntity
  8
0
 62
     0
100
AcDbLine
 10
2749.231165253297
 20
2002.526404320303
 30
0.0
 11
2757.716446627536
 21
2011.011685694541
 31
0.0
  0
LINE
  5
CFC
330
CD0
100
AcDbEntity
  8
0
 62
     0
100
AcDbLine
 10
2760.544873752282
 20
2013.840112819287
 30
0.0
 11
2761.021022527084
 21
2014.316261594089
 31
0.0
  0
LINE
  5
CFD
330
CD0
100
AcDbEntity
  8
0
 62
     0
100
AcDbLine
 10
2751.858603874814
 20
1999.496988692327
 30
0.0
 11
2755.915954095707
 21
2003.554338913219
 31
0.0
  0
LINE
  5
CFE
330
CD0
100
AcDbEntity
  8
0
 62
     0
100
AcDbLine
 10
2735.290018133303
 20
1999.496988692327
 30
0.0
 11
2732.260602505074
 21
2002.526404320557
 31
0.0
  0
LINE
  5
CFF
330
CD0
100
AcDbEntity
  8
0
 62
     0
100
AcDbLine
 10
2729.432175380328
 20
2005.354831445303
 30
0.0
 11
2720.946894006089
 21
2013.840112819541
 31
0.0
  0
LINE
  5
D00
330
CD0
100
AcDbEntity
  8
0
 62
     0
100
AcDbLine
 10
2718.118466881342
 20
2016.668539944288
 30
0.0
 11
2712.098021741117
 21
2022.688985084514
 31
0.0
  0
LINE
  5
D01
330
CD0
100
AcDbEntity
  8
0
 62
     0
100
AcDbLine
 10
2740.745883879313
 20
1999.697977195808
 30
0.0
 11
2732.260602505074
 21
2008.183258570047
 31
0.0
  0
LINE
  5
D02
330
CD0
100
AcDbEntity
  8
0
 62
     0
100
AcDbLine
 10
2729.432175380328
 20
2011.011685694794
 30
0.0
 11
2720.946894006089
 21
2019.496967069033
 31
0.0
  0
LINE
  5
D03
330
CD0
100
AcDbEntity
  8
0
 62
     0
100
AcDbLine
 10
2718.118466881342
 20
2022.325394193779
 30
0.0
 11
2717.754875990608
 21
2022.688985084514
 31
0.0
  0
LINE
  5
D04
330
CD0
100
AcDbEntity
  8
0
 62
     0
100
AcDbLine
 10
2746.603726632286
 20
1999.496988692327
 30
0.0
 11
2743.574311004058
 21
2002.526404320555
 31
0.0
  0
LINE
  5
D05
330
CD0
100
AcDbEntity
  8
0
 62
     0
100
AcDbLine
 10
2740.745883879312
 20
2005.354831445302
 30
0.0
 11
2732.260602505073
 21
2013.84011281954
 31
0.0
  0
LINE
  5
D06
330
CD0
100
AcDbEntity
  8
0
 62
     0
100
AcDbLine
 10
2729.432175380328
 20
2016.668539944287
 30
0.0
 11
2723.4117302401
 21
2022.688985084514
 31
0.0
  0
LINE
  5
D07
330
CD0
100
AcDbEntity
  8
0
 62
     0
100
AcDbLine
 10
2752.059592378297
 20
1999.697977195809
 30
0.0
 11
2743.574311004058
 21
2008.183258570047
 31
0.0
  0
LINE
  5
D08
330
CD0
100
AcDbEntity
  8
0
 62
     0
100
AcDbLine
 10
2740.745883879312
 20
2011.011685694794
 30
0.0
 11
2732.260602505073
 21
2019.496967069032
 31
0.0
  0
LINE
  5
D09
330
CD0
100
AcDbEntity
  8
0
 62
     0
100
AcDbLine
 10
2729.432175380328
 20
2022.325394193779
 30
0.0
 11
2729.068584489593
 21
2022.688985084514
 31
0.0
  0
LINE
  5
D0A
330
CD0
100
AcDbEntity
  8
0
 62
     0
100
AcDbLine
 10
2755.311322949602
 20
2002.103100873998
 30
0.0
 11
2754.888019503043
 21
2002.526404320556
 31
0.0
  0
LINE
  5
D0B
330
CD0
100
AcDbEntity
  8
0
 62
     0
100
AcDbLine
 10
2752.059592378297
 20
2005.354831445302
 30
0.0
 11
2743.574311004058
 21
2013.840112819541
 31
0.0
  0
LINE
  5
D0C
330
CD0
100
AcDbEntity
  8
0
 62
     0
100
AcDbLine
 10
2740.745883879312
 20
2016.668539944287
 30
0.0
 11
2734.725438739086
 21
2022.688985084513
 31
0.0
  0
LINE
  5
D0D
330
CD0
100
AcDbEntity
  8
0
 62
     0
100
AcDbLine
 10
2757.007208710489
 20
2006.064069362602
 30
0.0
 11
2754.888019503043
 21
2008.183258570048
 31
0.0
  0
LINE
  5
D0E
330
CD0
100
AcDbEntity
  8
0
 62
     0
100
AcDbLine
 10
2752.059592378297
 20
2011.011685694794
 30
0.0
 11
2743.574311004058
 21
2019.496967069033
 31
0.0
  0
LINE
  5
D0F
330
CD0
100
AcDbEntity
  8
0
 62
     0
100
AcDbLine
 10
2740.745883879312
 20
2022.325394193779
 30
0.0
 11
2740.382292988578
 21
2022.688985084513
 31
0.0
  0
LINE
  5
D10
330
CD0
100
AcDbEntity
  8
0
 62
     0
100
AcDbLine
 10
2758.80233202017
 20
2009.925800302414
 30
0.0
 11
2754.888019503043
 21
2013.840112819541
 31
0.0
  0
LINE
  5
D11
330
CD0
100
AcDbEntity
  8
0
 62
     0
100
AcDbLine
 10
2752.059592378297
 20
2016.668539944287
 30
0.0
 11
2746.039147238071
 21
2022.688985084513
 31
0.0
  0
LINE
  5
D12
330
CD0
100
AcDbEntity
  8
0
 62
     0
100
AcDbLine
 10
2760.693435000926
 20
2013.691551571151
 30
0.0
 11
2754.888019503043
 21
2019.496967069033
 31
0.0
  0
LINE
  5
D13
330
CD0
100
AcDbEntity
  8
0
 62
     0
100
AcDbLine
 10
2752.059592378298
 20
2022.325394193779
 30
0.0
 11
2751.696001487563
 21
2022.688985084514
 31
0.0
  0
LINE
  5
D14
330
CD0
100
AcDbEntity
  8
0
 62
     0
100
AcDbLine
 10
2762.677684738563
 20
2017.364156083006
 30
0.0
 11
2757.352855737055
 21
2022.688985084513
 31
0.0
  0
LINE
  5
D15
330
CD0
100
AcDbEntity
  8
0
 62
     0
100
AcDbLine
 10
2763.373300877282
 20
2022.325394193779
 30
0.0
 11
2763.009709986548
 21
2022.688985084514
 31
0.0
  0
LINE
  5
D16
330
CD0
100
AcDbEntity
  8
0
 62
     0
100
AcDbLine
 10
2729.432175380328
 20
1999.69797719581
 30
0.0
 11
2720.946894006089
 21
2008.183258570049
 31
0.0
  0
LINE
  5
D17
330
CD0
100
AcDbEntity
  8
0
 62
     0
100
AcDbLine
 10
2718.118466881342
 20
2011.011685694795
 30
0.0
 11
2709.633185507104
 21
2019.496967069033
 31
0.0
  0
LINE
  5
D18
330
CD0
100
AcDbEntity
  8
0
 62
     0
100
AcDbLine
 10
2706.804758382358
 20
2022.32539419378
 30
0.0
 11
2706.441167491624
 21
2022.688985084513
 31
0.0
  0
LINE
  5
D19
330
CD0
100
AcDbEntity
  8
0
 62
     0
100
AcDbLine
 10
2723.976309634318
 20
1999.496988692327
 30
0.0
 11
2720.946894006089
 21
2002.526404320556
 31
0.0
  0
LINE
  5
D1A
330
CD0
100
AcDbEntity
  8
0
 62
     0
100
AcDbLine
 10
2718.118466881342
 20
2005.354831445302
 30
0.0
 11
2709.633185507104
 21
2013.840112819541
 31
0.0
  0
LINE
  5
D1B
330
CD0
100
AcDbEntity
  8
0
 62
     0
100
AcDbLine
 10
2706.804758382358
 20
2016.668539944287
 30
0.0
 11
2700.784313242132
 21
2022.688985084514
 31
0.0
  0
LINE
  5
D1C
330
CD0
100
AcDbEntity
  8
0
 62
     0
100
AcDbLine
 10
2718.118466881342
 20
1999.69797719581
 30
0.0
 11
2709.633185507104
 21
2008.183258570049
 31
0.0
  0
LINE
  5
D1D
330
CD0
100
AcDbEntity
  8
0
 62
     0
100
AcDbLine
 10
2706.804758382358
 20
2011.011685694795
 30
0.0
 11
2698.319477008119
 21
2019.496967069033
 31
0.0
  0
LINE
  5
D1E
330
CD0
100
AcDbEntity
  8
0
 62
     0
100
AcDbLine
 10
2695.491049883373
 20
2022.32539419378
 30
0.0
 11
2695.127458992639
 21
2022.688985084514
 31
0.0
  0
LINE
  5
D1F
330
CD0
100
AcDbEntity
  8
0
 62
     0
100
AcDbLine
 10
2712.662601135333
 20
1999.496988692327
 30
0.0
 11
2709.633185507104
 21
2002.526404320556
 31
0.0
  0
LINE
  5
D20
330
CD0
100
AcDbEntity
  8
0
 62
     0
100
AcDbLine
 10
2706.804758382358
 20
2005.354831445302
 30
0.0
 11
2698.319477008119
 21
2013.840112819541
 31
0.0
  0
LINE
  5
D21
330
CD0
100
AcDbEntity
  8
0
 62
     0
100
AcDbLine
 10
2695.491049883373
 20
2016.668539944287
 30
0.0
 11
2689.470604743147
 21
2022.688985084513
 31
0.0
  0
LINE
  5
D22
330
CD0
100
AcDbEntity
  8
0
 62
     0
100
AcDbLine
 10
2706.804758382358
 20
1999.69797719581
 30
0.0
 11
2698.319477008119
 21
2008.183258570049
 31
0.0
  0
LINE
  5
D23
330
CD0
100
AcDbEntity
  8
0
 62
     0
100
AcDbLine
 10
2695.491049883373
 20
2011.011685694795
 30
0.0
 11
2687.005768509134
 21
2019.496967069033
 31
0.0
  0
LINE
  5
D24
330
CD0
100
AcDbEntity
  8
0
 62
     0
100
AcDbLine
 10
2701.348892636349
 20
1999.496988692327
 30
0.0
 11
2698.319477008119
 21
2002.526404320556
 31
0.0
  0
LINE
  5
D25
330
CD0
100
AcDbEntity
  8
0
 62
     0
100
AcDbLine
 10
2695.491049883373
 20
2005.354831445302
 30
0.0
 11
2687.005768509134
 21
2013.840112819541
 31
0.0
  0
LINE
  5
D26
330
CD0
100
AcDbEntity
  8
0
 62
     0
100
AcDbLine
 10
2695.491049883373
 20
1999.69797719581
 30
0.0
 11
2687.005768509134
 21
2008.183258570049
 31
0.0
  0
LINE
  5
D27
330
CD0
100
AcDbEntity
  8
0
 62
     0
100
AcDbLine
 10
2689.484204696917
 20
2000.047968132773
 30
0.0
 11
2687.316897541951
 21
2002.21527528774
 31
0.0
  0
ENDBLK
  5
D29
330
CD0
100
AcDbEntity
  8
0
100
AcDbBlockEnd
  0
BLOCK
  5
E00
330
D2D
100
AcDbEntity
  8
0
100
AcDbBlockBegin
  2
A$C1
 70
     0
 10
0.0
 20
0.0
 30
0.0
  3
A$C1
  1

  0
LINE
  5
D2E
330
D2D
100
AcDbEntity
  8
ASSE
100
AcDbLine
 10
481.3317391798342
 20
24.40892289100338
 30
0.0
 11
482.6842597380004
 21
277.9964909449891
 31
0.0
  0
CIRCLE
  5
D2F
330
D2D
100
AcDbEntity
  8
0
100
AcDbCircle
 10
168.9107027676421
 20
199.9871338384955
 30
0.0
 40
140.0
1001
ACAD
1000
ASC_BOUNDS
1002
{
1070
    19
1005
D38
1002
}
  0
LINE
  5
D30
330
D2D
100
AcDbEntity
  8
ASSE
100
AcDbLine
 10
196.9775540252825
 20
50.41284418856003
 30
0.0
 11
141.5746410498758
 21
344.8632577086645
 31
0.0
  0
CIRCLE
  5
D31
330
D2D
100
AcDbEntity
  8
0
100
AcDbCircle
 10
481.9161235690561
 20
74.48715041543437
 30
0.0
 40
34.0
  0
CIRCLE
  5
D32
330
D2D
100
AcDbEntity
  8
0
100
AcDbCircle
 10
481.9161235690561
 20
74.48715041543437
 30
0.0
 40
44.0
  0
LINE
  5
D33
330
D2D
100
AcDbEntity
  8
ASSE
100
AcDbLine
 10
697.784937714449
 20
43.95607635483884
 30
0.0
 11
180.630853623841
 21
46.71434063348442
 31
0.0
1001
ACAD
1000
ASC_BOUNDS
1002
{
1070
    19
1005
D38
1002
}
  0
LINE
  5
D34
330
D2D
100
AcDbEntity
  8
0
100
AcDbLine
 10
678.0741887148884
 20
28.36225984158772
 30
0.0
 11
268.0800201631676
 21
30.5489819508366
 31
0.0
  0
LINE
  5
D35
330
D2D
100
AcDbEntity
  8
ASSE
100
AcDbLine
 10
542.7951256442733
 20
74.11001440128439
 30
0.0
 11
411.7827551801791
 21
74.80877469851293
 31
0.0
  0
LINE
  5
D36
330
D2D
100
AcDbEntity
  8
0
100
AcDbLine
 10
268.2400242199415
 20
60.54855525949915
 30
0.0
 11
440.5770505443221
 21
59.62938807466617
 31
0.0
  0
ARC
  5
D37
330
D2D
100
AcDbEntity
  8
0
100
AcDbCircle
 10
223.3898134825809
 20
6.615744338838339
 30
0.0
 40
5.0
100
AcDbArc
 50
179.6944133126029
 51
269.6944133126029
1001
ACAD
1000
ASC_BOUNDS
1002
{
1070
    19
1005
D38
1002
}
  0
INSERT
  5
D38
330
D2D
100
AcDbEntity
  8
0
100
AcDbBlockReference
  2
*X2
 10
-1795.435114052478
 20
-2674.420966989916
 30
0.0
 41
-1.0
 50
269.6944133126029
1001
ACAD
1000
HATCH
1002
{
1070
    19
1000
AR-HBONE
1040
1.0
1040
14.1425004349994
1000
ASC_BOUNDS
1070
     2
1070
     1
1070
     4
1005
D3E
1005
D33
1005
D3A
1005
D2F
1070
     1
1070
     7
1005
D3E
1005
D41
1005
D40
1005
D37
1005
D39
1005
D3A
1005
D33
1000
ASC_SEEDPOINT
1011
216.9308418560693
1021
-1446.969547498696
1031
0.0
1002
}
  0
LINE
  5
D39
330
D2D
100
AcDbEntity
  8
0
100
AcDbLine
 10
218.5978898716104
 20
45.64185698289565
 30
0.0
 11
218.3898845978038
 21
6.642411681634257
 31
0.0
1001
ACAD
1000
ASC_BOUNDS
1002
{
1070
    19
1005
D38
1002
}
  0
LINE
  5
D3A
330
D2D
100
AcDbEntity
  8
0
100
AcDbLine
 10
218.5978898716104
 20
45.64185698289565
 30
0.0
 11
218.7262366901026
 21
69.70593303139413
 31
0.0
1001
ACAD
1000
ASC_BOUNDS
1002
{
1070
    19
1005
D38
1002
}
  0
LINE
  5
D3B
330
D2D
100
AcDbEntity
  8
0
100
AcDbLine
 10
268.2042457612802
 20
45.37727928032381
 30
0.0
 11
268.1109100614948
 21
27.87752818360331
 31
0.0
  0
LINE
  5
D3C
330
D2D
100
AcDbEntity
  8
ASSE
100
AcDbLine
 10
268.0800201631676
 20
30.5489819508366
 30
0.0
 11
268.2400242199415
 21
60.54855525949915
 31
0.0
  0
LINE
  5
D3D
330
D2D
100
AcDbEntity
  8
0
100
AcDbLine
 10
248.1111945223866
 20
27.98419755478608
 30
0.0
 11
248.2045302221721
 21
45.48394865150657
 31
0.0
  0
LINE
  5
D3E
330
D2D
100
AcDbEntity
  8
0
100
AcDbLine
 10
241.5555501047336
 20
1.643718757144142
 30
0.0
 11
241.9778337865085
 21
80.81877546415853
 31
0.0
1001
ACAD
1000
ASC_BOUNDS
1002
{
1070
    19
1005
D38
1002
}
  0
LINE
  5
D3F
330
D2D
100
AcDbEntity
  8
0
100
AcDbLine
 10
268.1109100614948
 20
27.87752818360331
 30
0.0
 11
248.1111945223866
 21
27.98419755478608
 31
0.0
  0
LINE
  5
D40
330
D2D
100
AcDbEntity
  8
0
100
AcDbLine
 10
223.3631461397852
 20
1.615815454060793
 30
0.0
 11
241.3628901249829
 21
1.519813019996036
 31
0.0
1001
ACAD
1000
ASC_BOUNDS
1002
{
1070
    19
1005
D38
1002
}
  0
LINE
  5
D41
330
D2D
100
AcDbEntity
  8
0
100
AcDbLine
 10
241.3628901249829
 20
1.519813019996036
 30
0.0
 11
248.2321267458534
 21
28.04253196792615
 31
0.0
1001
ACAD
1000
ASC_BOUNDS
1002
{
1070
    19
1005
D38
1002
}
  0
LINE
  5
D42
330
D2D
100
AcDbEntity
  8
0
100
AcDbLine
 10
268.2975814610648
 20
62.87703037704341
 30
0.0
 11
248.2978659219569
 21
62.98369974822617
 31
0.0
  0
LINE
  5
D43
330
D2D
100
AcDbEntity
  8
0
100
AcDbLine
 10
248.2978659219569
 20
62.98369974822617
 30
0.0
 11
248.2045302221721
 21
45.48394865150657
 31
0.0
  0
LINE
  5
D44
330
D2D
100
AcDbEntity
  8
0
100
AcDbLine
 10
243.7555469864568
 20
81.75208811621315
 30
0.0
 11
248.4181690247083
 21
62.92407869575845
 31
0.0
  0
LINE
  5
D45
330
D2D
100
AcDbEntity
  8
0
100
AcDbLine
 10
268.2042457612802
 20
45.37727928032381
 30
0.0
 11
268.2975814610648
 21
62.87703037704341
 31
0.0
  0
LINE
  5
D46
330
D2D
100
AcDbEntity
  8
0
100
AcDbLine
 10
440.520597324292
 20
89.44724276983516
 30
0.0
 11
436.6559096223089
 21
89.46785525335689
 31
0.0
  0
LINE
  5
D47
330
D2D
100
AcDbEntity
  8
0
100
AcDbLine
 10
436.6559096223089
 20
89.46785525335689
 30
0.0
 11
436.4959055655348
 21
59.46828194469436
 31
0.0
  0
LINE
  5
D48
330
D2D
100
AcDbEntity
  8
0
100
AcDbLine
 10
522.8907459698968
 20
59.19036432387293
 30
0.0
 11
678.2341927716624
 21
58.36183315025028
 31
0.0
  0
LINE
  5
D49
330
D2D
100
AcDbEntity
  8
0
100
AcDbLine
 10
526.6546295482966
 20
88.98784308303403
 30
0.0
 11
523.0497746926253
 21
89.00706973652814
 31
0.0
  0
LINE
  5
D4A
330
D2D
100
AcDbEntity
  8
0
100
AcDbLine
 10
526.4946254915225
 20
58.98826977437147
 30
0.0
 11
526.6546295482966
 21
88.98784308303403
 31
0.0
  0
LINE
  5
D4B
330
D2D
100
AcDbEntity
  8
0
100
AcDbLine
 10
678.0363762432483
 20
58.66222449080169
 30
0.0
 11
677.8763721864741
 21
28.66265118213869
 31
0.0
  0
ARC
  5
D4C
330
D2D
100
AcDbEntity
  8
0
100
AcDbCircle
 10
482.1866920232166
 20
383.2111835325104
 30
0.0
 40
90.0
100
AcDbArc
 50
45.33085980371836
 51
316.9345164217692
  0
LINE
  5
D4D
330
D2D
100
AcDbEntity
  8
0
100
AcDbLine
 10
675.4336914969452
 20
473.8490549547991
 30
0.0
 11
275.4393807147788
 21
475.9824423784566
 31
0.0
  0
LINE
  5
D4E
330
D2D
100
AcDbEntity
  8
0
100
AcDbLine
 10
449.9466113231079
 20
119.4587211414718
 30
0.0
 11
462.0135431784373
 21
119.3943616244287
 31
0.0
  0
LINE
  5
D4F
330
D2D
100
AcDbEntity
  8
0
100
AcDbLine
 10
450.7746099935274
 20
274.7023275443316
 30
0.0
 11
462.8415418488576
 21
274.6379680272875
 31
0.0
  0
CIRCLE
  5
D50
330
D2D
100
AcDbEntity
  8
0
100
AcDbCircle
 10
482.1866920232166
 20
383.2111835325104
 30
0.0
 40
25.0
  0
LINE
  5
D51
330
D2D
100
AcDbEntity
  8
0
100
AcDbLine
 10
286.0396718899822
 20
275.9230606052497
 30
0.0
 11
674.3669977851172
 21
273.8518995637159
 31
0.0
  0
LINE
  5
D52
330
D2D
100
AcDbEntity
  8
ASSE
100
AcDbLine
 10
565.1385393256581
 20
381.9869185826883
 30
0.0
 11
380.4127577174193
 21
382.9721617441164
 31
0.0
  0
CIRCLE
  5
D53
330
D2D
100
AcDbEntity
  8
0
100
AcDbCircle
 10
168.9107027676421
 20
199.9871338384955
 30
0.0
 40
32.5
  0
LINE
  5
D54
330
D2D
100
AcDbEntity
  8
ASSE
100
AcDbLine
 10
259.5347108637389
 20
217.0386773361169
 30
0.0
 11
4.675029681595901
 21
169.0850386617039
 31
0.0
  0
LINE
  5
D55
330
D2D
100
AcDbEntity
  8
ASSE
100
AcDbLine
 10
63.55455427717572
 20
326.7900338417975
 30
0.0
 11
22.36640880864217
 21
280.5756504875052
 31
0.0
  0
LINE
  5
D56
330
D2D
100
AcDbEntity
  8
ASSE
100
AcDbLine
 10
64.83433032241407
 20
284.1879703491199
 30
0.0
 11
17.96178375258648
 21
325.9626977494226
 31
0.0
  0
ARC
  5
D57
330
D2D
100
AcDbEntity
  8
0
100
AcDbCircle
 10
42.96351123628653
 20
303.6862415750797
 30
0.0
 40
17.0856665073389
100
AcDbArc
 50
48.29127079883908
 51
228.2912707988428
  0
LINE
  5
D58
330
D2D
100
AcDbEntity
  8
0
100
AcDbLine
 10
54.31174945090458
 20
316.2510157124106
 30
0.0
 11
70.41288591162595
 21
299.4895964944448
 31
0.0
  0
LINE
  5
D59
330
D2D
100
AcDbEntity
  8
0
100
AcDbLine
 10
33.22982940678719
 20
289.4407005870343
 30
0.0
 11
51.91250611242037
 21
276.6752162204784
 31
0.0
  0
LINE
  5
D5A
330
D2D
100
AcDbEntity
  8
ASSE
100
AcDbLine
 10
50.33445325156606
 20
305.0715993224685
 30
0.0
 11
35.59312774897705
 21
302.2979154135273
 31
0.0
  0
CIRCLE
  5
D5B
330
D2D
100
AcDbEntity
  8
VITE
100
AcDbCircle
 10
42.96379050027155
 20
303.6847573679983
 30
0.0
 40
5.75
  0
CIRCLE
  5
D5C
330
D2D
100
AcDbEntity
  8
VITE
100
AcDbCircle
 10
42.96379050027155
 20
303.6847573679983
 30
0.0
 40
4.978571428571428
  0
LINE
  5
D5D
330
D2D
100
AcDbEntity
  8
ASSE
100
AcDbLine
 10
41.57694854580029
 20
311.0554201192926
 30
0.0
 11
44.35063245474213
 21
296.3140946167031
 31
0.0
  0
LINE
  5
D5E
330
D2D
100
AcDbEntity
  8
0
100
AcDbLine
 10
33.22982940678719
 20
289.4407005870343
 30
0.0
 11
31.28759683198529
 21
291.1103510370926
 31
0.0
  0
LINE
  5
D5F
330
D2D
100
AcDbEntity
  8
0
100
AcDbLine
 10
52.69719306578565
 20
317.9317825631251
 30
0.0
 11
53.3492657865869
 21
317.252969346393
 31
0.0
  0
CIRCLE
  5
D60
330
D2D
100
AcDbEntity
  8
0
100
AcDbCircle
 10
42.95903279092579
 20
303.6853989241372
 30
0.0
 40
14.5
  0
CIRCLE
  5
D61
330
D2D
100
AcDbEntity
  8
VITE
100
AcDbCircle
 10
42.96379050027155
 20
303.6847573679983
 30
0.0
 40
6.5
  0
CIRCLE
  5
D62
330
D2D
100
AcDbEntity
  8
VITE
100
AcDbCircle
 10
42.96379050027155
 20
303.6847573679983
 30
0.0
 40
6.5
  0
LWPOLYLINE
  5
D63
330
D2D
100
AcDbEntity
  8
VITE
100
AcDbPolyline
 90
        6
 70
     1
 43
0.0
 10
50.04563265036529
 20
301.1986268214495
 10
44.35165936488295
 20
296.30863688715
 10
37.2698172147883
 20
298.7947674336992
 10
35.88194835017668
 20
306.1708879145466
 10
41.57592163565948
 20
311.0608778488458
 10
48.65776378575413
 20
308.5747473022966
  0
CIRCLE
  5
D6B
330
D2D
100
AcDbEntity
  8
0
100
AcDbCircle
 10
42.95903279092579
 20
303.6853989241372
 30
0.0
 40
13.0
  0
CIRCLE
  5
D6C
330
D2D
100
AcDbEntity
  8
0
100
AcDbCircle
 10
42.95903279092579
 20
303.6853989241372
 30
0.0
 40
11.0
  0
LINE
  5
D6D
330
D2D
100
AcDbEntity
  8
0
100
AcDbLine
 10
344.8728858923629
 20
294.7305735845243
 30
0.0
 11
345.2829110730446
 21
371.6072523027969
 31
0.0
  0
LINE
  5
D6E
330
D2D
100
AcDbEntity
  8
0
100
AcDbLine
 10
365.2826266121532
 20
371.500582931615
 30
0.0
 11
364.872601431471
 21
294.6239042133415
 31
0.0
  0
LINE
  5
D6F
330
D2D
100
AcDbEntity
  8
0
100
AcDbLine
 10
275.4393807147788
 20
475.9824423784566
 30
0.0
 11
274.4545834191761
 21
291.3402573039561
 31
0.0
  0
LINE
  5
D70
330
D2D
100
AcDbEntity
  8
ASSE
100
AcDbLine
 10
273.0870608350031
 20
219.5886471496883
 30
0.0
 11
446.2076978708554
 21
252.1625106850842
 31
0.0
  0
LINE
  5
D71
330
D2D
100
AcDbEntity
  8
ASSE
100
AcDbLine
 10
352.3680167906208
 20
291.7659807497011
 30
0.0
 11
290.4638687494692
 21
292.0961492729611
 31
0.0
  0
LINE
  5
D72
330
D2D
100
AcDbEntity
  8
0
100
AcDbLine
 10
405.2912604247173
 20
269.7396861171209
 30
0.0
 11
299.3791455759818
 21
249.8115779787872
 31
0.0
  0
CIRCLE
  5
D73
330
D2D
100
AcDbEntity
  8
0
100
AcDbCircle
 10
168.9107027676421
 20
199.9871338384955
 30
0.0
 40
18.0
  0
CIRCLE
  5
D74
330
D2D
100
AcDbEntity
  8
0
100
AcDbCircle
 10
168.9107027676421
 20
199.9871338384955
 30
0.0
 40
10.0
  0
ARC
  5
D75
330
D2D
100
AcDbEntity
  8
0
100
AcDbCircle
 10
409.8050581929991
 20
245.750160151093
 30
0.0
 40
25.113374100496
100
AcDbArc
 50
280.6560170438246
 51
10.65601704382463
  0
LINE
  5
D76
330
D2D
100
AcDbEntity
  8
0
100
AcDbLine
 10
450.6412732077686
 20
249.7026696621133
 30
0.0
 11
449.9479222950795
 21
119.7045186579089
 31
0.0
  0
LINE
  5
D77
330
D2D
100
AcDbEntity
  8
ASSE
100
AcDbLine
 10
409.3961937622115
 20
213.6457226363309
 30
0.0
 11
409.7681419562544
 21
283.3832489164078
 31
0.0
  0
LINE
  5
D78
330
D2D
100
AcDbEntity
  8
0
100
AcDbLine
 10
414.4488289691197
 20
221.0698653455128
 30
0.0
 11
308.5367141203845
 21
201.1417572071786
 31
0.0
  0
LWPOLYLINE
  5
D79
330
D2D
100
AcDbEntity
  8
VITE
100
AcDbPolyline
 90
        6
 70
     1
 43
0.0
 10
327.9003804574835
 20
288.1421395756979
 10
321.380457590469
 20
284.4240837475108
 10
314.9005653570629
 20
288.2114746669671
 10
314.9405959906711
 20
295.7169214146106
 10
321.460518857686
 20
299.4349772427976
 10
327.9404110910917
 20
295.6475863233413
  0
CIRCLE
  5
D81
330
D2D
100
AcDbEntity
  8
0
100
AcDbCircle
 10
321.4159393125591
 20
291.931065029772
 30
0.0
 40
11.0
  0
CIRCLE
  5
D82
330
D2D
100
AcDbEntity
  8
0
100
AcDbCircle
 10
321.4159393125591
 20
291.931065029772
 30
0.0
 40
13.0
  0
CIRCLE
  5
D83
330
D2D
100
AcDbEntity
  8
0
100
AcDbCircle
 10
321.4159393125591
 20
291.931065029772
 30
0.0
 40
14.5
  0
LINE
  5
D84
330
D2D
100
AcDbEntity
  8
ASSE
100
AcDbLine
 10
321.4604892382709
 20
299.4294238223201
 30
0.0
 11
321.3804872098839
 21
284.4296371679884
 31
0.0
  0
LINE
  5
D85
330
D2D
100
AcDbEntity
  8
ASSE
100
AcDbLine
 10
321.2596663822524
 20
262.6310502464325
 30
0.0
 11
321.5945370082166
 21
325.4168076518662
 31
0.0
  0
LINE
  5
D86
330
D2D
100
AcDbEntity
  8
ASSE
100
AcDbLine
 10
328.9203815512431
 20
291.8895294809608
 30
0.0
 11
313.9205948969116
 21
291.9695315093477
 31
0.0
  0
CIRCLE
  5
D87
330
D2D
100
AcDbEntity
  8
VITE
100
AcDbCircle
 10
321.4204882240775
 20
291.9295304951542
 30
0.0
 40
4.978571428571428
  0
CIRCLE
  5
D88
330
D2D
100
AcDbEntity
  8
VITE
100
AcDbCircle
 10
321.4204882240775
 20
291.9295304951542
 30
0.0
 40
5.75
  0
CIRCLE
  5
D89
330
D2D
100
AcDbEntity
  8
VITE
100
AcDbCircle
 10
321.4204882240775
 20
291.9295304951542
 30
0.0
 40
6.5
  0
CIRCLE
  5
D8A
330
D2D
100
AcDbEntity
  8
VITE
100
AcDbCircle
 10
321.4204882240775
 20
291.9295304951542
 30
0.0
 40
6.5
  0
LINE
  5
D8B
330
D2D
100
AcDbEntity
  8
0
100
AcDbLine
 10
364.872601431471
 20
294.6239042133415
 30
0.0
 11
344.8728858923629
 21
294.7305735845243
 31
0.0
  0
LINE
  5
D8C
330
D2D
100
AcDbEntity
  8
0
100
AcDbLine
 10
434.9212573234316
 20
274.9896450437563
 30
0.0
 11
384.9219684756612
 21
275.2563184717132
 31
0.0
  0
LWPOLYLINE
  5
D8D
330
D2D
100
AcDbEntity
  8
VITE
100
AcDbPolyline
 90
        6
 70
     1
 43
0.0
 10
426.7059254417421
 20
235.3793943543023
 10
409.6538194818593
 20
225.65524834212
 10
392.7064090252587
 20
235.5607322853134
 10
392.8111045285417
 20
255.1903622406871
 10
409.8632104884257
 20
264.9145082528689
 10
426.8106209450262
 20
255.009024309676
  0
ARC
  5
D95
330
D2D
100
AcDbEntity
  8
0
100
AcDbCircle
 10
409.9350312008358
 20
245.0593913115412
 30
0.0
 40
25.113374100496
100
AcDbArc
 50
10.65601704382463
 51
100.6560170438246
  0
CIRCLE
  5
D96
330
D2D
100
AcDbEntity
  8
VITE
100
AcDbCircle
 10
409.7585149851424
 20
245.2848782974947
 30
0.0
 40
17.0
  0
LINE
  5
D97
330
D2D
100
AcDbEntity
  8
0
100
AcDbLine
 10
384.9219684756612
 20
275.2563184717132
 30
0.0
 11
384.8945570818877
 21
270.1168855500109
 31
0.0
  0
LINE
  5
D98
330
D2D
100
AcDbEntity
  8
0
100
AcDbLine
 10
384.8945570818877
 20
270.1168855500109
 30
0.0
 11
384.8720610339668
 21
265.8990435004375
 31
0.0
  0
LINE
  5
D99
330
D2D
100
AcDbEntity
  8
0
100
AcDbLine
 10
434.7612532666574
 20
244.9900717350938
 30
0.0
 11
434.9212573234316
 21
274.9896450437563
 31
0.0
  0
LINE
  5
D9A
330
D2D
100
AcDbEntity
  8
0
100
AcDbLine
 10
450.6412732795487
 20
249.7026831204466
 30
0.0
 11
450.7746099935274
 21
274.7023275443316
 31
0.0
  0
CIRCLE
  5
D9B
330
D2D
100
AcDbEntity
  8
0
100
AcDbCircle
 10
297.3377319051745
 20
456.865376308001
 30
0.0
 40
14.5
  0
CIRCLE
  5
D9C
330
D2D
100
AcDbEntity
  8
0
100
AcDbCircle
 10
297.3377319051745
 20
456.865376308001
 30
0.0
 40
13.0
  0
CIRCLE
  5
D9D
330
D2D
100
AcDbEntity
  8
0
100
AcDbCircle
 10
297.3377319051745
 20
456.865376308001
 30
0.0
 40
11.0
  0
CIRCLE
  5
D9E
330
D2D
100
AcDbEntity
  8
VITE
100
AcDbCircle
 10
297.3422808166932
 20
456.8638417733836
 30
0.0
 40
6.5
  0
CIRCLE
  5
D9F
330
D2D
100
AcDbEntity
  8
VITE
100
AcDbCircle
 10
297.3422808166932
 20
456.8638417733836
 30
0.0
 40
6.5
  0
CIRCLE
  5
DA0
330
D2D
100
AcDbEntity
  8
VITE
100
AcDbCircle
 10
297.3422808166932
 20
456.8638417733836
 30
0.0
 40
5.75
  0
CIRCLE
  5
DA1
330
D2D
100
AcDbEntity
  8
VITE
100
AcDbCircle
 10
297.3422808166932
 20
456.8638417733836
 30
0.0
 40
4.978571428571428
  0
LWPOLYLINE
  5
DA2
330
D2D
100
AcDbEntity
  8
VITE
100
AcDbPolyline
 90
        6
 70
     1
 43
0.0
 10
303.8221730500989
 20
453.0764508539277
 10
297.3022501830847
 20
449.3583950257407
 10
290.8223579496787
 20
453.1457859451966
 10
290.862388583287
 20
460.65123269284
 10
297.3823114503012
 20
464.3692885210266
 10
303.8622036837072
 20
460.5818976015707
  0
LINE
  5
DAA
330
D2D
100
AcDbEntity
  8
ASSE
100
AcDbLine
 10
304.8421741438584
 20
456.8238407591898
 30
0.0
 11
289.8423874895273
 21
456.9038427875771
 31
0.0
  0
LINE
  5
DAB
330
D2D
100
AcDbEntity
  8
ASSE
100
AcDbLine
 10
328.2898093832367
 20
456.700292027931
 30
0.0
 11
266.3856613420851
 21
457.0304605511901
 31
0.0
  0
LINE
  5
DAC
330
D2D
100
AcDbEntity
  8
0
100
AcDbLine
 10
275.9193928851019
 20
565.9811623044438
 30
0.0
 11
373.9179990267329
 21
565.4584823856476
 31
0.0
  0
LINE
  5
DAD
330
D2D
100
AcDbEntity
  8
ASSE
100
AcDbLine
 10
297.1814589748681
 20
427.5653615246615
 30
0.0
 11
297.5163296008321
 21
490.3511189300952
 31
0.0
  0
LINE
  5
DAE
330
D2D
100
AcDbEntity
  8
ASSE
100
AcDbLine
 10
297.3822818308864
 20
464.3637351005491
 30
0.0
 11
297.3022798024993
 21
449.3639484462183
 31
0.0
  0
LINE
  5
DAF
330
D2D
100
AcDbEntity
  8
0
100
AcDbLine
 10
275.4393807147788
 20
475.9824423784566
 30
0.0
 11
275.9193928851019
 21
565.9811623044438
 31
0.0
  0
LINE
  5
DB0
330
D2D
100
AcDbEntity
  8
0
100
AcDbLine
 10
365.8221333129298
 20
472.6540858286898
 30
0.0
 11
365.4502886263611
 21
402.9359664321482
 31
0.0
  0
LINE
  5
DB1
330
D2D
100
AcDbEntity
  8
0
100
AcDbLine
 10
345.4505730872534
 20
403.0426358033318
 30
0.0
 11
345.8224177738214
 21
472.7607551998726
 31
0.0
  0
LINE
  5
DB2
330
D2D
100
AcDbEntity
  8
0
100
AcDbLine
 10
356.733272816771
 20
386.5873905556645
 30
0.0
 11
317.7771781139353
 21
386.7951646171295
 31
0.0
  0
LINE
  5
DB3
330
D2D
100
AcDbEntity
  8
0
100
AcDbLine
 10
374.2333486614883
 20
402.8891215913222
 30
0.0
 11
317.8645163295954
 21
403.1897672623768
 31
0.0
  0
LINE
  5
DB4
330
D2D
100
AcDbEntity
  8
0
100
AcDbLine
 10
317.8645163295954
 20
403.1897672623768
 30
0.0
 11
317.7772932041554
 21
386.8360784959513
 31
0.0
  0
LINE
  5
DB5
330
D2D
100
AcDbEntity
  8
0
100
AcDbLine
 10
340.0490666800718
 20
371.6351672443461
 30
0.0
 11
366.5266954204625
 21
371.4939476353656
 31
0.0
  0
LINE
  5
DB6
330
D2D
100
AcDbEntity
  8
0
100
AcDbLine
 10
364.9716094100757
 20
371.5022417556765
 30
0.0
 11
374.0656866472794
 21
371.4537380907877
 31
0.0
  0
LINE
  5
DB7
330
D2D
100
AcDbEntity
  8
0
100
AcDbLine
 10
356.8199075634842
 20
402.830762676931
 30
0.0
 11
356.733272816771
 21
386.5873905556645
 31
0.0
  0
LINE
  5
DB8
330
D2D
100
AcDbEntity
  8
0
100
AcDbLine
 10
340.0156375364987
 20
371.6510169269968
 30
0.0
 11
340.0957746305501
 21
386.6761273912516
 31
0.0
  0
LINE
  5
DB9
330
D2D
100
AcDbEntity
  8
0
100
AcDbLine
 10
374.0712153166763
 20
371.4537086033842
 30
0.0
 11
374.2388773308854
 21
402.8890921039183
 31
0.0
  0
CIRCLE
  5
DBA
330
D2D
100
AcDbEntity
  8
0
100
AcDbCircle
 10
347.8013558707806
 20
379.0957265359206
 30
0.0
 40
5.306069902824674
  0
LINE
  5
DBB
330
D2D
100
AcDbEntity
  8
0
100
AcDbLine
 10
373.9179990267329
 20
565.4584823856476
 30
0.0
 11
373.4371998363202
 21
475.3122020330756
 31
0.0
  0
LINE
  5
DBC
330
D2D
100
AcDbEntity
  8
0
100
AcDbLine
 10
345.8224177738214
 20
472.7607551998726
 30
0.0
 11
365.8221333129298
 21
472.6540858286898
 31
0.0
  0
LINE
  5
DBD
330
D2D
100
AcDbEntity
  8
0
100
AcDbLine
 10
654.6216398290827
 20
335.8162240274841
 30
0.0
 11
655.2778131235998
 21
458.8438475071766
 31
0.0
  0
LINE
  5
DBE
330
D2D
100
AcDbEntity
  8
0
100
AcDbLine
 10
674.3669977851172
 20
273.8518995637159
 30
0.0
 11
675.4336914969452
 21
473.8490549547991
 31
0.0
  0
LINE
  5
DBF
330
D2D
100
AcDbEntity
  8
0
100
AcDbLine
 10
600.1123860383085
 20
377.5592259093818
 30
0.0
 11
599.6792866034556
 21
296.356295760378
 31
0.0
  0
LINE
  5
DC0
330
D2D
100
AcDbEntity
  8
ASSE
100
AcDbLine
 10
481.8372459778173
 20
283.4331323281462
 30
0.0
 11
482.8986249814715
 21
482.4338193751909
 31
0.0
  0
LINE
  5
DC1
330
D2D
100
AcDbEntity
  8
0
100
AcDbLine
 10
545.3221831777508
 20
459.4303007435441
 30
0.0
 11
544.6662178007614
 21
336.4416602574706
 31
0.0
  0
LINE
  5
DC2
330
D2D
100
AcDbEntity
  8
ASSE
100
AcDbLine
 10
599.6421112718638
 20
279.5913357895747
 30
0.0
 11
600.4174362182974
 21
424.9590098191801
 31
0.0
  0
LINE
  5
DC3
330
D2D
100
AcDbEntity
  8
0
100
AcDbLine
 10
586.4963581030525
 20
389.1661314402067
 30
0.0
 11
574.4328730370894
 21
344.9965617651987
 31
0.0
  0
LINE
  5
DC4
330
D2D
100
AcDbEntity
  8
0
100
AcDbLine
 10
612.3582392680678
 20
389.9727865972845
 30
0.0
 11
624.4458834938422
 21
344.7298151524301
 31
0.0
  0
CIRCLE
  5
DC5
330
D2D
100
AcDbEntity
  8
0
100
AcDbCircle
 10
599.8693646354569
 20
331.9090860441801
 30
0.0
 40
21.92606435362722
  0
LINE
  5
DC6
330
D2D
100
AcDbEntity
  8
0
100
AcDbLine
 10
624.1508787913657
 20
299.7676269947669
 30
0.0
 11
574.151589943595
 21
300.0343004227234
 31
0.0
  0
LINE
  5
DC7
330
D2D
100
AcDbEntity
  8
0
100
AcDbLine
 10
560.1728375792362
 20
278.3485197109662
 30
0.0
 11
638.711528473554
 21
277.9296301145195
 31
0.0
  0
LINE
  5
DC8
330
D2D
100
AcDbEntity
  8
ASSE
100
AcDbLine
 10
636.0991443970496
 20
331.4708598379092
 30
0.0
 11
562.6577509260936
 21
331.8625627721349
 31
0.0
  0
LINE
  5
DC9
330
D2D
100
AcDbEntity
  8
0
100
AcDbLine
 10
501.6988205748565
 20
126.0832371722485
 30
0.0
 11
502.4256853948944
 21
262.3649971088593
 31
0.0
  0
LINE
  5
DCA
330
D2D
100
AcDbEntity
  8
0
100
AcDbLine
 10
462.7772112814108
 20
262.576464006665
 30
0.0
 11
462.0503464613729
 21
126.2947040700546
 31
0.0
  0
LINE
  5
DCB
330
D2D
100
AcDbEntity
  8
0
100
AcDbLine
 10
462.0503464613733
 20
126.2947040700582
 30
0.0
 11
461.9767398955017
 21
112.4940191787954
 31
0.0
  0
LINE
  5
DCC
330
D2D
100
AcDbEntity
  8
0
100
AcDbLine
 10
501.6988205748565
 20
126.0832371722485
 30
0.0
 11
501.634414847664
 21
114.0076412569824
 31
0.0
  0
LINE
  5
DCD
330
D2D
100
AcDbEntity
  8
0
100
AcDbLine
 10
502.4256853948944
 20
262.3649971088593
 30
0.0
 11
462.7772112814108
 21
262.576464006665
 31
0.0
  0
LINE
  5
DCE
330
D2D
100
AcDbEntity
  8
0
100
AcDbLine
 10
462.8415418488576
 20
274.6379680272875
 30
0.0
 11
462.7450083460343
 21
256.5386525906987
 31
0.0
  0
LINE
  5
DCF
330
D2D
100
AcDbEntity
  8
0
100
AcDbLine
 10
514.2783015866156
 20
234.6996257036325
 30
0.0
 11
502.2784722631508
 21
234.7636273263424
 31
0.0
  0
LINE
  5
DD0
330
D2D
100
AcDbEntity
  8
0
100
AcDbLine
 10
502.4256853948944
 20
262.3649971088593
 30
0.0
 11
502.4900911220864
 21
274.4405930241295
 31
0.0
  0
LINE
  5
DD1
330
D2D
100
AcDbEntity
  8
0
100
AcDbLine
 10
502.4900911220864
 20
274.4405930241295
 30
0.0
 11
514.4899204455513
 21
274.3765914014202
 31
0.0
  0
LINE
  5
DD2
330
D2D
100
AcDbEntity
  8
0
100
AcDbLine
 10
514.4899204455513
 20
274.3765914014202
 30
0.0
 11
514.2783015866156
 21
234.6996257036325
 31
0.0
  0
LINE
  5
DD3
330
D2D
100
AcDbEntity
  8
0
100
AcDbLine
 10
544.9661956901185
 20
336.5086831461985
 30
0.0
 11
560.235509718124
 21
278.2601394760577
 31
0.0
  0
LINE
  5
DD4
330
D2D
100
AcDbEntity
  8
0
100
AcDbLine
 10
574.151589943595
 20
300.0343004227234
 30
0.0
 11
574.3907607482445
 21
344.877051488072
 31
0.0
  0
CIRCLE
  5
DD5
330
D2D
100
AcDbEntity
  8
0
100
AcDbCircle
 10
599.8693646354569
 20
331.9090860441801
 30
0.0
 40
10.0
  0
LINE
  5
DD6
330
D2D
100
AcDbEntity
  8
ASSE
100
AcDbLine
 10
655.255741585989
 20
297.6491120172777
 30
0.0
 11
655.1757395576027
 21
282.649325362946
 31
0.0
  0
CIRCLE
  5
DD7
330
D2D
100
AcDbEntity
  8
VITE
100
AcDbCircle
 10
655.2157405717959
 20
290.1492186901123
 30
0.0
 40
5.75
  0
CIRCLE
  5
DD8
330
D2D
100
AcDbEntity
  8
VITE
100
AcDbCircle
 10
655.2157405717959
 20
290.1492186901123
 30
0.0
 40
6.5
  0
CIRCLE
  5
DD9
330
D2D
100
AcDbEntity
  8
VITE
100
AcDbCircle
 10
655.2157405717959
 20
290.1492186901123
 30
0.0
 40
6.5
  0
LWPOLYLINE
  5
DDA
330
D2D
100
AcDbEntity
  8
VITE
100
AcDbPolyline
 90
        6
 70
     1
 43
0.0
 10
661.6956328052014
 20
286.3618277706564
 10
655.1757099381874
 20
282.6437719424689
 10
648.6958177047812
 20
286.4311628619252
 10
648.7358483383895
 20
293.9366096095682
 10
655.2557712054043
 20
297.6546654377552
 10
661.7356634388096
 20
293.8672745182998
  0
CIRCLE
  5
DE2
330
D2D
100
AcDbEntity
  8
0
100
AcDbCircle
 10
655.2111916602775
 20
290.1507532247297
 30
0.0
 40
11.0
  0
ARC
  5
DE3
330
D2D
100
AcDbEntity
  8
0
100
AcDbCircle
 10
655.2111916602775
 20
290.1507532247297
 30
0.0
 40
13.0
100
AcDbArc
 50
178.3143407681992
 51
151.9327855782844
  0
ARC
  5
DE4
330
D2D
100
AcDbEntity
  8
0
100
AcDbCircle
 10
655.2111916602775
 20
290.1507532247297
 30
0.0
 40
14.5
100
AcDbArc
 50
193.9517391620029
 51
135.5467764173193
  0
LINE
  5
DE5
330
D2D
100
AcDbEntity
  8
0
100
AcDbLine
 10
654.6222137391335
 20
335.923827903191
 30
0.0
 11
638.7324436941811
 21
277.8414725919892
 31
0.0
  0
LINE
  5
DE6
330
D2D
100
AcDbEntity
  8
ASSE
100
AcDbLine
 10
655.0549187299708
 20
260.8507384413905
 30
0.0
 11
655.3897893559345
 21
323.6364958468239
 31
0.0
  0
LINE
  5
DE7
330
D2D
100
AcDbEntity
  8
ASSE
100
AcDbLine
 10
662.7156338989617
 20
290.1092176759184
 30
0.0
 11
647.7158472446298
 21
290.1892197043062
 31
0.0
  0
LINE
  5
DE8
330
D2D
100
AcDbEntity
  8
ASSE
100
AcDbLine
 10
686.1632691383391
 20
289.9856689446592
 30
0.0
 11
624.2591210971876
 21
290.3158374679187
 31
0.0
  0
CIRCLE
  5
DE9
330
D2D
100
AcDbEntity
  8
VITE
100
AcDbCircle
 10
655.2157405717959
 20
290.1492186901123
 30
0.0
 40
4.978571428571428
  0
LINE
  5
DEA
330
D2D
100
AcDbEntity
  8
0
100
AcDbLine
 10
624.3900495960154
 20
344.6103780601152
 30
0.0
 11
624.1508787913657
 21
299.7676269947669
 31
0.0
  0
LINE
  5
DEB
330
D2D
100
AcDbEntity
  8
0
100
AcDbLine
 10
643.3419854228451
 20
470.9076784533508
 30
0.0
 11
557.3860141239252
 21
471.3661284442996
 31
0.0
  0
ARC
  5
DEC
330
D2D
100
AcDbEntity
  8
0
100
AcDbCircle
 10
557.3220125012154
 20
459.3662991208348
 30
0.0
 40
12.0
100
AcDbArc
 50
89.69441331260291
 51
179.6944133126029
  0
CIRCLE
  5
DED
330
D2D
100
AcDbEntity
  8
0
100
AcDbCircle
 10
482.1866920232166
 20
383.2111835325104
 30
0.0
 40
15.0
  0
LINE
  5
DEE
330
D2D
100
AcDbEntity
  8
0
100
AcDbLine
 10
600.3713526817567
 20
426.1135498511357
 30
0.0
 11
600.1123860383085
 21
377.5592259093818
 31
0.0
  0
CIRCLE
  5
DEF
330
D2D
100
AcDbEntity
  8
0
100
AcDbCircle
 10
600.1881785333404
 20
391.6843260863229
 30
0.0
 40
10.77928353839161
  0
ARC
  5
DF0
330
D2D
100
AcDbEntity
  8
0
100
AcDbCircle
 10
599.6686479376061
 20
381.8316473641439
 30
0.0
 40
15.07660028479595
100
AcDbArc
 50
32.68262328343202
 51
42.91250674469997
  0
ARC
  5
DF1
330
D2D
100
AcDbEntity
  8
0
100
AcDbCircle
 10
599.6686479376061
 20
381.8316473641439
 30
0.0
 40
15.07660028479595
100
AcDbArc
 50
132.6171698537509
 51
150.8904313160456
  0
LINE
  5
DF2
330
D2D
100
AcDbEntity
  8
0
100
AcDbLine
 10
604.1460189171524
 20
353.445175835975
 30
0.0
 11
604.2975862071588
 21
381.8629179819808
 31
0.0
  0
LINE
  5
DF3
330
D2D
100
AcDbEntity
  8
0
100
AcDbLine
 10
596.0674796732359
 20
353.4882630838683
 30
0.0
 11
596.216433674775
 21
381.4160330346712
 31
0.0
  0
ARC
  5
DF4
330
D2D
100
AcDbEntity
  8
0
100
AcDbCircle
 10
711.7769760512514
 20
437.8221070931113
 30
0.0
 40
25.12561332754194
100
AcDbArc
 50
342.8785648380956
 51
89.69441331260291
  0
ARC
  5
DF5
330
D2D
100
AcDbEntity
  8
0
100
AcDbCircle
 10
643.2779838001343
 20
458.9078491298864
 30
0.0
 40
12.0
100
AcDbArc
 50
359.6944133126029
 51
89.69441331260291
  0
CIRCLE
  5
DF6
330
D2D
100
AcDbEntity
  8
0
100
AcDbCircle
 10
711.7250298126081
 20
437.7580841797311
 30
0.0
 40
20.0
  0
LINE
  5
DF7
330
D2D
100
AcDbEntity
  8
ASSE
100
AcDbLine
 10
730.2198744118389
 20
410.7852505799119
 30
0.0
 11
694.8540986138453
 21
462.9008904643069
 31
0.0
  0
LINE
  5
DF8
330
D2D
100
AcDbEntity
  8
0
100
AcDbLine
 10
711.9109827199626
 20
462.947363057935
 30
0.0
 11
676.9114805265234
 21
463.1340344575046
 31
0.0
  0
LINE
  5
DF9
330
D2D
100
AcDbEntity
  8
0
100
AcDbLine
 10
711.6429693825401
 20
412.6968511282875
 30
0.0
 11
676.6434671891
 21
412.8835225278581
 31
0.0
  0
LINE
  5
DFA
330
D2D
100
AcDbEntity
  8
0
100
AcDbLine
 10
736.2430433579505
 20
382.8980202591578
 30
0.0
 11
711.1617943067844
 21
417.759968634059
 31
0.0
  0
LINE
  5
DFB
330
D2D
100
AcDbEntity
  8
0
100
AcDbLine
 10
734.0019020151902
 20
381.3059245430677
 30
0.0
 11
707.3122829299758
 21
418.403443920843
 31
0.0
  0
LINE
  5
DFC
330
D2D
100
AcDbEntity
  8
0
100
AcDbLine
 10
730.955951737374
 20
432.9356236213352
 30
0.0
 11
756.4803827545135
 21
397.4576697681232
 31
0.0
  0
LINE
  5
DFD
330
D2D
100
AcDbEntity
  8
0
100
AcDbLine
 10
758.2973054180801
 20
398.7851272827856
 30
0.0
 11
731.4255401605889
 21
436.1358226663369
 31
0.0
  0
LINE
  5
DFE
330
D2D
100
AcDbEntity
  8
0
100
AcDbLine
 10
758.3154146764726
 20
398.832797069731
 30
0.0
 11
734.0071694788385
 21
381.3443553669831
 31
0.0
  0
CIRCLE
  5
DFF
330
D2D
100
AcDbEntity
  8
0
100
AcDbCircle
 10
711.7250298126081
 20
437.7580841797311
 30
0.0
 40
8.0
  0
ENDBLK
  5
E01
330
D2D
100
AcDbEntity
  8
0
100
AcDbBlockEnd
  0
BLOCK
  5
1111
330
10FA
100
AcDbEntity
  8
0
100
AcDbBlockBegin
  2
A$C2
 70
     0
 10
0.0
 20
0.0
 30
0.0
  3
A$C2
  1

  0
ARC
  5
10FB
330
10FA
100
AcDbEntity
  8
0
100
AcDbCircle
 10
271.8946816409593
 20
187.3680731697989
 30
0.0
 40
183.4383699856711
100
AcDbArc
 50
191.0883927076842
 51
275.1551222855386
  0
ARC
  5
10FC
330
10FA
100
AcDbEntity
  8
0
100
AcDbCircle
 10
314.8518633843882
 20
119.0627801297856
 30
0.0
 40
117.5
100
AcDbArc
 50
36.51143685777576
 51
343.1579175231303
  0
LINE
  5
10FD
330
10FA
100
AcDbEntity
  8
ASSE
100
AcDbLine
 10
426.4190655119864
 20
177.6149605116166
 30
0.0
 11
205.6204093137323
 21
55.57572501572315
 31
0.0
  0
LINE
  5
10FE
330
10FA
100
AcDbEntity
  8
ASSE
100
AcDbLine
 10
379.1720901055139
 20
1.988250144362154
 30
0.0
 11
255.710414888952
 21
226.3541121351523
 31
0.0
  0
LINE
  5
10FF
330
10FA
100
AcDbEntity
  8
0
100
AcDbLine
 10
396.8431390420716
 20
202.0425718265099
 30
0.0
 11
367.5684126543253
 21
338.7714408956282
 31
0.0
  0
LINE
  5
1100
330
10FA
100
AcDbEntity
  8
0
100
AcDbLine
 10
367.5501992872216
 20
338.7748157318691
 30
0.0
 11
286.9057922980177
 21
423.3169499729634
 31
0.0
  0
LINE
  5
1101
330
10FA
100
AcDbEntity
  8
0
100
AcDbLine
 10
268.2411876491896
 20
550.0110889877138
 30
0.0
 11
285.5220127739764
 21
424.3594920931188
 31
0.0
  0
LINE
  5
1102
330
10FA
100
AcDbEntity
  8
0
100
AcDbLine
 10
240.9556775812823
 20
725.9073679146255
 30
0.0
 11
268.2411876491896
 21
550.0110889877138
 31
0.0
  0
LINE
  5
1103
330
10FA
100
AcDbEntity
  8
0
100
AcDbLine
 10
279.1032887719964
 20
462.7300961246243
 30
0.0
 11
85.74450842554483
 21
435.5547338016528
 31
0.0
  0
LINE
  5
1104
330
10FA
100
AcDbEntity
  8
ASSE
100
AcDbLine
 10
221.1731870137248
 20
201.074462624602
 30
0.0
 11
159.9191117115406
 21
595.9493939690498
 31
0.0
  0
LINE
  5
1105
330
10FA
100
AcDbEntity
  8
0
100
AcDbLine
 10
43.31940912407776
 20
695.2494914338318
 30
0.0
 11
72.7509705456398
 21
505.5186737149153
 31
0.0
  0
LINE
  5
1106
330
10FA
100
AcDbEntity
  8
0
100
AcDbLine
 10
43.52975194976806
 20
465.5671983507651
 30
0.0
 11
72.7509705456398
 21
505.5186737149153
 31
0.0
  0
LINE
  5
1107
330
10FA
100
AcDbEntity
  8
0
100
AcDbLine
 10
63.61066104468841
 20
336.115442511296
 30
0.0
 11
43.52975194976806
 21
465.5671983507651
 31
0.0
  0
LINE
  5
1108
330
10FA
100
AcDbEntity
  8
0
100
AcDbLine
 10
63.61066104468841
 20
336.115442511296
 30
0.0
 11
88.51810620768265
 21
163.8802015581146
 31
0.0
  0
LINE
  5
1109
330
10FA
100
AcDbEntity
  8
ASSE
100
AcDbLine
 10
152.8754715251211
 20
113.9642141566913
 30
0.0
 11
111.8698850795622
 21
241.8051601340222
 31
0.0
  0
CIRCLE
  5
110A
330
10FA
100
AcDbEntity
  8
0
100
AcDbCircle
 10
130.2537361349525
 20
180.4918564373548
 30
0.0
 40
45.0
  0
CIRCLE
  5
110B
330
10FA
100
AcDbEntity
  8
0
100
AcDbCircle
 10
202.0736918726327
 20
324.1995248403931
 30
0.0
 40
117.5
  0
LINE
  5
110C
330
10FA
100
AcDbEntity
  8
ASSE
100
AcDbLine
 10
329.0305669695635
 20
343.8934212364998
 30
0.0
 11
79.0744034432505
 21
305.1195400717571
 31
0.0
  0
LINE
  5
110D
330
10FA
100
AcDbEntity
  8
0
100
AcDbLine
 10
200.3421238989949
 20
987.7229963904591
 30
0.0
 11
240.9556775812823
 21
725.9073679146255
 31
0.0
  0
LINE
  5
110E
330
10FA
100
AcDbEntity
  8
0
100
AcDbLine
 10
1.342629700287488
 20
966.3672575462939
 30
0.0
 11
199.8291478323112
 21
987.8098527370754
 31
0.0
  0
LINE
  5
110F
330
10FA
100
AcDbEntity
  8
0
100
AcDbLine
 10
43.31940912407776
 20
695.2494914338318
 30
0.0
 11
1.264756375669549
 21
966.3551776239904
 31
0.0
  0
LINE
  5
1110
330
10FA
100
AcDbEntity
  8
ASSE
100
AcDbLine
 10
183.7537703768273
 20
442.2990587441264
 30
0.0
 11
95.65521019451171
 21
1034.489457978074
 31
0.0
  0
ENDBLK
  5
1112
330
10FA
100
AcDbEntity
  8
0
100
AcDbBlockEnd
  0
BLOCK
  5
182C
330
17E9
100
AcDbEntity
  8
0
100
AcDbBlockBegin
  2
A$C3
 70
     0
 10
0.0
 20
0.0
 30
0.0
  3
A$C3
  1

  0
LINE
  5
17EA
330
17E9
100
AcDbEntity
  8
0
100
AcDbLine
 10
1242.31138288771
 20
9.492379393870237
 30
0.0
 11
1556.31138288771
 21
9.492379393870237
 31
0.0
  0
LINE
  5
17EB
330
17E9
100
AcDbEntity
  8
ASSE
100
AcDbLine
 10
343.4411616334255
 20
123.2310385636149
 30
0.0
 11
1339.256007270192
 21
123.231038563615
 31
0.0
  0
LINE
  5
17EC
330
17E9
100
AcDbEntity
  8
0
100
AcDbLine
 10
1242.31138288771
 20
63.23103856361512
 30
0.0
 11
343.4411616334255
 21
63.23103856361512
 31
0.0
  0
LINE
  5
17ED
330
17E9
100
AcDbEntity
  8
0
100
AcDbLine
 10
343.4411616334255
 20
183.231038563615
 30
0.0
 11
1116.31138288771
 21
183.231038563615
 31
0.0
  0
LINE
  5
17EE
330
17E9
100
AcDbEntity
  8
0
100
AcDbLine
 10
318.2799399586309
 20
63.23103856361502
 30
0.0
 11
68.66708531433687
 21
63.23103856361502
 31
0.0
  0
LINE
  5
17EF
330
17E9
100
AcDbEntity
  8
0
100
AcDbLine
 10
68.66708531433687
 20
183.231038563615
 30
0.0
 11
318.2799399586309
 21
183.231038563615
 31
0.0
  0
LINE
  5
17F0
330
17E9
100
AcDbEntity
  8
ASSE
100
AcDbLine
 10
219.2971030201842
 20
123.231038563615
 30
0.0
 11
318.279939958631
 21
123.231038563615
 31
0.0
  0
LINE
  5
17F1
330
17E9
100
AcDbEntity
  8
0
100
AcDbLine
 10
68.66708531433687
 20
123.231038563615
 30
0.0
 11
68.66708531433687
 21
183.231038563615
 31
0.0
  0
LINE
  5
17F2
330
17E9
100
AcDbEntity
  8
ASSE
100
AcDbLine
 10
219.2971030201842
 20
123.231038563615
 30
0.0
 11
5.289766449295711
 21
123.231038563615
 31
0.0
  0
LINE
  5
17F3
330
17E9
100
AcDbEntity
  8
0
100
AcDbLine
 10
68.66708531433687
 20
63.23103856361502
 30
0.0
 11
68.66708531433687
 21
123.231038563615
 31
0.0
  0
LINE
  5
17F4
330
17E9
100
AcDbEntity
  8
0
100
AcDbLine
 10
688.3991884227896
 20
63.23103856361512
 30
0.0
 11
688.3991884227898
 21
29.5740508570733
 31
0.0
  0
LINE
  5
17F5
330
17E9
100
AcDbEntity
  8
0
100
AcDbLine
 10
889.8199752437104
 20
1.515062068583233
 30
0.0
 11
969.8199752437103
 21
1.515062068583233
 31
0.0
  0
ARC
  5
17F6
330
17E9
100
AcDbEntity
  8
COSTRUZIONE
100
AcDbCircle
 10
1241.820668725723
 20
123.6263235007482
 30
0.0
 40
35.0
100
AcDbArc
 50
358.1169767033417
 51
183.5384826077872
  0
LINE
  5
17F7
330
17E9
100
AcDbEntity
  8
0
100
AcDbLine
 10
1242.31138288771
 20
94.87055443932865
 30
0.0
 11
1242.31138288771
 21
9.492379393870237
 31
0.0
  0
LINE
  5
17F8
330
17E9
100
AcDbEntity
  8
0
100
AcDbLine
 10
1369.31138288771
 20
183.231038563615
 30
0.0
 11
1397.31138288771
 21
183.231038563615
 31
0.0
  0
LINE
  5
17F9
330
17E9
100
AcDbEntity
  8
ASSE
100
AcDbLine
 10
2732.934861321426
 20
123.231038563615
 30
0.0
 11
3067.367360920541
 21
123.231038563615
 31
0.0
  0
LINE
  5
17FA
330
17E9
100
AcDbEntity
  8
0
100
AcDbLine
 10
2732.934861321426
 20
183.2310385636151
 30
0.0
 11
3068.667085314336
 21
183.231038563615
 31
0.0
  0
LINE
  5
17FB
330
17E9
100
AcDbEntity
  8
0
100
AcDbLine
 10
3068.667085314336
 20
63.23103856361502
 30
0.0
 11
2732.934861321426
 21
63.23103856361512
 31
0.0
  0
LINE
  5
17FC
330
17E9
100
AcDbEntity
  8
ASSE
100
AcDbLine
 10
1774.338576476404
 20
123.231038563615
 30
0.0
 11
2707.462321932411
 21
123.231038563615
 31
0.0
  0
LINE
  5
17FD
330
17E9
100
AcDbEntity
  8
0
100
AcDbLine
 10
1998.31138288771
 20
183.231038563615
 30
0.0
 11
2707.462321932411
 21
183.231038563615
 31
0.0
  0
LINE
  5
17FE
330
17E9
100
AcDbEntity
  8
0
100
AcDbLine
 10
2707.462321932411
 20
63.23103856361502
 30
0.0
 11
1872.31138288771
 21
63.23103856361502
 31
0.0
  0
LINE
  5
17FF
330
17E9
100
AcDbEntity
  8
0
100
AcDbLine
 10
1872.31138288771
 20
9.492379393870237
 30
0.0
 11
1558.31138288771
 21
9.492379393870237
 31
0.0
  0
LINE
  5
1800
330
17E9
100
AcDbEntity
  8
0
100
AcDbLine
 10
1717.31138288771
 20
183.231038563615
 30
0.0
 11
1745.31138288771
 21
183.231038563615
 31
0.0
  0
ARC
  5
1801
330
17E9
100
AcDbEntity
  8
COSTRUZIONE
100
AcDbCircle
 10
1872.802097049697
 20
123.6263235007482
 30
0.0
 40
35.0
100
AcDbArc
 50
356.4615173922128
 51
181.8830232966582
  0
LINE
  5
1802
330
17E9
100
AcDbEntity
  8
0
100
AcDbLine
 10
1872.31138288771
 20
94.87055443932865
 30
0.0
 11
1872.31138288771
 21
9.492379393870237
 31
0.0
  0
LINE
  5
1803
330
17E9
100
AcDbEntity
  8
0
100
AcDbLine
 10
2352.273940888491
 20
205.3376667320886
 30
0.0
 11
2706.997651147657
 21
205.3376667320886
 31
0.0
  0
LINE
  5
1804
330
17E9
100
AcDbEntity
  8
ASSE
100
AcDbLine
 10
2327.464098560607
 20
29.5740508570733
 30
0.0
 11
2311.463231200483
 21
45.57891510182196
 31
0.0
  0
LINE
  5
1805
330
17E9
100
AcDbEntity
  8
0
100
AcDbLine
 10
2141.007962455982
 20
1.515062068583233
 30
0.0
 11
2221.007962455982
 21
1.515062068583233
 31
0.0
  0
LINE
  5
1806
330
17E9
100
AcDbEntity
  8
0
100
AcDbLine
 10
2422.399188422788
 20
29.5740508570733
 30
0.0
 11
2422.399188422788
 21
63.23103856361512
 31
0.0
  0
LINE
  5
1807
330
17E9
100
AcDbEntity
  8
0
100
AcDbLine
 10
2422.399188422788
 20
183.231038563615
 30
0.0
 11
2422.399188422788
 21
205.3376667320885
 31
0.0
  0
LINE
  5
1808
330
17E9
100
AcDbEntity
  8
0
100
AcDbLine
 10
3068.667085314336
 20
183.231038563615
 30
0.0
 11
3068.667085314336
 21
63.23103856361502
 31
0.0
  0
ARC
  5
1809
330
17E9
100
AcDbEntity
  8
0
100
AcDbCircle
 10
1242.31138288771
 20
274.4923793938702
 30
0.0
 40
179.6218249545416
100
AcDbArc
 50
270.0
 51
18.83843355798074
  0
LINE
  5
180A
330
17E9
100
AcDbEntity
  8
ASSE
100
AcDbLine
 10
1404.928292292262
 20
365.8104541420371
 30
0.0
 11
1241.574485359315
 21
276.5203852895652
 31
0.0
  0
ARC
  5
180B
330
17E9
100
AcDbEntity
  8
0
100
AcDbCircle
 10
1242.311382887709
 20
274.4923793938697
 30
0.0
 40
156.348968656656
100
AcDbArc
 50
282.6086067933667
 51
15.92122814546538
  0
CIRCLE
  5
180C
330
17E9
100
AcDbEntity
  8
COSTRUZIONE
100
AcDbCircle
 10
1403.399349981294
 20
365.0397924437458
 30
0.0
 40
20.0
  0
LINE
  5
180D
330
17E9
100
AcDbEntity
  8
ASSE
100
AcDbLine
 10
1396.755484602233
 20
344.5920773433996
 30
0.0
 11
1410.043215360355
 21
385.487507544091
 31
0.0
  0
CIRCLE
  5
180E
330
17E9
100
AcDbEntity
  8
ASSE
100
AcDbCircle
 10
1557.907847168768
 20
840.568050591322
 30
0.0
 40
500.0
  0
CIRCLE
  5
180F
330
17E9
100
AcDbEntity
  8
0
100
AcDbCircle
 10
1558.31138288771
 20
840.12758828477
 30
0.0
 40
530.0
  0
LINE
  5
1810
330
17E9
100
AcDbEntity
  8
ASSE
100
AcDbLine
 10
1054.64503332765
 20
391.8780997813597
 30
0.0
 11
751.2210061176877
 21
783.2060479710291
 31
0.0
  0
ARC
  5
1811
330
17E9
100
AcDbEntity
  8
0
100
AcDbCircle
 10
1242.311382887709
 20
274.4923793938697
 30
0.0
 40
156.348968656656
100
AcDbArc
 50
95.89352923206456
 51
137.0638197284565
  0
CIRCLE
  5
1812
330
17E9
100
AcDbEntity
  8
0
100
AcDbCircle
 10
972.8643328688145
 20
497.4974832733441
 30
0.0
 40
117.5
  0
LINE
  5
1813
330
17E9
100
AcDbEntity
  8
ASSE
100
AcDbLine
 10
1241.580981405016
 20
87.12711049569476
 30
0.0
 11
1241.574485359315
 21
276.5203852895652
 31
0.0
  0
ARC
  5
1814
330
17E9
100
AcDbEntity
  8
0
100
AcDbCircle
 10
1242.311382887709
 20
274.4923793938697
 30
0.0
 40
156.348968656656
100
AcDbArc
 50
162.6024871143946
 51
256.7594800848132
  0
LINE
  5
1815
330
17E9
100
AcDbEntity
  8
ASSE
100
AcDbLine
 10
1081.907781639318
 20
367.9317031870948
 30
0.0
 11
1241.574485359315
 21
276.5203852895652
 31
0.0
  0
CIRCLE
  5
1816
330
17E9
100
AcDbEntity
  8
0
100
AcDbCircle
 10
1242.31138288771
 20
275.4923793938702
 30
0.0
 40
40.0
  0
ARC
  5
1817
330
17E9
100
AcDbEntity
  8
COSTRUZIONE
100
AcDbCircle
 10
1113.397183659478
 20
349.4745213758688
 30
0.0
 40
35.0
100
AcDbArc
 50
233.9624397877397
 51
65.02348311376799
  0
ARC
  5
1818
330
17E9
100
AcDbEntity
  8
COSTRUZIONE
100
AcDbCircle
 10
1375.199202951391
 20
347.7684229482084
 30
0.0
 40
35.0
100
AcDbArc
 50
163.5286087754472
 51
300.1585320886967
  0
LINE
  5
1819
330
17E9
100
AcDbEntity
  8
ASSE
100
AcDbLine
 10
1073.942656019038
 20
572.7222864115752
 30
0.0
 11
874.862332002205
 21
417.7621426044351
 31
0.0
  0
CIRCLE
  5
181A
330
17E9
100
AcDbEntity
  8
COSTRUZIONE
100
AcDbCircle
 10
1153.399349981294
 20
546.6754244450856
 30
0.0
 40
20.0
  0
LINE
  5
181B
330
17E9
100
AcDbEntity
  8
ASSE
100
AcDbLine
 10
1136.005484602233
 20
534.0380415207975
 30
0.0
 11
1170.793215360356
 21
559.3128073693739
 31
0.0
  0
LINE
  5
181C
330
17E9
100
AcDbEntity
  8
ASSE
100
AcDbLine
 10
1558.31138288771
 20
1339.548164421802
 30
0.0
 11
1558.31138288771
 21
257.4923793938702
 31
0.0
  0
ARC
  5
181D
330
17E9
100
AcDbEntity
  8
0
100
AcDbCircle
 10
1872.311382887711
 20
274.4923793938697
 30
0.0
 40
156.348968656656
100
AcDbArc
 50
42.93618027154349
 51
84.10647076793543
  0
ARC
  5
181E
330
17E9
100
AcDbEntity
  8
0
100
AcDbCircle
 10
1872.31138288771
 20
274.4923793938702
 30
0.0
 40
179.6218249545416
100
AcDbArc
 50
161.1615664420192
 51
270.0
  0
ARC
  5
181F
330
17E9
100
AcDbEntity
  8
0
100
AcDbCircle
 10
1872.311382887711
 20
274.4923793938697
 30
0.0
 40
156.348968656656
100
AcDbArc
 50
163.6518284526487
 51
257.3913932066332
  0
LINE
  5
1820
330
17E9
100
AcDbEntity
  8
ASSE
100
AcDbLine
 10
1709.694473483158
 20
365.8104541420371
 30
0.0
 11
1872.621761916785
 21
273.0235587996463
 31
0.0
  0
ARC
  5
1821
330
17E9
100
AcDbEntity
  8
COSTRUZIONE
100
AcDbCircle
 10
1741.42356282403
 20
347.7684229482084
 30
0.0
 40
35.0
100
AcDbArc
 50
236.862429065626
 51
16.47139122455272
  0
CIRCLE
  5
1822
330
17E9
100
AcDbEntity
  8
COSTRUZIONE
100
AcDbCircle
 10
1712.416344356242
 20
365.0397924437458
 30
0.0
 40
20.0
  0
LINE
  5
1823
330
17E9
100
AcDbEntity
  8
ASSE
100
AcDbLine
 10
1719.060209735303
 20
344.5920773433996
 30
0.0
 11
1705.77247897718
 21
385.487507544091
 31
0.0
  0
ARC
  5
1824
330
17E9
100
AcDbEntity
  8
ASSE
100
AcDbCircle
 10
1871.817080663223
 20
273.6230892749418
 30
0.0
 40
150.0
100
AcDbArc
 50
138.7263605299421
 51
140.0149939222705
  0
ARC
  5
1825
330
17E9
100
AcDbEntity
  8
0
100
AcDbCircle
 10
1872.311382887711
 20
274.4923793938697
 30
0.0
 40
156.348968656656
100
AcDbArc
 50
283.2405199151867
 51
17.39751288560531
  0
LINE
  5
1826
330
17E9
100
AcDbEntity
  8
ASSE
100
AcDbLine
 10
1873.041784370404
 20
87.12711049569476
 30
0.0
 11
1872.621761916785
 21
273.0235587996463
 31
0.0
  0
LINE
  5
1827
330
17E9
100
AcDbEntity
  8
ASSE
100
AcDbLine
 10
2032.714984136102
 20
367.9317031870948
 30
0.0
 11
1872.621761916785
 21
273.0235587996463
 31
0.0
  0
CIRCLE
  5
1828
330
17E9
100
AcDbEntity
  8
0
100
AcDbCircle
 10
1872.31138288771
 20
275.4923793938702
 30
0.0
 40
40.0
  0
ARC
  5
1829
330
17E9
100
AcDbEntity
  8
COSTRUZIONE
100
AcDbCircle
 10
2001.225582115942
 20
349.4745213758688
 30
0.0
 40
35.0
100
AcDbArc
 50
114.976516886232
 51
306.0375602122602
  0
CIRCLE
  5
182A
330
17E9
100
AcDbEntity
  8
COSTRUZIONE
100
AcDbCircle
 10
1962.416344356242
 20
546.6754244450855
 30
0.0
 40
20.0
  0
LINE
  5
182B
330
17E9
100
AcDbEntity
  8
ASSE
100
AcDbLine
 10
1979.810209735303
 20
534.0380415207972
 30
0.0
 11
1945.02247897718
 21
559.3128073693736
 31
0.0
  0
ENDBLK
  5
182D
330
17E9
100
AcDbEntity
  8
0
100
AcDbBlockEnd
  0
BLOCK
  5
1B5E
330
1B5A
100
AcDbEntity
  8
0
100
AcDbBlockBegin
  2
A$C6
 70
     0
 10
0.0
 20
0.0
 30
0.0
  3
A$C6
  1

  0
LINE
  5
1B5B
330
1B5A
100
AcDbEntity
  8
0
100
AcDbLine
 10
1.900637218473519
 20
0.8165157741112096
 30
0.0
 11
1700.64860396784
 21
0.8165157741112096
 31
0.0
  0
LINE
  5
1B5C
330
1B5A
100
AcDbEntity
  8
0
100
AcDbLine
 10
1.900637218473519
 20
14.30680798376833
 30
0.0
 11
1700.64860396784
 21
14.30680798376833
 31
0.0
  0
TEXT
  5
1B5D
330
1B5A
100
AcDbEntity
  8
TESTO
100
AcDbText
 10
8.733529025279011
 20
25.88597534847285
 30
0.0
 40
25.0
  1
DATI NON INPEGNATIVI con la possibilità di modifica da parte del costruttore
  7
ROMANC
100
AcDbText
  0
ENDBLK
  5
1B5F
330
1B5A
100
AcDbEntity
  8
0
100
AcDbBlockEnd
  0
BLOCK
  5
1B7F
330
1B61
100
AcDbEntity
  8
0
100
AcDbBlockBegin
  2
A$C4
 70
     0
 10
0.0
 20
0.0
 30
0.0
  3
A$C4
  1

  0
LINE
  5
1B62
330
1B61
100
AcDbEntity
  8
0
100
AcDbLine
 10
8.984381688266353
 20
2200.468314539807
 30
0.0
 11
816.8014415243948
 21
2200.468314539807
 31
0.0
  0
LINE
  5
1B63
330
1B61
100
AcDbEntity
  8
0
100
AcDbLine
 10
8.984381688266353
 20
2205.931849413154
 30
0.0
 11
811.333977444187
 21
2205.931849413154
 31
0.0
  0
LINE
  5
1B64
330
1B61
100
AcDbEntity
  8
0
100
AcDbLine
 10
9.517633068790587
 20
2460.512900233457
 30
0.0
 11
1005.962014168445
 21
2460.512900233457
 31
0.0
  0
LINE
  5
1B65
330
1B61
100
AcDbEntity
  8
0
100
AcDbLine
 10
9.517633068790587
 20
2465.976435106803
 30
0.0
 11
1005.962014168445
 21
2465.976435106803
 31
0.0
  0
LINE
  5
1B66
330
1B61
100
AcDbEntity
  8
0
100
AcDbLine
 10
9.517633068790587
 20
2547.929429573207
 30
0.0
 11
906.1808894564752
 21
2547.929429573207
 31
0.0
  0
LINE
  5
1B67
330
1B61
100
AcDbEntity
  8
0
100
AcDbLine
 10
9.517633068790587
 20
2553.392964446553
 30
0.0
 11
904.8140352804008
 21
2553.392964446553
 31
0.0
  0
LINE
  5
1B68
330
1B61
100
AcDbEntity
  8
0
100
AcDbLine
 10
9.517633068790587
 20
2642.175375715028
 30
0.0
 11
1005.962014168445
 21
2642.175375715028
 31
0.0
  0
LINE
  5
1B69
330
1B61
100
AcDbEntity
  8
0
100
AcDbLine
 10
9.517633068790587
 20
2647.638910588375
 30
0.0
 11
1005.962014168445
 21
2647.638910588375
 31
0.0
  0
TEXT
  5
1B6A
330
1B61
100
AcDbEntity
  8
TESTO
100
AcDbText
 10
3.577902246096186
 20
2212.430373973663
 30
0.0
 40
50.0
  1
Larghezza 120 mm
  7
ROMANC
100
AcDbText
  0
TEXT
  5
1B6B
330
1B61
100
AcDbEntity
  8
TESTO
100
AcDbText
 10
4.111153626620421
 20
2474.936639681692
 30
0.0
 40
50.0
  1
Lunghezza nastro 3000 mm
  7
ROMANC
100
AcDbText
  0
TEXT
  5
1B6C
330
1B61
100
AcDbEntity
  8
TESTO
100
AcDbText
 10
4.111153626620421
 20
2653.231999048045
 30
0.0
 40
80.0
  1
ETICAP SYSTEM
  7
ROMANC
100
AcDbText
  0
LINE
  5
1B6D
330
1B61
100
AcDbEntity
  8
0
100
AcDbLine
 10
9.517633068790587
 20
2282.94807053806
 30
0.0
 11
699.7843217762516
 21
2282.94807053806
 31
0.0
  0
LINE
  5
1B6E
330
1B61
100
AcDbEntity
  8
0
100
AcDbLine
 10
9.517633068790587
 20
2288.411605411407
 30
0.0
 11
697.0505897361477
 21
2288.411605411407
 31
0.0
  0
LINE
  5
1B6F
330
1B61
100
AcDbEntity
  8
0
100
AcDbLine
 10
9.517633068790587
 20
2375.828134751158
 30
0.0
 11
624.6067617372597
 21
2375.828134751158
 31
0.0
  0
LINE
  5
1B70
330
1B61
100
AcDbEntity
  8
0
100
AcDbLine
 10
9.517633068790587
 20
2381.291669624504
 30
0.0
 11
624.6067617372597
 21
2381.291669624504
 31
0.0
  0
TEXT
  5
1B71
330
1B61
100
AcDbEntity
  8
TESTO
100
AcDbText
 10
4.111153626620421
 20
2299.37304417279
 30
0.0
 40
50.0
  1
Altezza 100 mm
  7
ROMANC
100
AcDbText
  0
TEXT
  5
1B72
330
1B61
100
AcDbEntity
  8
TESTO
100
AcDbText
 10
4.111153626620421
 20
2391.252487713415
 30
0.0
 40
50.0
  1
Sezione nastro
  7
ROMANC
100
AcDbText
  0
TEXT
  5
1B73
330
1B61
100
AcDbEntity
  8
TESTO
100
AcDbText
 10
4.111153626620421
 20
2562.718430277697
 30
0.0
 40
50.0
  1
Modello PF3 8T 3S
  7
ROMANC
100
AcDbText
  0
LINE
  5
1B74
330
1B61
100
AcDbEntity
  8
0
100
AcDbLine
 10
1025.35933703001
 20
2203.713732537221
 30
0.0
 11
1025.35933703001
 21
2351.328626705513
 31
0.0
  0
LINE
  5
1B75
330
1B61
100
AcDbEntity
  8
0
100
AcDbLine
 10
1052.03656499247
 20
2203.713732537221
 30
0.0
 11
1052.03656499247
 21
2350.498368466878
 31
0.0
  0
LINE
  5
1B76
330
1B61
100
AcDbEntity
  8
0
100
AcDbLine
 10
1005.962014168445
 20
2460.512900233457
 30
0.0
 11
1194.589347275949
 21
2460.512900233457
 31
0.0
  0
LINE
  5
1B77
330
1B61
100
AcDbEntity
  8
0
100
AcDbLine
 10
1005.962014168445
 20
2465.976435106803
 30
0.0
 11
1193.222481255896
 21
2465.976435106803
 31
0.0
  0
LINE
  5
1B78
330
1B61
100
AcDbEntity
  8
0
100
AcDbLine
 10
1107.292668637281
 20
2389.362043898607
 30
0.0
 11
1025.225560406705
 21
2389.362043898607
 31
0.0
  0
LINE
  5
1B79
330
1B61
100
AcDbEntity
  8
0
100
AcDbLine
 10
1106.400979648839
 20
2414.570103832518
 30
0.0
 11
1025.225560406705
 21
2414.570103832518
 31
0.0
  0
SOLID
  5
1B7A
330
1B61
100
AcDbEntity
  8
0
100
AcDbTrace
 10
1025.320497272429
 20
2389.469138317292
 30
0.0
 11
1025.320497272429
 21
2389.469138317292
 31
0.0
 12
1025.320497272429
 22
2414.469138317292
 32
0.0
 13
1050.481718947223
 23
2414.469138317292
 33
0.0
  0
SOLID
  5
1B7B
330
1B61
100
AcDbEntity
  8
0
100
AcDbTrace
 10
1050.481718947223
 20
2414.469138317292
 30
0.0
 11
1050.481718947223
 21
2389.469138317292
 31
0.0
 12
1025.320497272429
 22
2389.469138317292
 32
0.0
 13
1025.320497272429
 23
2389.469138317292
 33
0.0
  0
LINE
  5
1B7C
330
1B61
100
AcDbEntity
  8
0
100
AcDbLine
 10
1025.35933703001
 20
2351.328626705513
 30
0.0
 11
1025.35933703001
 21
2389.339375480788
 31
0.0
  0
LINE
  5
1B7D
330
1B61
100
AcDbEntity
  8
0
100
AcDbLine
 10
1052.03656499247
 20
2350.498368466878
 30
0.0
 11
1052.03656499247
 21
2389.339375480788
 31
0.0
  0
INSERT
  5
1B7E
330
1B61
100
AcDbEntity
  8
0
100
AcDbBlockReference
  2
A$C6
 10
-0.1515411039903256
 20
1.509458292156921
 30
0.0
  0
ENDBLK
  5
1B80
330
1B61
100
AcDbEntity
  8
0
100
AcDbBlockEnd
  0
BLOCK
  5
1E36
330
1DE9
100
AcDbEntity
  8
0
100
AcDbBlockBegin
  2
A$C5
 70
     0
 10
0.0
 20
0.0
 30
0.0
  3
A$C5
  1

  0
LINE
  5
1DEA
330
1DE9
100
AcDbEntity
  8
0
100
AcDbLine
 10
291.1954423348333
 20
1975.310469814822
 30
0.0
 11
2078.622456858288
 21
1975.310469814822
 31
0.0
  0
LINE
  5
1DEB
330
1DE9
100
AcDbEntity
  8
0
100
AcDbLine
 10
291.1954423348333
 20
1935.223277330572
 30
0.0
 11
2078.622456858288
 21
1935.223277330572
 31
0.0
  0
LINE
  5
1DEC
330
1DE9
100
AcDbEntity
  8
0
100
AcDbLine
 10
291.1954423348333
 20
1971.359761527773
 30
0.0
 11
2078.622456858288
 21
1971.359761527773
 31
0.0
  0
LINE
  5
1DED
330
1DE9
100
AcDbEntity
  8
0
100
AcDbLine
 10
291.1954423348333
 20
1939.50321615138
 30
0.0
 11
2078.622456858288
 21
1939.50321615138
 31
0.0
  0
LINE
  5
1DEE
330
1DE9
100
AcDbEntity
  8
0
 48
10.0
100
AcDbLine
 10
291.0513539230314
 20
1975.341633014789
 30
0.0
 11
0.9437066064356258
 21
1975.341633014789
 31
0.0
  0
LINE
  5
1DEF
330
1DE9
100
AcDbEntity
  8
0
 48
10.0
100
AcDbLine
 10
5.204109248873464
 20
1971.341633014789
 30
0.0
 11
287.3704499103559
 21
1971.341633014789
 31
0.0
  0
LINE
  5
1DF0
330
1DE9
100
AcDbEntity
  8
0
100
AcDbLine
 10
150.0533529506219
 20
1971.341633014789
 30
0.0
 11
151.0533529506219
 21
1971.341633014789
 31
0.0
  0
LINE
  5
1DF1
330
1DE9
100
AcDbEntity
  8
0
 48
10.0
100
AcDbLine
 10
291.1533529506241
 20
1935.341633014789
 30
0.0
 11
291.1533529506241
 21
1975.341633014789
 31
0.0
  0
LINE
  5
1DF2
330
1DE9
100
AcDbEntity
  8
0
 48
10.0
100
AcDbLine
 10
287.1533529506241
 20
1939.341633014789
 30
0.0
 11
251.1533529506241
 21
1939.341633014789
 31
0.0
  0
LINE
  5
1DF3
330
1DE9
100
AcDbEntity
  8
0
 48
10.0
100
AcDbLine
 10
291.1533529506241
 20
1935.341633014789
 30
0.0
 11
251.1533529506241
 21
1935.341633014789
 31
0.0
  0
LINE
  5
1DF4
330
1DE9
100
AcDbEntity
  8
0
 48
10.0
100
AcDbLine
 10
287.1533529506241
 20
1939.341633014789
 30
0.0
 11
287.1533529506241
 21
1971.341633014789
 31
0.0
  0
LINE
  5
1DF5
330
1DE9
100
AcDbEntity
  8
0
 48
10.0
100
AcDbLine
 10
251.1533529506241
 20
1935.341633014789
 30
0.0
 11
251.1533529506241
 21
1939.341633014789
 31
0.0
  0
LINE
  5
1DF6
330
1DE9
100
AcDbEntity
  8
0
 48
10.0
100
AcDbLine
 10
2364.405921768761
 20
1971.341633014789
 30
0.0
 11
2082.289847130564
 21
1971.341633014789
 31
0.0
  0
LINE
  5
1DF7
330
1DE9
100
AcDbEntity
  8
0
 48
10.0
100
AcDbLine
 10
2078.608943117885
 20
1975.341633014789
 30
0.0
 11
2368.601411227683
 21
1975.341633014789
 31
0.0
  0
LINE
  5
1DF8
330
1DE9
100
AcDbEntity
  8
0
 48
10.0
100
AcDbLine
 10
2078.506944090296
 20
1935.341633014789
 30
0.0
 11
2078.506944090296
 21
1975.341633014789
 31
0.0
  0
LINE
  5
1DF9
330
1DE9
100
AcDbEntity
  8
0
100
AcDbLine
 10
2219.606944090298
 20
1971.341633014789
 30
0.0
 11
2218.606944090294
 21
1971.341633014789
 31
0.0
  0
LINE
  5
1DFA
330
1DE9
100
AcDbEntity
  8
0
 48
10.0
100
AcDbLine
 10
2078.506944090296
 20
1935.341633014789
 30
0.0
 11
2118.506944090296
 21
1935.341633014789
 31
0.0
  0
LINE
  5
1DFB
330
1DE9
100
AcDbEntity
  8
0
 48
10.0
100
AcDbLine
 10
2082.506944090296
 20
1939.341633014789
 30
0.0
 11
2118.506944090296
 21
1939.341633014789
 31
0.0
  0
LINE
  5
1DFC
330
1DE9
100
AcDbEntity
  8
0
 48
10.0
100
AcDbLine
 10
2118.506944090296
 20
1935.341633014789
 30
0.0
 11
2118.506944090296
 21
1939.341633014789
 31
0.0
  0
LINE
  5
1DFD
330
1DE9
100
AcDbEntity
  8
0
 48
10.0
100
AcDbLine
 10
2082.506944090296
 20
1939.341633014789
 30
0.0
 11
2082.506944090296
 21
1971.341633014789
 31
0.0
  0
LINE
  5
1DFE
330
1DE9
100
AcDbEntity
  8
0
 48
10.0
100
AcDbLine
 10
2364.606944090298
 20
290.2347897517565
 30
0.0
 11
2364.606944090298
 21
8.113650645206689
 31
0.0
  0
LINE
  5
1DFF
330
1DE9
100
AcDbEntity
  8
0
 48
10.0
100
AcDbLine
 10
2368.606944090298
 20
293.8060534971727
 30
0.0
 11
2368.606944090298
 21
4.21840896316462
 31
0.0
  0
LINE
  5
1E00
330
1DE9
100
AcDbEntity
  8
0
 48
10.0
100
AcDbLine
 10
2368.606944090298
 20
1685.649230162823
 30
0.0
 11
2368.606944090298
 21
1975.232551456187
 31
0.0
  0
LINE
  5
1E01
330
1DE9
100
AcDbEntity
  8
0
 48
10.0
100
AcDbLine
 10
2364.606944090298
 20
1689.220493908239
 30
0.0
 11
2364.606944090298
 21
1971.614989802814
 31
0.0
  0
LINE
  5
1E02
330
1DE9
100
AcDbEntity
  8
0
100
AcDbLine
 10
2368.55187973159
 20
1684.695248698816
 30
0.0
 11
2368.55187973159
 21
294.1221742560583
 31
0.0
  0
LINE
  5
1E03
330
1DE9
100
AcDbEntity
  8
0
100
AcDbLine
 10
2328.558589036512
 20
1685.802198568793
 30
0.0
 11
2328.558589036512
 21
292.0904331359361
 31
0.0
  0
LINE
  5
1E04
330
1DE9
100
AcDbEntity
  8
0
100
AcDbLine
 10
2332.400839326089
 20
1684.14177376383
 30
0.0
 11
2332.400839326089
 21
294.1698923612221
 31
0.0
  0
LINE
  5
1E05
330
1DE9
100
AcDbEntity
  8
0
100
AcDbLine
 10
2364.709629442012
 20
1684.695248698816
 30
0.0
 11
2364.709629442012
 21
294.1221742560583
 31
0.0
  0
LINE
  5
1E06
330
1DE9
100
AcDbEntity
  8
0
 48
10.0
100
AcDbLine
 10
2328.606944090295
 20
254.213650645207
 30
0.0
 11
2332.606944090295
 21
254.213650645207
 31
0.0
  0
LINE
  5
1E07
330
1DE9
100
AcDbEntity
  8
0
 48
10.0
100
AcDbLine
 10
2332.606944090295
 20
254.213650645207
 30
0.0
 11
2332.606944090295
 21
290.213650645207
 31
0.0
  0
LINE
  5
1E08
330
1DE9
100
AcDbEntity
  8
0
 48
10.0
100
AcDbLine
 10
2328.606944090295
 20
254.213650645207
 30
0.0
 11
2328.606944090295
 21
294.213650645207
 31
0.0
  0
LINE
  5
1E09
330
1DE9
100
AcDbEntity
  8
0
 48
10.0
100
AcDbLine
 10
2332.606944090295
 20
290.213650645207
 30
0.0
 11
2364.606944090298
 21
290.213650645207
 31
0.0
  0
LINE
  5
1E0A
330
1DE9
100
AcDbEntity
  8
0
 48
10.0
100
AcDbLine
 10
2328.606944090295
 20
294.213650645207
 30
0.0
 11
2368.606944090298
 21
294.213650645207
 31
0.0
  0
LINE
  5
1E0B
330
1DE9
100
AcDbEntity
  8
0
 48
10.0
100
AcDbLine
 10
2328.606944090295
 20
1725.241633014789
 30
0.0
 11
2332.606944090295
 21
1725.241633014789
 31
0.0
  0
LINE
  5
1E0C
330
1DE9
100
AcDbEntity
  8
0
 48
10.0
100
AcDbLine
 10
2328.606944090295
 20
1725.241633014789
 30
0.0
 11
2328.606944090295
 21
1685.241633014789
 31
0.0
  0
LINE
  5
1E0D
330
1DE9
100
AcDbEntity
  8
0
 48
10.0
100
AcDbLine
 10
2332.606944090295
 20
1725.241633014789
 30
0.0
 11
2332.606944090295
 21
1689.241633014789
 31
0.0
  0
LINE
  5
1E0E
330
1DE9
100
AcDbEntity
  8
0
 48
10.0
100
AcDbLine
 10
2328.606944090295
 20
1685.241633014789
 30
0.0
 11
2368.606944090298
 21
1685.241633014789
 31
0.0
  0
LINE
  5
1E0F
330
1DE9
100
AcDbEntity
  8
0
 48
10.0
100
AcDbLine
 10
2332.606944090295
 20
1689.241633014789
 30
0.0
 11
2364.606944090298
 21
1689.241633014789
 31
0.0
  0
LINE
  5
1E10
330
1DE9
100
AcDbEntity
  8
ASSE
100
AcDbLine
 10
2564.423250322773
 20
297.3188773530919
 30
0.0
 11
1546.422424957492
 21
297.3188773530919
 31
0.0
  0
LINE
  5
1E11
330
1DE9
100
AcDbEntity
  8
0
100
AcDbLine
 10
2485.803099419995
 20
237.318877353091
 30
0.0
 11
2761.51244029744
 21
237.318877353091
 31
0.0
  0
LINE
  5
1E12
330
1DE9
100
AcDbEntity
  8
0
100
AcDbLine
 10
2672.053306225047
 20
478.0076852222891
 30
0.0
 11
2672.053306225047
 21
358.0076852222891
 31
0.0
  0
LINE
  5
1E13
330
1DE9
100
AcDbEntity
  8
ASSE
100
AcDbLine
 10
2564.423250322773
 20
297.3188773530919
 30
0.0
 11
2756.546337011627
 21
297.3188773530919
 31
0.0
  0
LINE
  5
1E14
330
1DE9
100
AcDbEntity
  8
0
100
AcDbLine
 10
1878.252052381148
 20
184.870989431296
 30
0.0
 11
1878.252052381148
 21
4.828938189531982
 31
0.0
  0
LINE
  5
1E15
330
1DE9
100
AcDbEntity
  8
0
 48
10.0
100
AcDbLine
 10
2078.608943117885
 20
4.113650645206689
 30
0.0
 11
2368.412925508245
 21
4.113650645206689
 31
0.0
  0
LINE
  5
1E16
330
1DE9
100
AcDbEntity
  8
0
 48
10.0
100
AcDbLine
 10
2364.765081663384
 20
8.113650645206689
 30
0.0
 11
2082.289847130564
 21
8.113650645206689
 31
0.0
  0
LINE
  5
1E17
330
1DE9
100
AcDbEntity
  8
0
100
AcDbLine
 10
2363.693561021305
 20
184.870989431296
 30
0.0
 11
1878.252052381148
 21
184.870989431296
 31
0.0
  0
LINE
  5
1E18
330
1DE9
100
AcDbEntity
  8
0
100
AcDbLine
 10
290.9183368477069
 20
4.110009427017757
 30
0.0
 11
2077.604470954041
 21
4.110009427017757
 31
0.0
  0
LINE
  5
1E19
330
1DE9
100
AcDbEntity
  8
0
100
AcDbLine
 10
291.0695243346535
 20
44.13056539883564
 30
0.0
 11
1877.971579441758
 21
44.13056539883564
 31
0.0
  0
LINE
  5
1E1A
330
1DE9
100
AcDbEntity
  8
0
100
AcDbLine
 10
291.1583365828892
 20
8.124440020683323
 30
0.0
 11
2077.604470954041
 21
8.124440020683323
 31
0.0
  0
LINE
  5
1E1B
330
1DE9
100
AcDbEntity
  8
0
100
AcDbLine
 10
291.1524587097055
 20
40.12344107615717
 30
0.0
 11
1877.971579441758
 21
40.12344107615717
 31
0.0
  0
LINE
  5
1E1C
330
1DE9
100
AcDbEntity
  8
0
 48
10.0
100
AcDbLine
 10
5.193541065943463
 20
8.113650645206689
 30
0.0
 11
287.1666970598062
 21
8.113650645206689
 31
0.0
  0
LINE
  5
1E1D
330
1DE9
100
AcDbEntity
  8
0
 48
10.0
100
AcDbLine
 10
291.0513539230314
 20
4.113650645206689
 30
0.0
 11
1.053352950621956
 21
4.113650645206689
 31
0.0
  0
LINE
  5
1E1E
330
1DE9
100
AcDbEntity
  8
0
100
AcDbLine
 10
150.0533529506219
 20
8.113650645206689
 30
0.0
 11
151.0533529506219
 21
8.113650645206689
 31
0.0
  0
LINE
  5
1E1F
330
1DE9
100
AcDbEntity
  8
0
 48
10.0
100
AcDbLine
 10
251.1533529506241
 20
44.11365064520668
 30
0.0
 11
251.1533529506241
 21
40.11365064520669
 31
0.0
  0
LINE
  5
1E20
330
1DE9
100
AcDbEntity
  8
0
 48
10.0
100
AcDbLine
 10
291.1533529506241
 20
44.11365064520668
 30
0.0
 11
251.1533529506241
 21
44.11365064520668
 31
0.0
  0
LINE
  5
1E21
330
1DE9
100
AcDbEntity
  8
0
 48
10.0
100
AcDbLine
 10
287.1533529506241
 20
40.11365064520669
 30
0.0
 11
251.1533529506241
 21
40.11365064520669
 31
0.0
  0
LINE
  5
1E22
330
1DE9
100
AcDbEntity
  8
0
 48
10.0
100
AcDbLine
 10
291.1533529506241
 20
44.11365064520668
 30
0.0
 11
291.1533529506241
 21
4.113650645206689
 31
0.0
  0
LINE
  5
1E23
330
1DE9
100
AcDbEntity
  8
0
 48
10.0
100
AcDbLine
 10
287.1533529506241
 20
40.11365064520669
 30
0.0
 11
287.1533529506241
 21
8.113650645206689
 31
0.0
  0
LINE
  5
1E24
330
1DE9
100
AcDbEntity
  8
0
 48
10.0
100
AcDbLine
 10
1.053352950621956
 20
294.2206013498625
 30
0.0
 11
1.053352950621956
 21
4.293661063058607
 31
0.0
  0
LINE
  5
1E25
330
1DE9
100
AcDbEntity
  8
0
 48
10.0
100
AcDbLine
 10
5.053352950621956
 20
290.2347897517565
 30
0.0
 11
5.053352950621956
 21
8.309228697407888
 31
0.0
  0
LINE
  5
1E26
330
1DE9
100
AcDbEntity
  8
0
 48
10.0
100
AcDbLine
 10
5.053352950621956
 20
1689.220493908239
 30
0.0
 11
5.053352950621956
 21
1971.236672298344
 31
0.0
  0
LINE
  5
1E27
330
1DE9
100
AcDbEntity
  8
0
 48
10.0
100
AcDbLine
 10
1.053352950621956
 20
1685.649230162823
 30
0.0
 11
1.053352950621956
 21
1975.341633014789
 31
0.0
  0
LINE
  5
1E28
330
1DE9
100
AcDbEntity
  8
0
100
AcDbLine
 10
41.03965484094169
 20
294.1125349599042
 30
0.0
 11
41.03965484094169
 21
1682.999272243439
 31
0.0
  0
LINE
  5
1E29
330
1DE9
100
AcDbEntity
  8
0
100
AcDbLine
 10
1.018571736357444
 20
294.1125349599042
 30
0.0
 11
1.018571736357444
 21
1685.468343497602
 31
0.0
  0
LINE
  5
1E2A
330
1DE9
100
AcDbEntity
  8
0
100
AcDbLine
 10
5.011003027747392
 20
294.1125349599042
 30
0.0
 11
5.011003027747392
 21
1685.468343497602
 31
0.0
  0
LINE
  5
1E2B
330
1DE9
100
AcDbEntity
  8
0
100
AcDbLine
 10
37.04721012975005
 20
294.1125349599042
 30
0.0
 11
37.04721012975005
 21
1685.468343497602
 31
0.0
  0
LINE
  5
1E2C
330
1DE9
100
AcDbEntity
  8
0
 48
10.0
100
AcDbLine
 10
41.05335295062196
 20
294.213650645207
 30
0.0
 11
1.053352950621956
 21
294.213650645207
 31
0.0
  0
LINE
  5
1E2D
330
1DE9
100
AcDbEntity
  8
0
 48
10.0
100
AcDbLine
 10
37.05335295062195
 20
290.213650645207
 30
0.0
 11
5.053352950621956
 21
290.213650645207
 31
0.0
  0
LINE
  5
1E2E
330
1DE9
100
AcDbEntity
  8
0
 48
10.0
100
AcDbLine
 10
41.05335295062196
 20
254.213650645207
 30
0.0
 11
37.05335295062195
 21
254.213650645207
 31
0.0
  0
LINE
  5
1E2F
330
1DE9
100
AcDbEntity
  8
0
 48
10.0
100
AcDbLine
 10
41.05335295062196
 20
254.213650645207
 30
0.0
 11
41.05335295062196
 21
294.213650645207
 31
0.0
  0
LINE
  5
1E30
330
1DE9
100
AcDbEntity
  8
0
 48
10.0
100
AcDbLine
 10
37.05335295062195
 20
254.213650645207
 30
0.0
 11
37.05335295062195
 21
290.213650645207
 31
0.0
  0
LINE
  5
1E31
330
1DE9
100
AcDbEntity
  8
0
 48
10.0
100
AcDbLine
 10
41.05335295062196
 20
1725.241633014789
 30
0.0
 11
37.05335295062195
 21
1725.241633014789
 31
0.0
  0
LINE
  5
1E32
330
1DE9
100
AcDbEntity
  8
0
 48
10.0
100
AcDbLine
 10
37.05335295062195
 20
1689.241633014789
 30
0.0
 11
5.053352950621956
 21
1689.241633014789
 31
0.0
  0
LINE
  5
1E33
330
1DE9
100
AcDbEntity
  8
0
 48
10.0
100
AcDbLine
 10
41.05335295062196
 20
1685.241633014789
 30
0.0
 11
1.053352950621956
 21
1685.241633014789
 31
0.0
  0
LINE
  5
1E34
330
1DE9
100
AcDbEntity
  8
0
 48
10.0
100
AcDbLine
 10
37.05335295062195
 20
1725.241633014789
 30
0.0
 11
37.05335295062195
 21
1689.241633014789
 31
0.0
  0
LINE
  5
1E35
330
1DE9
100
AcDbEntity
  8
0
 48
10.0
100
AcDbLine
 10
41.05335295062196
 20
1725.241633014789
 30
0.0
 11
41.05335295062196
 21
1685.241633014789
 31
0.0
  0
ENDBLK
  5
1E37
330
1DE9
100
AcDbEntity
  8
0
100
AcDbBlockEnd
  0
BLOCK
  5
25AD
330
25A3
100
AcDbEntity
  8
0
100
AcDbBlockBegin
  2
*D9
 70
     1
 10
0.0
 20
0.0
 30
0.0
  3
*D9
  1

  0
LINE
  5
26EA
330
25A3
100
AcDbEntity
  8
QUOTA
 62
     0
100
AcDbLine
 10
1035.142809518883
 20
514.3947168867128
 30
0.0
 11
1035.142809518883
 21
393.4681148442578
 31
0.0
  0
LINE
  5
26EB
330
25A3
100
AcDbEntity
  8
QUOTA
 62
     0
100
AcDbLine
 10
3576.592711506985
 20
514.3194647868189
 30
0.0
 11
3576.592711506985
 21
393.4681148442578
 31
0.0
  0
LINE
  5
26EC
330
25A3
100
AcDbEntity
  8
QUOTA
 62
     0
100
AcDbLine
 10
1062.142809518883
 20
420.4681148442578
 30
0.0
 11
3549.592711506985
 21
420.4681148442578
 31
0.0
  0
SOLID
  5
26ED
330
25A3
100
AcDbEntity
  8
QUOTA
 62
     0
100
AcDbTrace
 10
1062.142809518883
 20
424.9681148442578
 30
0.0
 11
1062.142809518883
 21
415.9681148442578
 31
0.0
 12
1035.142809518883
 22
420.4681148442578
 32
0.0
 13
1035.142809518883
 23
420.4681148442578
 33
0.0
  0
SOLID
  5
26EE
330
25A3
100
AcDbEntity
  8
QUOTA
 62
     0
100
AcDbTrace
 10
3549.592711506985
 20
424.9681148442578
 30
0.0
 11
3549.592711506985
 21
415.9681148442578
 31
0.0
 12
3576.592711506985
 22
420.4681148442578
 32
0.0
 13
3576.592711506985
 23
420.4681148442578
 33
0.0
  0
MTEXT
  5
26EF
330
25A3
100
AcDbEntity
  8
QUOTA
 62
     0
100
AcDbMText
 10
2305.867760512934
 20
447.4681148442577
 30
0.0
 40
27.0
 41
0.0
 71
     5
 72
     1
  1
\A1;2600 mm
1001
ACAD
1000
MTEXTBEGIN
1070
    73
1070
     1
1070
    44
1040
1.0
1070
    74
1070
     0
1000
MTEXTEND
  0
POINT
  5
26F0
330
25A3
100
AcDbEntity
  8
DEFPOINTS
 62
     0
100
AcDbPoint
 10
1035.142809518883
 20
523.3947168867128
 30
0.0
  0
POINT
  5
26F1
330
25A3
100
AcDbEntity
  8
DEFPOINTS
 62
     0
100
AcDbPoint
 10
3576.592711506985
 20
523.3194647868189
 30
0.0
  0
POINT
  5
26F2
330
25A3
100
AcDbEntity
  8
DEFPOINTS
 62
     0
100
AcDbPoint
 10
3576.592711506985
 20
420.4681148442578
 30
0.0
  0
ENDBLK
  5
25AE
330
25A3
100
AcDbEntity
  8
0
100
AcDbBlockEnd
  0
BLOCK
  5
2648
330
263E
100
AcDbEntity
  8
0
100
AcDbBlockBegin
  2
*D10
 70
     1
 10
0.0
 20
0.0
 30
0.0
  3
*D10
  1

  0
LINE
  5
3050
330
263E
100
AcDbEntity
  8
QUOTA
 62
     0
100
AcDbLine
 10
746.4731883005733
 20
833.3064437974183
 30
0.0
 11
746.4731883005733
 21
272.0990018665743
 31
0.0
  0
LINE
  5
3051
330
263E
100
AcDbEntity
  8
QUOTA
 62
     0
100
AcDbLine
 10
3746.473188300573
 20
833.3064437974183
 30
0.0
 11
3746.473188300573
 21
272.0990018665743
 31
0.0
  0
LINE
  5
3052
330
263E
100
AcDbEntity
  8
QUOTA
 62
     0
100
AcDbLine
 10
773.4731883005734
 20
299.0990018665743
 30
0.0
 11
3719.473188300574
 21
299.0990018665743
 31
0.0
  0
SOLID
  5
3053
330
263E
100
AcDbEntity
  8
QUOTA
 62
     0
100
AcDbTrace
 10
773.4731883005734
 20
303.5990018665743
 30
0.0
 11
773.4731883005734
 21
294.5990018665743
 31
0.0
 12
746.4731883005733
 22
299.0990018665743
 32
0.0
 13
746.4731883005733
 23
299.0990018665743
 33
0.0
  0
SOLID
  5
3054
330
263E
100
AcDbEntity
  8
QUOTA
 62
     0
100
AcDbTrace
 10
3719.473188300574
 20
303.5990018665743
 30
0.0
 11
3719.473188300574
 21
294.5990018665743
 31
0.0
 12
3746.473188300573
 22
299.0990018665743
 32
0.0
 13
3746.473188300573
 23
299.0990018665743
 33
0.0
  0
MTEXT
  5
3055
330
263E
100
AcDbEntity
  8
QUOTA
 62
     0
100
AcDbMText
 10
2246.473188300573
 20
326.0990018665743
 30
0.0
 40
27.0
 41
0.0
 71
     5
 72
     1
  1
\A1;3000 mm
1001
ACAD
1000
MTEXTBEGIN
1070
    73
1070
     1
1070
    44
1040
1.0
1070
    74
1070
     0
1000
MTEXTEND
  0
POINT
  5
3056
330
263E
100
AcDbEntity
  8
DEFPOINTS
 62
     0
100
AcDbPoint
 10
746.4731883005733
 20
842.3064437974185
 30
0.0
  0
POINT
  5
3057
330
263E
100
AcDbEntity
  8
DEFPOINTS
 62
     0
100
AcDbPoint
 10
3746.473188300573
 20
842.3064437974185
 30
0.0
  0
POINT
  5
3058
330
263E
100
AcDbEntity
  8
DEFPOINTS
 62
     0
100
AcDbPoint
 10
3746.473188300573
 20
299.0990018665743
 30
0.0
  0
ENDBLK
  5
2649
330
263E
100
AcDbEntity
  8
0
100
AcDbBlockEnd
  0
BLOCK
  5
2679
330
266F
100
AcDbEntity
  8
0
100
AcDbBlockBegin
  2
*D11
 70
     1
 10
0.0
 20
0.0
 30
0.0
  3
*D11
  1

  0
LINE
  5
26FC
330
266F
100
AcDbEntity
  8
QUOTA
 62
     0
100
AcDbLine
 10
1026.142809518883
 20
523.214706468861
 30
0.0
 11
632.963586368141
 21
523.2147064688611
 31
0.0
  0
LINE
  5
26FD
330
266F
100
AcDbEntity
  8
QUOTA
 62
     0
100
AcDbLine
 10
1026.142809518883
 20
2809.611569900822
 30
0.0
 11
632.9635863681414
 21
2809.611569900823
 31
0.0
  0
LINE
  5
26FE
330
266F
100
AcDbEntity
  8
QUOTA
 62
     0
100
AcDbLine
 10
659.963586368141
 20
550.214706468861
 30
0.0
 11
659.9635863681414
 21
2782.611569900822
 31
0.0
  0
SOLID
  5
26FF
330
266F
100
AcDbEntity
  8
QUOTA
 62
     0
100
AcDbTrace
 10
655.463586368141
 20
550.214706468861
 30
0.0
 11
664.463586368141
 21
550.214706468861
 31
0.0
 12
659.963586368141
 22
523.2147064688611
 32
0.0
 13
659.963586368141
 23
523.2147064688611
 33
0.0
  0
SOLID
  5
2700
330
266F
100
AcDbEntity
  8
QUOTA
 62
     0
100
AcDbTrace
 10
655.4635863681414
 20
2782.611569900822
 30
0.0
 11
664.4635863681415
 21
2782.611569900822
 31
0.0
 12
659.9635863681414
 22
2809.611569900823
 32
0.0
 13
659.9635863681414
 23
2809.611569900823
 33
0.0
  0
MTEXT
  5
2701
330
266F
100
AcDbEntity
  8
QUOTA
 62
     0
100
AcDbMText
 10
632.963586368141
 20
1666.413138184842
 30
0.0
 40
27.0
 41
0.0
 71
     5
 72
     1
  1
\A1;2290 mm
 11
0.0000000000000001
 21
1.0
 31
0.0
1001
ACAD
1000
MTEXTBEGIN
1070
    73
1070
     1
1070
    44
1040
1.0
1070
    74
1070
     0
1000
MTEXTEND
  0
POINT
  5
2702
330
266F
100
AcDbEntity
  8
DEFPOINTS
 62
     0
100
AcDbPoint
 10
1035.142809518883
 20
523.214706468861
 30
0.0
  0
POINT
  5
2703
330
266F
100
AcDbEntity
  8
DEFPOINTS
 62
     0
100
AcDbPoint
 10
1035.142809518883
 20
2809.611569900822
 30
0.0
  0
POINT
  5
2704
330
266F
100
AcDbEntity
  8
DEFPOINTS
 62
     0
100
AcDbPoint
 10
659.9635863681414
 20
2809.611569900823
 30
0.0
  0
ENDBLK
  5
267A
330
266F
100
AcDbEntity
  8
0
100
AcDbBlockEnd
  0
BLOCK
  5
275E
330
2706
100
AcDbEntity
  8
0
100
AcDbBlockBegin
  2
*X12
 70
     1
 10
0.0
 20
0.0
 30
0.0
  3
*X12
  1

  0
LINE
  5
2707
330
2706
100
AcDbEntity
  8
0
 62
     0
100
AcDbLine
 10
2712.260624128366
 20
1999.496988692327
 30
0.0
 11
2712.461612631596
 21
1999.697977195557
 31
0.0
  0
LINE
  5
2708
330
2706
100
AcDbEntity
  8
0
 62
     0
100
AcDbLine
 10
2715.290039756343
 20
2002.526404320303
 30
0.0
 11
2723.775321130581
 21
2011.011685694542
 31
0.0
  0
LINE
  5
2709
330
2706
100
AcDbEntity
  8
0
 62
     0
100
AcDbLine
 10
2726.603748255327
 20
2013.840112819288
 30
0.0
 11
2731.635890503998
 21
2018.872255067959
 31
0.0
  0
LINE
  5
270A
330
2706
100
AcDbEntity
  8
0
 62
     0
100
AcDbLine
 10
2731.635890504
 20
2018.87225506796
 30
0.0
 11
2735.089029629566
 21
2022.325394193525
 31
0.0
  0
LINE
  5
270B
330
2706
100
AcDbEntity
  8
0
 62
     0
100
AcDbLine
 10
2706.603769878874
 20
1999.496988692327
 30
0.0
 11
2712.461612631596
 21
2005.354831445049
 31
0.0
  0
LINE
  5
270C
330
2706
100
AcDbEntity
  8
0
 62
     0
100
AcDbLine
 10
2715.290039756343
 20
2008.183258569795
 30
0.0
 11
2723.775321130581
 21
2016.668539944034
 31
0.0
  0
LINE
  5
270D
330
2706
100
AcDbEntity
  8
0
 62
     0
100
AcDbLine
 10
2726.603748255327
 20
2019.49696706878
 30
0.0
 11
2729.795766271061
 21
2022.688985084513
 31
0.0
  0
LINE
  5
270E
330
2706
100
AcDbEntity
  8
0
 62
     0
100
AcDbLine
 10
2700.946915629382
 20
1999.496988692327
 30
0.0
 11
2701.147904132612
 21
1999.697977195556
 31
0.0
  0
LINE
  5
270F
330
2706
100
AcDbEntity
  8
0
 62
     0
100
AcDbLine
 10
2703.976331257358
 20
2002.526404320303
 30
0.0
 11
2712.461612631597
 21
2011.011685694541
 31
0.0
  0
LINE
  5
2710
330
2706
100
AcDbEntity
  8
0
 62
     0
100
AcDbLine
 10
2715.290039756343
 20
2013.840112819287
 30
0.0
 11
2723.775321130581
 21
2022.325394193526
 31
0.0
  0
LINE
  5
2711
330
2706
100
AcDbEntity
  8
0
 62
     0
100
AcDbLine
 10
2695.29006137989
 20
1999.496988692327
 30
0.0
 11
2701.147904132611
 21
2005.354831445049
 31
0.0
  0
LINE
  5
2712
330
2706
100
AcDbEntity
  8
0
 62
     0
100
AcDbLine
 10
2703.976331257357
 20
2008.183258569795
 30
0.0
 11
2712.461612631596
 21
2016.668539944034
 31
0.0
  0
LINE
  5
2713
330
2706
100
AcDbEntity
  8
0
 62
     0
100
AcDbLine
 10
2715.290039756343
 20
2019.49696706878
 30
0.0
 11
2718.482057772076
 21
2022.688985084513
 31
0.0
  0
LINE
  5
2714
330
2706
100
AcDbEntity
  8
0
 62
     0
100
AcDbLine
 10
2692.662622758373
 20
2002.526404320302
 30
0.0
 11
2701.147904132611
 21
2011.011685694541
 31
0.0
  0
LINE
  5
2715
330
2706
100
AcDbEntity
  8
0
 62
     0
100
AcDbLine
 10
2703.976331257357
 20
2013.840112819287
 30
0.0
 11
2712.461612631596
 21
2022.325394193526
 31
0.0
  0
LINE
  5
2716
330
2706
100
AcDbEntity
  8
0
 62
     0
100
AcDbLine
 10
2687.122353954997
 20
2002.642989766418
 30
0.0
 11
2689.834195633627
 21
2005.354831445048
 31
0.0
  0
LINE
  5
2717
330
2706
100
AcDbEntity
  8
0
 62
     0
100
AcDbLine
 10
2692.662622758373
 20
2008.183258569795
 30
0.0
 11
2701.147904132612
 21
2016.668539944033
 31
0.0
  0
LINE
  5
2718
330
2706
100
AcDbEntity
  8
0
 62
     0
100
AcDbLine
 10
2703.976331257358
 20
2019.496967068779
 30
0.0
 11
2707.168349273092
 21
2022.688985084513
 31
0.0
  0
LINE
  5
2719
330
2706
100
AcDbEntity
  8
0
 62
     0
100
AcDbLine
 10
2686.765918101504
 20
2007.943408162419
 30
0.0
 11
2689.834195633627
 21
2011.011685694541
 31
0.0
  0
LINE
  5
271A
330
2706
100
AcDbEntity
  8
0
 62
     0
100
AcDbLine
 10
2692.662622758373
 20
2013.840112819287
 30
0.0
 11
2701.147904132612
 21
2022.325394193526
 31
0.0
  0
LINE
  5
271B
330
2706
100
AcDbEntity
  8
0
 62
     0
100
AcDbLine
 10
2686.765918101504
 20
2013.600262411911
 30
0.0
 11
2689.834195633627
 21
2016.668539944034
 31
0.0
  0
LINE
  5
271C
330
2706
100
AcDbEntity
  8
0
 62
     0
100
AcDbLine
 10
2692.662622758373
 20
2019.49696706878
 30
0.0
 11
2695.854640774106
 21
2022.688985084514
 31
0.0
  0
LINE
  5
271D
330
2706
100
AcDbEntity
  8
0
 62
     0
100
AcDbLine
 10
2686.765918101505
 20
2019.257116661404
 30
0.0
 11
2689.834195633627
 21
2022.325394193525
 31
0.0
  0
LINE
  5
271E
330
2706
100
AcDbEntity
  8
0
 62
     0
100
AcDbLine
 10
2717.917478377859
 20
1999.496988692327
 30
0.0
 11
2723.775321130581
 21
2005.354831445049
 31
0.0
  0
LINE
  5
271F
330
2706
100
AcDbEntity
  8
0
 62
     0
100
AcDbLine
 10
2726.603748255327
 20
2008.183258569795
 30
0.0
 11
2731.635890503998
 21
2013.215400818467
 31
0.0
  0
LINE
  5
2720
330
2706
100
AcDbEntity
  8
0
 62
     0
100
AcDbLine
 10
2731.635890504
 20
2013.215400818467
 30
0.0
 11
2735.089029629566
 21
2016.668539944033
 31
0.0
  0
LINE
  5
2721
330
2706
100
AcDbEntity
  8
0
 62
     0
100
AcDbLine
 10
2737.917456754312
 20
2019.496967068779
 30
0.0
 11
2741.109474770046
 21
2022.688985084513
 31
0.0
  0
LINE
  5
2722
330
2706
100
AcDbEntity
  8
0
 62
     0
100
AcDbLine
 10
2723.574332627351
 20
1999.496988692327
 30
0.0
 11
2723.775321130581
 21
1999.697977195557
 31
0.0
  0
LINE
  5
2723
330
2706
100
AcDbEntity
  8
0
 62
     0
100
AcDbLine
 10
2726.603748255327
 20
2002.526404320303
 30
0.0
 11
2731.635890503998
 21
2007.558546568974
 31
0.0
  0
LINE
  5
2724
330
2706
100
AcDbEntity
  8
0
 62
     0
100
AcDbLine
 10
2731.635890504
 20
2007.558546568974
 30
0.0
 11
2735.089029629566
 21
2011.011685694541
 31
0.0
  0
LINE
  5
2725
330
2706
100
AcDbEntity
  8
0
 62
     0
100
AcDbLine
 10
2737.917456754312
 20
2013.840112819287
 30
0.0
 11
2746.402738128551
 21
2022.325394193526
 31
0.0
  0
LINE
  5
2726
330
2706
100
AcDbEntity
  8
0
 62
     0
100
AcDbLine
 10
2729.231186876844
 20
1999.496988692327
 30
0.0
 11
2731.635890503999
 21
2001.901692319482
 31
0.0
  0
LINE
  5
2727
330
2706
100
AcDbEntity
  8
0
 62
     0
100
AcDbLine
 10
2731.635890504
 20
2001.901692319482
 30
0.0
 11
2735.089029629566
 21
2005.354831445048
 31
0.0
  0
LINE
  5
2728
330
2706
100
AcDbEntity
  8
0
 62
     0
100
AcDbLine
 10
2737.917456754312
 20
2008.183258569795
 30
0.0
 11
2746.402738128551
 21
2016.668539944033
 31
0.0
  0
LINE
  5
2729
330
2706
100
AcDbEntity
  8
0
 62
     0
100
AcDbLine
 10
2749.231165253297
 20
2019.49696706878
 30
0.0
 11
2752.42318326903
 21
2022.688985084513
 31
0.0
  0
LINE
  5
272A
330
2706
100
AcDbEntity
  8
0
 62
     0
100
AcDbLine
 10
2734.888041126336
 20
1999.496988692327
 30
0.0
 11
2735.089029629566
 21
1999.697977195556
 31
0.0
  0
LINE
  5
272B
330
2706
100
AcDbEntity
  8
0
 62
     0
100
AcDbLine
 10
2737.917456754312
 20
2002.526404320303
 30
0.0
 11
2746.402738128551
 21
2011.011685694541
 31
0.0
  0
LINE
  5
272C
330
2706
100
AcDbEntity
  8
0
 62
     0
100
AcDbLine
 10
2749.231165253297
 20
2013.840112819287
 30
0.0
 11
2757.716446627536
 21
2022.325394193526
 31
0.0
  0
LINE
  5
272D
330
2706
100
AcDbEntity
  8
0
 62
     0
100
AcDbLine
 10
2740.544895375829
 20
1999.496988692327
 30
0.0
 11
2746.402738128551
 21
2005.354831445049
 31
0.0
  0
LINE
  5
272E
330
2706
100
AcDbEntity
  8
0
 62
     0
100
AcDbLine
 10
2749.231165253297
 20
2008.183258569795
 30
0.0
 11
2757.716446627536
 21
2016.668539944034
 31
0.0
  0
LINE
  5
272F
330
2706
100
AcDbEntity
  8
0
 62
     0
100
AcDbLine
 10
2760.544873752282
 20
2019.49696706878
 30
0.0
 11
2763.736891768015
 21
2022.688985084513
 31
0.0
  0
LINE
  5
2730
330
2706
100
AcDbEntity
  8
0
 62
     0
100
AcDbLine
 10
2746.201749625321
 20
1999.496988692327
 30
0.0
 11
2746.402738128551
 21
1999.697977195556
 31
0.0
  0
LINE
  5
2731
330
2706
100
AcDbEntity
  8
0
 62
     0
100
AcDbLine
 10
2749.231165253297
 20
2002.526404320303
 30
0.0
 11
2757.716446627536
 21
2011.011685694541
 31
0.0
  0
LINE
  5
2732
330
2706
100
AcDbEntity
  8
0
 62
     0
100
AcDbLine
 10
2760.544873752282
 20
2013.840112819287
 30
0.0
 11
2761.021022527084
 21
2014.316261594089
 31
0.0
  0
LINE
  5
2733
330
2706
100
AcDbEntity
  8
0
 62
     0
100
AcDbLine
 10
2751.858603874814
 20
1999.496988692327
 30
0.0
 11
2755.915954095707
 21
2003.554338913219
 31
0.0
  0
LINE
  5
2734
330
2706
100
AcDbEntity
  8
0
 62
     0
100
AcDbLine
 10
2735.290018133303
 20
1999.496988692327
 30
0.0
 11
2732.260602505074
 21
2002.526404320557
 31
0.0
  0
LINE
  5
2735
330
2706
100
AcDbEntity
  8
0
 62
     0
100
AcDbLine
 10
2729.432175380328
 20
2005.354831445303
 30
0.0
 11
2720.946894006089
 21
2013.840112819541
 31
0.0
  0
LINE
  5
2736
330
2706
100
AcDbEntity
  8
0
 62
     0
100
AcDbLine
 10
2718.118466881342
 20
2016.668539944288
 30
0.0
 11
2712.098021741117
 21
2022.688985084514
 31
0.0
  0
LINE
  5
2737
330
2706
100
AcDbEntity
  8
0
 62
     0
100
AcDbLine
 10
2740.745883879313
 20
1999.697977195808
 30
0.0
 11
2732.260602505074
 21
2008.183258570047
 31
0.0
  0
LINE
  5
2738
330
2706
100
AcDbEntity
  8
0
 62
     0
100
AcDbLine
 10
2729.432175380328
 20
2011.011685694794
 30
0.0
 11
2720.946894006089
 21
2019.496967069033
 31
0.0
  0
LINE
  5
2739
330
2706
100
AcDbEntity
  8
0
 62
     0
100
AcDbLine
 10
2718.118466881342
 20
2022.325394193779
 30
0.0
 11
2717.754875990608
 21
2022.688985084514
 31
0.0
  0
LINE
  5
273A
330
2706
100
AcDbEntity
  8
0
 62
     0
100
AcDbLine
 10
2746.603726632286
 20
1999.496988692327
 30
0.0
 11
2743.574311004058
 21
2002.526404320555
 31
0.0
  0
LINE
  5
273B
330
2706
100
AcDbEntity
  8
0
 62
     0
100
AcDbLine
 10
2740.745883879312
 20
2005.354831445302
 30
0.0
 11
2732.260602505073
 21
2013.84011281954
 31
0.0
  0
LINE
  5
273C
330
2706
100
AcDbEntity
  8
0
 62
     0
100
AcDbLine
 10
2729.432175380328
 20
2016.668539944287
 30
0.0
 11
2723.4117302401
 21
2022.688985084514
 31
0.0
  0
LINE
  5
273D
330
2706
100
AcDbEntity
  8
0
 62
     0
100
AcDbLine
 10
2752.059592378297
 20
1999.697977195809
 30
0.0
 11
2743.574311004058
 21
2008.183258570047
 31
0.0
  0
LINE
  5
273E
330
2706
100
AcDbEntity
  8
0
 62
     0
100
AcDbLine
 10
2740.745883879312
 20
2011.011685694794
 30
0.0
 11
2732.260602505073
 21
2019.496967069032
 31
0.0
  0
LINE
  5
273F
330
2706
100
AcDbEntity
  8
0
 62
     0
100
AcDbLine
 10
2729.432175380328
 20
2022.325394193779
 30
0.0
 11
2729.068584489593
 21
2022.688985084514
 31
0.0
  0
LINE
  5
2740
330
2706
100
AcDbEntity
  8
0
 62
     0
100
AcDbLine
 10
2755.311322949602
 20
2002.103100873998
 30
0.0
 11
2754.888019503043
 21
2002.526404320556
 31
0.0
  0
LINE
  5
2741
330
2706
100
AcDbEntity
  8
0
 62
     0
100
AcDbLine
 10
2752.059592378297
 20
2005.354831445302
 30
0.0
 11
2743.574311004058
 21
2013.840112819541
 31
0.0
  0
LINE
  5
2742
330
2706
100
AcDbEntity
  8
0
 62
     0
100
AcDbLine
 10
2740.745883879312
 20
2016.668539944287
 30
0.0
 11
2734.725438739086
 21
2022.688985084513
 31
0.0
  0
LINE
  5
2743
330
2706
100
AcDbEntity
  8
0
 62
     0
100
AcDbLine
 10
2757.007208710489
 20
2006.064069362602
 30
0.0
 11
2754.888019503043
 21
2008.183258570048
 31
0.0
  0
LINE
  5
2744
330
2706
100
AcDbEntity
  8
0
 62
     0
100
AcDbLine
 10
2752.059592378297
 20
2011.011685694794
 30
0.0
 11
2743.574311004058
 21
2019.496967069033
 31
0.0
  0
LINE
  5
2745
330
2706
100
AcDbEntity
  8
0
 62
     0
100
AcDbLine
 10
2740.745883879312
 20
2022.325394193779
 30
0.0
 11
2740.382292988578
 21
2022.688985084513
 31
0.0
  0
LINE
  5
2746
330
2706
100
AcDbEntity
  8
0
 62
     0
100
AcDbLine
 10
2758.80233202017
 20
2009.925800302414
 30
0.0
 11
2754.888019503043
 21
2013.840112819541
 31
0.0
  0
LINE
  5
2747
330
2706
100
AcDbEntity
  8
0
 62
     0
100
AcDbLine
 10
2752.059592378297
 20
2016.668539944287
 30
0.0
 11
2746.039147238071
 21
2022.688985084513
 31
0.0
  0
LINE
  5
2748
330
2706
100
AcDbEntity
  8
0
 62
     0
100
AcDbLine
 10
2760.693435000926
 20
2013.691551571151
 30
0.0
 11
2754.888019503043
 21
2019.496967069033
 31
0.0
  0
LINE
  5
2749
330
2706
100
AcDbEntity
  8
0
 62
     0
100
AcDbLine
 10
2752.059592378298
 20
2022.325394193779
 30
0.0
 11
2751.696001487563
 21
2022.688985084514
 31
0.0
  0
LINE
  5
274A
330
2706
100
AcDbEntity
  8
0
 62
     0
100
AcDbLine
 10
2762.677684738563
 20
2017.364156083006
 30
0.0
 11
2757.352855737055
 21
2022.688985084513
 31
0.0
  0
LINE
  5
274B
330
2706
100
AcDbEntity
  8
0
 62
     0
100
AcDbLine
 10
2763.373300877282
 20
2022.325394193779
 30
0.0
 11
2763.009709986548
 21
2022.688985084514
 31
0.0
  0
LINE
  5
274C
330
2706
100
AcDbEntity
  8
0
 62
     0
100
AcDbLine
 10
2729.432175380328
 20
1999.69797719581
 30
0.0
 11
2720.946894006089
 21
2008.183258570049
 31
0.0
  0
LINE
  5
274D
330
2706
100
AcDbEntity
  8
0
 62
     0
100
AcDbLine
 10
2718.118466881342
 20
2011.011685694795
 30
0.0
 11
2709.633185507104
 21
2019.496967069033
 31
0.0
  0
LINE
  5
274E
330
2706
100
AcDbEntity
  8
0
 62
     0
100
AcDbLine
 10
2706.804758382358
 20
2022.32539419378
 30
0.0
 11
2706.441167491624
 21
2022.688985084513
 31
0.0
  0
LINE
  5
274F
330
2706
100
AcDbEntity
  8
0
 62
     0
100
AcDbLine
 10
2723.976309634318
 20
1999.496988692327
 30
0.0
 11
2720.946894006089
 21
2002.526404320556
 31
0.0
  0
LINE
  5
2750
330
2706
100
AcDbEntity
  8
0
 62
     0
100
AcDbLine
 10
2718.118466881342
 20
2005.354831445302
 30
0.0
 11
2709.633185507104
 21
2013.840112819541
 31
0.0
  0
LINE
  5
2751
330
2706
100
AcDbEntity
  8
0
 62
     0
100
AcDbLine
 10
2706.804758382358
 20
2016.668539944287
 30
0.0
 11
2700.784313242132
 21
2022.688985084514
 31
0.0
  0
LINE
  5
2752
330
2706
100
AcDbEntity
  8
0
 62
     0
100
AcDbLine
 10
2718.118466881342
 20
1999.69797719581
 30
0.0
 11
2709.633185507104
 21
2008.183258570049
 31
0.0
  0
LINE
  5
2753
330
2706
100
AcDbEntity
  8
0
 62
     0
100
AcDbLine
 10
2706.804758382358
 20
2011.011685694795
 30
0.0
 11
2698.319477008119
 21
2019.496967069033
 31
0.0
  0
LINE
  5
2754
330
2706
100
AcDbEntity
  8
0
 62
     0
100
AcDbLine
 10
2695.491049883373
 20
2022.32539419378
 30
0.0
 11
2695.127458992639
 21
2022.688985084514
 31
0.0
  0
LINE
  5
2755
330
2706
100
AcDbEntity
  8
0
 62
     0
100
AcDbLine
 10
2712.662601135333
 20
1999.496988692327
 30
0.0
 11
2709.633185507104
 21
2002.526404320556
 31
0.0
  0
LINE
  5
2756
330
2706
100
AcDbEntity
  8
0
 62
     0
100
AcDbLine
 10
2706.804758382358
 20
2005.354831445302
 30
0.0
 11
2698.319477008119
 21
2013.840112819541
 31
0.0
  0
LINE
  5
2757
330
2706
100
AcDbEntity
  8
0
 62
     0
100
AcDbLine
 10
2695.491049883373
 20
2016.668539944287
 30
0.0
 11
2689.470604743147
 21
2022.688985084513
 31
0.0
  0
LINE
  5
2758
330
2706
100
AcDbEntity
  8
0
 62
     0
100
AcDbLine
 10
2706.804758382358
 20
1999.69797719581
 30
0.0
 11
2698.319477008119
 21
2008.183258570049
 31
0.0
  0
LINE
  5
2759
330
2706
100
AcDbEntity
  8
0
 62
     0
100
AcDbLine
 10
2695.491049883373
 20
2011.011685694795
 30
0.0
 11
2687.005768509134
 21
2019.496967069033
 31
0.0
  0
LINE
  5
275A
330
2706
100
AcDbEntity
  8
0
 62
     0
100
AcDbLine
 10
2701.348892636349
 20
1999.496988692327
 30
0.0
 11
2698.319477008119
 21
2002.526404320556
 31
0.0
  0
LINE
  5
275B
330
2706
100
AcDbEntity
  8
0
 62
     0
100
AcDbLine
 10
2695.491049883373
 20
2005.354831445302
 30
0.0
 11
2687.005768509134
 21
2013.840112819541
 31
0.0
  0
LINE
  5
275C
330
2706
100
AcDbEntity
  8
0
 62
     0
100
AcDbLine
 10
2695.491049883373
 20
1999.69797719581
 30
0.0
 11
2687.005768509134
 21
2008.183258570049
 31
0.0
  0
LINE
  5
275D
330
2706
100
AcDbEntity
  8
0
 62
     0
100
AcDbLine
 10
2689.484204696917
 20
2000.047968132773
 30
0.0
 11
2687.316897541951
 21
2002.21527528774
 31
0.0
  0
ENDBLK
  5
275F
330
2706
100
AcDbEntity
  8
0
100
AcDbBlockEnd
  0
BLOCK
  5
27DF
330
2760
100
AcDbEntity
  8
0
100
AcDbBlockBegin
  2
*X13
 70
     1
 10
0.0
 20
0.0
 30
0.0
  3
*X13
  1

  0
LINE
  5
2761
330
2760
100
AcDbEntity
  8
0
 62
     0
100
AcDbLine
 10
106.3438484705329
 20
241.5884870300659
 30
0.0
 11
106.3438484705329
 21
241.5884870300659
 31
0.0
  0
LINE
  5
2762
330
2760
100
AcDbEntity
  8
0
 62
     0
100
AcDbLine
 10
110.2114460044527
 20
244.5561989964834
 30
0.0
 11
110.2114460044527
 21
244.5561989964834
 31
0.0
  0
LINE
  5
2763
330
2760
100
AcDbEntity
  8
0
 62
     0
100
AcDbLine
 10
98.49107512899085
 20
241.4883229328811
 30
0.0
 11
98.49107512899085
 21
241.4883229328811
 31
0.0
  0
LINE
  5
2764
330
2760
100
AcDbEntity
  8
0
 62
     0
100
AcDbLine
 10
102.1087663607188
 20
244.2642750491609
 30
0.0
 11
102.1087663607188
 21
244.2642750491609
 31
0.0
  0
LINE
  5
2765
330
2760
100
AcDbEntity
  8
0
 62
     0
100
AcDbLine
 10
106.1548683962041
 20
247.3689583371053
 30
0.0
 11
106.1548683962041
 21
247.3689583371053
 31
0.0
  0
LINE
  5
2766
330
2760
100
AcDbEntity
  8
0
 62
     0
100
AcDbLine
 10
98.30209505466202
 20
247.2687942399205
 30
0.0
 11
98.30209505466202
 21
247.2687942399205
 31
0.0
  0
LINE
  5
2767
330
2760
100
AcDbEntity
  8
0
 62
     0
100
AcDbLine
 10
101.91978628639
 20
250.0447463562003
 30
0.0
 11
101.91978628639
 21
250.0447463562003
 31
0.0
  0
LINE
  5
2768
330
2760
100
AcDbEntity
  8
0
 62
     0
100
AcDbLine
 10
124.9825678886562
 20
267.7414410974839
 30
0.0
 11
124.9825678886562
 21
267.7414410974839
 31
0.0
  0
LINE
  5
2769
330
2760
100
AcDbEntity
  8
0
 62
     0
100
AcDbLine
 10
94.24551744641341
 20
250.0815535805426
 30
0.0
 11
94.24551744641341
 21
250.0815535805426
 31
0.0
  0
LINE
  5
276A
330
2760
100
AcDbEntity
  8
0
 62
     0
100
AcDbLine
 10
98.11311498033319
 20
253.0492655469601
 30
0.0
 11
98.11311498033319
 21
253.0492655469601
 31
0.0
  0
LINE
  5
276B
330
2760
100
AcDbEntity
  8
0
 62
     0
100
AcDbLine
 10
117.3082990486795
 20
267.7782483218261
 30
0.0
 11
117.3082990486795
 21
267.7782483218261
 31
0.0
  0
LINE
  5
276C
330
2760
100
AcDbEntity
  8
0
 62
     0
100
AcDbLine
 10
121.1758965825993
 20
270.7459602882436
 30
0.0
 11
121.1758965825993
 21
270.7459602882436
 31
0.0
  0
LINE
  5
276D
330
2760
100
AcDbEntity
  8
0
 62
     0
100
AcDbLine
 10
94.0565373720846
 20
255.862024887582
 30
0.0
 11
94.0565373720846
 21
255.862024887582
 31
0.0
  0
LINE
  5
276E
330
2760
100
AcDbEntity
  8
0
 62
     0
100
AcDbLine
 10
97.92413490600438
 20
258.8297368539995
 30
0.0
 11
97.92413490600438
 21
258.8297368539995
 31
0.0
  0
LINE
  5
276F
330
2760
100
AcDbEntity
  8
0
 62
     0
100
AcDbLine
 10
101.5418261377324
 20
261.6056889702793
 30
0.0
 11
101.5418261377324
 21
261.6056889702793
 31
0.0
  0
LINE
  5
2770
330
2760
100
AcDbEntity
  8
0
 62
     0
100
AcDbLine
 10
109.4555257071374
 20
267.6780842246413
 30
0.0
 11
109.4555257071374
 21
267.6780842246413
 31
0.0
  0
LINE
  5
2771
330
2760
100
AcDbEntity
  8
0
 62
     0
100
AcDbLine
 10
113.0732169388654
 20
270.4540363409211
 30
0.0
 11
113.0732169388654
 21
270.4540363409211
 31
0.0
  0
LINE
  5
2772
330
2760
100
AcDbEntity
  8
0
 62
     0
100
AcDbLine
 10
117.1193189743507
 20
273.5587196288655
 30
0.0
 11
117.1193189743507
 21
273.5587196288655
 31
0.0
  0
LINE
  5
2773
330
2760
100
AcDbEntity
  8
0
 62
     0
100
AcDbLine
 10
93.86755729775577
 20
261.6424961946214
 30
0.0
 11
93.86755729775577
 21
261.6424961946214
 31
0.0
  0
LINE
  5
2774
330
2760
100
AcDbEntity
  8
0
 62
     0
100
AcDbLine
 10
97.73515483167555
 20
264.610208161039
 30
0.0
 11
97.73515483167555
 21
264.610208161039
 31
0.0
  0
LINE
  5
2775
330
2760
100
AcDbEntity
  8
0
 62
     0
100
AcDbLine
 10
101.3528460634035
 20
267.3861602773188
 30
0.0
 11
101.3528460634035
 21
267.3861602773188
 31
0.0
  0
LINE
  5
2776
330
2760
100
AcDbEntity
  8
0
 62
     0
100
AcDbLine
 10
105.3989480988888
 20
270.4908435652632
 30
0.0
 11
105.3989480988888
 21
270.4908435652632
 31
0.0
  0
LINE
  5
2777
330
2760
100
AcDbEntity
  8
0
 62
     0
100
AcDbLine
 10
109.2665456328086
 20
273.4585555316808
 30
0.0
 11
109.2665456328086
 21
273.4585555316808
 31
0.0
  0
LINE
  5
2778
330
2760
100
AcDbEntity
  8
0
 62
     0
100
AcDbLine
 10
112.8842368645367
 20
276.2345076479606
 30
0.0
 11
112.8842368645367
 21
276.2345076479606
 31
0.0
  0
LINE
  5
2779
330
2760
100
AcDbEntity
  8
0
 62
     0
100
AcDbLine
 10
97.54617475734669
 20
270.3906794680785
 30
0.0
 11
97.54617475734669
 21
270.3906794680785
 31
0.0
  0
LINE
  5
277A
330
2760
100
AcDbEntity
  8
0
 62
     0
100
AcDbLine
 10
101.1638659890747
 20
273.1666315843582
 30
0.0
 11
101.1638659890747
 21
273.1666315843582
 31
0.0
  0
LINE
  5
277B
330
2760
100
AcDbEntity
  8
0
 62
     0
100
AcDbLine
 10
110.4004260787815
 20
238.7757276894439
 30
0.0
 11
110.4004260787815
 21
238.7757276894439
 31
0.0
  0
LINE
  5
277C
330
2760
100
AcDbEntity
  8
0
 62
     0
100
AcDbLine
 10
114.0181173105095
 20
241.5516798057237
 30
0.0
 11
114.0181173105095
 21
241.5516798057237
 31
0.0
  0
LINE
  5
277D
330
2760
100
AcDbEntity
  8
0
 62
     0
100
AcDbLine
 10
118.0642193459948
 20
244.6563630936682
 30
0.0
 11
118.0642193459948
 21
244.6563630936682
 31
0.0
  0
LINE
  5
277E
330
2760
100
AcDbEntity
  8
0
 62
     0
100
AcDbLine
 10
118.2531994203237
 20
238.8758917866287
 30
0.0
 11
118.2531994203237
 21
238.8758917866287
 31
0.0
  0
LINE
  5
277F
330
2760
100
AcDbEntity
  8
0
 62
     0
100
AcDbLine
 10
122.1207969542435
 20
241.8436037530462
 30
0.0
 11
122.1207969542435
 21
241.8436037530462
 31
0.0
  0
LINE
  5
2780
330
2760
100
AcDbEntity
  8
0
 62
     0
100
AcDbLine
 10
125.7384881859715
 20
244.6195558693259
 30
0.0
 11
125.7384881859715
 21
244.6195558693259
 31
0.0
  0
LINE
  5
2781
330
2760
100
AcDbEntity
  8
0
 62
     0
100
AcDbLine
 10
91.9113680268915
 20
252.891361545675
 30
0.0
 11
91.9113680268915
 21
252.891361545675
 31
0.0
  0
LINE
  5
2782
330
2760
100
AcDbEntity
  8
0
 62
     0
100
AcDbLine
 10
94.35032238587108
 20
253.2124559785363
 30
0.0
 11
94.35032238587108
 21
253.2124559785363
 31
0.0
  0
LINE
  5
2783
330
2760
100
AcDbEntity
  8
0
 62
     0
100
AcDbLine
 10
98.42516076611744
 20
253.7489186285607
 30
0.0
 11
98.42516076611744
 21
253.7489186285607
 31
0.0
  0
LINE
  5
2784
330
2760
100
AcDbEntity
  8
0
 62
     0
100
AcDbLine
 10
99.98668642278119
 20
253.9544973813073
 30
0.0
 11
99.98668642278119
 21
253.9544973813073
 31
0.0
  0
LINE
  5
2785
330
2760
100
AcDbEntity
  8
0
 62
     0
100
AcDbLine
 10
91.58433410578458
 20
260.6157583385932
 30
0.0
 11
91.58433410578458
 21
260.6157583385932
 31
0.0
  0
LINE
  5
2786
330
2760
100
AcDbEntity
  8
0
 62
     0
100
AcDbLine
 10
95.65917248603094
 20
261.1522209886176
 30
0.0
 11
95.65917248603094
 21
261.1522209886176
 31
0.0
  0
LINE
  5
2787
330
2760
100
AcDbEntity
  8
0
 62
     0
100
AcDbLine
 10
97.22069814269469
 20
261.3577997413642
 30
0.0
 11
97.22069814269469
 21
261.3577997413642
 31
0.0
  0
LINE
  5
2788
330
2760
100
AcDbEntity
  8
0
 62
     0
100
AcDbLine
 10
99.65965250167426
 20
261.6788941742256
 30
0.0
 11
99.65965250167426
 21
261.6788941742256
 31
0.0
  0
LINE
  5
2789
330
2760
100
AcDbEntity
  8
0
 62
     0
100
AcDbLine
 10
96.8936642215878
 20
269.0821965342824
 30
0.0
 11
96.8936642215878
 21
269.0821965342824
 31
0.0
  0
LINE
  5
278A
330
2760
100
AcDbEntity
  8
0
 62
     0
100
AcDbLine
 10
100.9685026018341
 20
269.6186591843068
 30
0.0
 11
100.9685026018341
 21
269.6186591843068
 31
0.0
  0
LINE
  5
278B
330
2760
100
AcDbEntity
  8
0
 62
     0
100
AcDbLine
 10
102.5300282584979
 20
269.8242379370534
 30
0.0
 11
102.5300282584979
 21
269.8242379370534
 31
0.0
  0
LINE
  5
278C
330
2760
100
AcDbEntity
  8
0
 62
     0
100
AcDbLine
 10
104.9689826174774
 20
270.1453323699147
 30
0.0
 11
104.9689826174774
 21
270.1453323699147
 31
0.0
  0
LINE
  5
278D
330
2760
100
AcDbEntity
  8
0
 62
     0
100
AcDbLine
 10
109.0438209977238
 20
270.6817950199392
 30
0.0
 11
109.0438209977238
 21
270.6817950199392
 31
0.0
  0
LINE
  5
278E
330
2760
100
AcDbEntity
  8
0
 62
     0
100
AcDbLine
 10
110.6053466543875
 20
270.8873737726857
 30
0.0
 11
110.6053466543875
 21
270.8873737726857
 31
0.0
  0
LINE
  5
278F
330
2760
100
AcDbEntity
  8
0
 62
     0
100
AcDbLine
 10
113.0443010133671
 20
271.2084682055471
 30
0.0
 11
113.0443010133671
 21
271.2084682055471
 31
0.0
  0
LINE
  5
2790
330
2760
100
AcDbEntity
  8
0
 62
     0
100
AcDbLine
 10
117.1191393936135
 20
271.7449308555715
 30
0.0
 11
117.1191393936135
 21
271.7449308555715
 31
0.0
  0
LINE
  5
2791
330
2760
100
AcDbEntity
  8
0
 62
     0
100
AcDbLine
 10
118.6806650502772
 20
271.9505096083181
 30
0.0
 11
118.6806650502772
 21
271.9505096083181
 31
0.0
  0
LINE
  5
2792
330
2760
100
AcDbEntity
  8
0
 62
     0
100
AcDbLine
 10
121.1196194092568
 20
272.2716040411794
 30
0.0
 11
121.1196194092568
 21
272.2716040411794
 31
0.0
  0
LINE
  5
2793
330
2760
100
AcDbEntity
  8
0
 62
     0
100
AcDbLine
 10
94.67735630697802
 20
245.4880591856181
 30
0.0
 11
94.67735630697802
 21
245.4880591856181
 31
0.0
  0
LINE
  5
2794
330
2760
100
AcDbEntity
  8
0
 62
     0
100
AcDbLine
 10
97.1163106659576
 20
245.8091536184794
 30
0.0
 11
97.1163106659576
 21
245.8091536184794
 31
0.0
  0
LINE
  5
2795
330
2760
100
AcDbEntity
  8
0
 62
     0
100
AcDbLine
 10
101.1911490462039
 20
246.3456162685038
 30
0.0
 11
101.1911490462039
 21
246.3456162685038
 31
0.0
  0
LINE
  5
2796
330
2760
100
AcDbEntity
  8
0
 62
     0
100
AcDbLine
 10
102.7526747028677
 20
246.5511950212504
 30
0.0
 11
102.7526747028677
 21
246.5511950212504
 31
0.0
  0
LINE
  5
2797
330
2760
100
AcDbEntity
  8
0
 62
     0
100
AcDbLine
 10
105.1916290618472
 20
246.8722894541117
 30
0.0
 11
105.1916290618472
 21
246.8722894541117
 31
0.0
  0
LINE
  5
2798
330
2760
100
AcDbEntity
  8
0
 62
     0
100
AcDbLine
 10
103.9571373262904
 20
238.9423139084469
 30
0.0
 11
103.9571373262904
 21
238.9423139084469
 31
0.0
  0
LINE
  5
2799
330
2760
100
AcDbEntity
  8
0
 62
     0
100
AcDbLine
 10
105.5186629829541
 20
239.1478926611935
 30
0.0
 11
105.5186629829541
 21
239.1478926611935
 31
0.0
  0
LINE
  5
279A
330
2760
100
AcDbEntity
  8
0
 62
     0
100
AcDbLine
 10
107.9576173419337
 20
239.4689870940548
 30
0.0
 11
107.9576173419337
 21
239.4689870940548
 31
0.0
  0
LINE
  5
279B
330
2760
100
AcDbEntity
  8
0
 62
     0
100
AcDbLine
 10
112.0324557221801
 20
240.0054497440792
 30
0.0
 11
112.0324557221801
 21
240.0054497440792
 31
0.0
  0
LINE
  5
279C
330
2760
100
AcDbEntity
  8
0
 62
     0
100
AcDbLine
 10
113.5939813788438
 20
240.2110284968258
 30
0.0
 11
113.5939813788438
 21
240.2110284968258
 31
0.0
  0
LINE
  5
279D
330
2760
100
AcDbEntity
  8
0
 62
     0
100
AcDbLine
 10
116.0329357378234
 20
240.5321229296871
 30
0.0
 11
116.0329357378234
 21
240.5321229296871
 31
0.0
  0
LINE
  5
279E
330
2760
100
AcDbEntity
  8
0
 62
     0
100
AcDbLine
 10
120.1077741180698
 20
241.0685855797115
 30
0.0
 11
120.1077741180698
 21
241.0685855797115
 31
0.0
  0
LINE
  5
279F
330
2760
100
AcDbEntity
  8
0
 62
     0
100
AcDbLine
 10
121.6692997747335
 20
241.2741643324582
 30
0.0
 11
121.6692997747335
 21
241.2741643324582
 31
0.0
  0
LINE
  5
27A0
330
2760
100
AcDbEntity
  8
0
 62
     0
100
AcDbLine
 10
124.1082541337131
 20
241.5952587653194
 30
0.0
 11
124.1082541337131
 21
241.5952587653194
 31
0.0
  0
LINE
  5
27A1
330
2760
100
AcDbEntity
  8
0
 62
     0
100
AcDbLine
 10
97.19973585573924
 20
269.9766348934648
 30
0.0
 11
97.19973585573924
 21
269.9766348934648
 31
0.0
  0
LINE
  5
27A2
330
2760
100
AcDbEntity
  8
0
 62
     0
100
AcDbLine
 10
101.7540496631288
 20
267.0752170083919
 30
0.0
 11
101.7540496631288
 21
267.0752170083919
 31
0.0
  0
LINE
  5
27A3
330
2760
100
AcDbEntity
  8
0
 62
     0
100
AcDbLine
 10
105.2770742722744
 20
270.7995614665959
 30
0.0
 11
105.2770742722744
 21
270.7995614665959
 31
0.0
  0
LINE
  5
27A4
330
2760
100
AcDbEntity
  8
0
 62
     0
100
AcDbLine
 10
106.5421614409937
 20
269.9936120540757
 30
0.0
 11
106.5421614409937
 21
269.9936120540757
 31
0.0
  0
LINE
  5
27A5
330
2760
100
AcDbEntity
  8
0
 62
     0
100
AcDbLine
 10
111.0964752483833
 20
267.0921941690028
 30
0.0
 11
111.0964752483833
 21
267.0921941690028
 31
0.0
  0
LINE
  5
27A6
330
2760
100
AcDbEntity
  8
0
 62
     0
100
AcDbLine
 10
108.673590164548
 20
274.6045008660519
 30
0.0
 11
108.673590164548
 21
274.6045008660519
 31
0.0
  0
LINE
  5
27A7
330
2760
100
AcDbEntity
  8
0
 62
     0
100
AcDbLine
 10
114.6194998575288
 20
270.8165386272067
 30
0.0
 11
114.6194998575288
 21
270.8165386272067
 31
0.0
  0
LINE
  5
27A8
330
2760
100
AcDbEntity
  8
0
 62
     0
100
AcDbLine
 10
115.8845870262481
 20
270.0105892146865
 30
0.0
 11
115.8845870262481
 21
270.0105892146865
 31
0.0
  0
LINE
  5
27A9
330
2760
100
AcDbEntity
  8
0
 62
     0
100
AcDbLine
 10
120.4389008336377
 20
267.1091713296136
 30
0.0
 11
120.4389008336377
 21
267.1091713296136
 31
0.0
  0
LINE
  5
27AA
330
2760
100
AcDbEntity
  8
0
 62
     0
100
AcDbLine
 10
118.0160157498025
 20
274.6214780266628
 30
0.0
 11
118.0160157498025
 21
274.6214780266628
 31
0.0
  0
LINE
  5
27AB
330
2760
100
AcDbEntity
  8
0
 62
     0
100
AcDbLine
 10
123.9619254427833
 20
270.8335157878177
 30
0.0
 11
123.9619254427833
 21
270.8335157878177
 31
0.0
  0
LINE
  5
27AC
330
2760
100
AcDbEntity
  8
0
 62
     0
100
AcDbLine
 10
125.2270126115027
 20
270.0275663752974
 30
0.0
 11
125.2270126115027
 21
270.0275663752974
 31
0.0
  0
LINE
  5
27AD
330
2760
100
AcDbEntity
  8
0
 62
     0
100
AcDbLine
 10
98.35753377085531
 20
263.2702776089359
 30
0.0
 11
98.35753377085531
 21
263.2702776089359
 31
0.0
  0
LINE
  5
27AE
330
2760
100
AcDbEntity
  8
0
 62
     0
100
AcDbLine
 10
99.62262093957463
 20
262.4643281964157
 30
0.0
 11
99.62262093957463
 21
262.4643281964157
 31
0.0
  0
LINE
  5
27AF
330
2760
100
AcDbEntity
  8
0
 62
     0
100
AcDbLine
 10
94.83450916170964
 20
259.5459331507319
 30
0.0
 11
94.83450916170964
 21
259.5459331507319
 31
0.0
  0
LINE
  5
27B0
330
2760
100
AcDbEntity
  8
0
 62
     0
100
AcDbLine
 10
100.7804188546904
 20
255.7579709118868
 30
0.0
 11
100.7804188546904
 21
255.7579709118868
 31
0.0
  0
LINE
  5
27B1
330
2760
100
AcDbEntity
  8
0
 62
     0
100
AcDbLine
 10
118.3651304998891
 20
244.5552740778555
 30
0.0
 11
118.3651304998891
 21
244.5552740778555
 31
0.0
  0
LINE
  5
27B2
330
2760
100
AcDbEntity
  8
0
 62
     0
100
AcDbLine
 10
91.43799326943604
 20
255.7409937512759
 30
0.0
 11
91.43799326943604
 21
255.7409937512759
 31
0.0
  0
LINE
  5
27B3
330
2760
100
AcDbEntity
  8
0
 62
     0
100
AcDbLine
 10
92.70308043815537
 20
254.9350443387556
 30
0.0
 11
92.70308043815537
 21
254.9350443387556
 31
0.0
  0
LINE
  5
27B4
330
2760
100
AcDbEntity
  8
0
 62
     0
100
AcDbLine
 10
97.25739424554495
 20
252.0336264536828
 30
0.0
 11
97.25739424554495
 21
252.0336264536828
 31
0.0
  0
LINE
  5
27B5
330
2760
100
AcDbEntity
  8
0
 62
     0
100
AcDbLine
 10
103.2033039385257
 20
248.2456642148377
 30
0.0
 11
103.2033039385257
 21
248.2456642148377
 31
0.0
  0
LINE
  5
27B6
330
2760
100
AcDbEntity
  8
0
 62
     0
100
AcDbLine
 10
104.4683911072451
 20
247.4397148023175
 30
0.0
 11
104.4683911072451
 21
247.4397148023175
 31
0.0
  0
LINE
  5
27B7
330
2760
100
AcDbEntity
  8
0
 62
     0
100
AcDbLine
 10
109.0227049146347
 20
244.5382969172446
 30
0.0
 11
109.0227049146347
 21
244.5382969172446
 31
0.0
  0
LINE
  5
27B8
330
2760
100
AcDbEntity
  8
0
 62
     0
100
AcDbLine
 10
114.9686146076155
 20
240.7503346783995
 30
0.0
 11
114.9686146076155
 21
240.7503346783995
 31
0.0
  0
LINE
  5
27B9
330
2760
100
AcDbEntity
  8
0
 62
     0
100
AcDbLine
 10
116.2337017763348
 20
239.9443852658793
 30
0.0
 11
116.2337017763348
 21
239.9443852658793
 31
0.0
  0
LINE
  5
27BA
330
2760
100
AcDbEntity
  8
0
 62
     0
100
AcDbLine
 10
93.86087835327137
 20
248.2286870542269
 30
0.0
 11
93.86087835327137
 21
248.2286870542269
 31
0.0
  0
LINE
  5
27BB
330
2760
100
AcDbEntity
  8
0
 62
     0
100
AcDbLine
 10
95.12596552199068
 20
247.4227376417066
 30
0.0
 11
95.12596552199068
 21
247.4227376417066
 31
0.0
  0
LINE
  5
27BC
330
2760
100
AcDbEntity
  8
0
 62
     0
100
AcDbLine
 10
99.68027932938028
 20
244.5213197566338
 30
0.0
 11
99.68027932938028
 21
244.5213197566338
 31
0.0
  0
LINE
  5
27BD
330
2760
100
AcDbEntity
  8
0
 62
     0
100
AcDbLine
 10
105.6261890223611
 20
240.7333575177887
 30
0.0
 11
105.6261890223611
 21
240.7333575177887
 31
0.0
  0
LINE
  5
27BE
330
2760
100
AcDbEntity
  8
0
 62
     0
100
AcDbLine
 10
106.8912761910804
 20
239.9274081052684
 30
0.0
 11
106.8912761910804
 21
239.9274081052684
 31
0.0
  0
LINE
  5
27BF
330
2760
100
AcDbEntity
  8
0
 62
     0
100
AcDbLine
 10
111.44558999847
 20
237.0259902201956
 30
0.0
 11
111.44558999847
 21
237.0259902201956
 31
0.0
  0
LINE
  5
27C0
330
2760
100
AcDbEntity
  8
0
 62
     0
100
AcDbLine
 10
97.15195820477115
 20
267.191395536958
 30
0.0
 11
97.15195820477115
 21
267.191395536958
 31
0.0
  0
LINE
  5
27C1
330
2760
100
AcDbEntity
  8
0
 62
     0
100
AcDbLine
 10
97.70491620737875
 20
266.6847028812463
 30
0.0
 11
97.70491620737875
 21
266.6847028812463
 31
0.0
  0
LINE
  5
27C2
330
2760
100
AcDbEntity
  8
0
 62
     0
100
AcDbLine
 10
100.3148779796865
 20
264.2931135462868
 30
0.0
 11
100.3148779796865
 21
264.2931135462868
 31
0.0
  0
LINE
  5
27C3
330
2760
100
AcDbEntity
  8
0
 62
     0
100
AcDbLine
 10
121.7475301607569
 20
244.6537062108996
 30
0.0
 11
121.7475301607569
 21
244.6537062108996
 31
0.0
  0
LINE
  5
27C4
330
2760
100
AcDbEntity
  8
0
 62
     0
100
AcDbLine
 10
122.3004881633645
 20
244.1470135551879
 30
0.0
 11
122.3004881633645
 21
244.1470135551879
 31
0.0
  0
LINE
  5
27C5
330
2760
100
AcDbEntity
  8
0
 62
     0
100
AcDbLine
 10
103.184364804407
 20
272.5605625726042
 30
0.0
 11
103.184364804407
 21
272.5605625726042
 31
0.0
  0
LINE
  5
27C6
330
2760
100
AcDbEntity
  8
0
 62
     0
100
AcDbLine
 10
106.170338018488
 20
269.8244222317608
 30
0.0
 11
106.170338018488
 21
269.8244222317608
 31
0.0
  0
LINE
  5
27C7
330
2760
100
AcDbEntity
  8
0
 62
     0
100
AcDbLine
 10
106.7232960210956
 20
269.3177295760491
 30
0.0
 11
106.7232960210956
 21
269.3177295760491
 31
0.0
  0
LINE
  5
27C8
330
2760
100
AcDbEntity
  8
0
 62
     0
100
AcDbLine
 10
109.3332577934034
 20
266.9261402410896
 30
0.0
 11
109.3332577934034
 21
266.9261402410896
 31
0.0
  0
LINE
  5
27C9
330
2760
100
AcDbEntity
  8
0
 62
     0
100
AcDbLine
 10
112.2027446181239
 20
275.1935892674069
 30
0.0
 11
112.2027446181239
 21
275.1935892674069
 31
0.0
  0
LINE
  5
27CA
330
2760
100
AcDbEntity
  8
0
 62
     0
100
AcDbLine
 10
115.1887178322049
 20
272.4574489265636
 30
0.0
 11
115.1887178322049
 21
272.4574489265636
 31
0.0
  0
LINE
  5
27CB
330
2760
100
AcDbEntity
  8
0
 62
     0
100
AcDbLine
 10
115.7416758348125
 20
271.9507562708518
 30
0.0
 11
115.7416758348125
 21
271.9507562708518
 31
0.0
  0
LINE
  5
27CC
330
2760
100
AcDbEntity
  8
0
 62
     0
100
AcDbLine
 10
118.3516376071203
 20
269.5591669358924
 30
0.0
 11
118.3516376071203
 21
269.5591669358924
 31
0.0
  0
LINE
  5
27CD
330
2760
100
AcDbEntity
  8
0
 62
     0
100
AcDbLine
 10
121.3376108212013
 20
266.8230265950489
 30
0.0
 11
121.3376108212013
 21
266.8230265950489
 31
0.0
  0
LINE
  5
27CE
330
2760
100
AcDbEntity
  8
0
 62
     0
100
AcDbLine
 10
94.28247138005071
 20
258.9239465106406
 30
0.0
 11
94.28247138005071
 21
258.9239465106406
 31
0.0
  0
LINE
  5
27CF
330
2760
100
AcDbEntity
  8
0
 62
     0
100
AcDbLine
 10
94.83542938265831
 20
258.4172538549289
 30
0.0
 11
94.83542938265831
 21
258.4172538549289
 31
0.0
  0
LINE
  5
27D0
330
2760
100
AcDbEntity
  8
0
 62
     0
100
AcDbLine
 10
97.44539115496614
 20
256.0256645199694
 30
0.0
 11
97.44539115496614
 21
256.0256645199694
 31
0.0
  0
LINE
  5
27D1
330
2760
100
AcDbEntity
  8
0
 62
     0
100
AcDbLine
 10
100.4313643690471
 20
253.289524179126
 30
0.0
 11
100.4313643690471
 21
253.289524179126
 31
0.0
  0
LINE
  5
27D2
330
2760
100
AcDbEntity
  8
0
 62
     0
100
AcDbLine
 10
100.9843223716547
 20
252.7828315234143
 30
0.0
 11
100.9843223716547
 21
252.7828315234143
 31
0.0
  0
LINE
  5
27D3
330
2760
100
AcDbEntity
  8
0
 62
     0
100
AcDbLine
 10
106.5802573580435
 20
247.6551018476115
 30
0.0
 11
106.5802573580435
 21
247.6551018476115
 31
0.0
  0
LINE
  5
27D4
330
2760
100
AcDbEntity
  8
0
 62
     0
100
AcDbLine
 10
107.1332153606511
 20
247.1484091918998
 30
0.0
 11
107.1332153606511
 21
247.1484091918998
 31
0.0
  0
LINE
  5
27D5
330
2760
100
AcDbEntity
  8
0
 62
     0
100
AcDbLine
 10
109.743177132959
 20
244.7568198569403
 30
0.0
 11
109.743177132959
 21
244.7568198569403
 31
0.0
  0
LINE
  5
27D6
330
2760
100
AcDbEntity
  8
0
 62
     0
100
AcDbLine
 10
112.7291503470399
 20
242.0206795160969
 30
0.0
 11
112.7291503470399
 21
242.0206795160969
 31
0.0
  0
LINE
  5
27D7
330
2760
100
AcDbEntity
  8
0
 62
     0
100
AcDbLine
 10
113.2821083496475
 20
241.5139868603852
 30
0.0
 11
113.2821083496475
 21
241.5139868603852
 31
0.0
  0
LINE
  5
27D8
330
2760
100
AcDbEntity
  8
0
 62
     0
100
AcDbLine
 10
115.8920701219554
 20
239.1223975254257
 30
0.0
 11
115.8920701219554
 21
239.1223975254257
 31
0.0
  0
LINE
  5
27D9
330
2760
100
AcDbEntity
  8
0
 62
     0
100
AcDbLine
 10
94.57590433024572
 20
247.7582154936521
 30
0.0
 11
94.57590433024572
 21
247.7582154936521
 31
0.0
  0
LINE
  5
27DA
330
2760
100
AcDbEntity
  8
0
 62
     0
100
AcDbLine
 10
97.56187754432673
 20
245.0220751528087
 30
0.0
 11
97.56187754432673
 21
245.0220751528087
 31
0.0
  0
LINE
  5
27DB
330
2760
100
AcDbEntity
  8
0
 62
     0
100
AcDbLine
 10
98.11483554693431
 20
244.515382497097
 30
0.0
 11
98.11483554693431
 21
244.515382497097
 31
0.0
  0
LINE
  5
27DC
330
2760
100
AcDbEntity
  8
0
 62
     0
100
AcDbLine
 10
100.7247973192421
 20
242.1237931621376
 30
0.0
 11
100.7247973192421
 21
242.1237931621376
 31
0.0
  0
LINE
  5
27DD
330
2760
100
AcDbEntity
  8
0
 62
     0
100
AcDbLine
 10
103.7107705333231
 20
239.3876528212941
 30
0.0
 11
103.7107705333231
 21
239.3876528212941
 31
0.0
  0
LINE
  5
27DE
330
2760
100
AcDbEntity
  8
0
 62
     0
100
AcDbLine
 10
104.2637285359307
 20
238.8809601655824
 30
0.0
 11
104.2637285359307
 21
238.8809601655824
 31
0.0
  0
ENDBLK
  5
27E0
330
2760
100
AcDbEntity
  8
0
100
AcDbBlockEnd
  0
BLOCK
  5
28D1
330
27E1
100
AcDbEntity
  8
0
100
AcDbBlockBegin
  2
A$C66AF3990
 70
     0
 10
0.0
 20
0.0
 30
0.0
  3
A$C66AF3990
  1

  0
LINE
  5
27E2
330
27E1
100
AcDbEntity
  8
0
100
AcDbLine
 10
-282.4212521429776
 20
63.9800529329093
 30
0.0
 11
-322.0697262564613
 21
63.76858603510368
 31
0.0
  0
LINE
  5
27E3
330
27E1
100
AcDbEntity
  8
ASSE
100
AcDbLine
 10
-219.7083982122139
 20
-55.64186854091963
 30
0.0
 11
-404.4341798204527
 21
-56.62711170234775
 31
0.0
  0
ARC
  5
27E4
330
27E1
100
AcDbEntity
  8
0
100
AcDbCircle
 10
-302.6602455146555
 20
-56.86613349074173
 30
0.0
 40
90.0
100
AcDbArc
 50
43.06548357823177
 51
314.6691401962815
  0
LINE
  5
27E5
330
27E1
100
AcDbEntity
  8
0
100
AcDbLine
 10
-109.4132460409268
 20
-147.5040049130304
 30
0.0
 11
-509.4075568230932
 21
-149.6373923366879
 31
0.0
  0
LINE
  5
27E6
330
27E1
100
AcDbEntity
  8
0
100
AcDbLine
 10
-498.8072656478898
 20
50.42198943651897
 30
0.0
 11
-110.4799397527549
 21
52.49315047805271
 31
0.0
  0
CIRCLE
  5
27E7
330
27E1
100
AcDbEntity
  8
0
100
AcDbCircle
 10
-302.6602455146555
 20
-56.86613349074173
 30
0.0
 40
25.0
  0
LINE
  5
27E8
330
27E1
100
AcDbEntity
  8
ASSE
100
AcDbLine
 10
-242.0518118935988
 20
252.2350356404842
 30
0.0
 11
-373.0641823576929
 21
251.5362753432557
 31
0.0
  0
CIRCLE
  5
27E9
330
27E1
100
AcDbEntity
  8
0
100
AcDbCircle
 10
-302.930813968816
 20
251.8578996263343
 30
0.0
 40
44.0
  0
CIRCLE
  5
27EA
330
27E1
100
AcDbEntity
  8
0
100
AcDbCircle
 10
-302.930813968816
 20
251.8578996263343
 30
0.0
 40
34.0
  0
LINE
  5
27EB
330
27E1
100
AcDbEntity
  8
0
100
AcDbLine
 10
-106.7727488229836
 20
297.9827902001809
 30
0.0
 11
-516.7669173747044
 21
295.796068090932
 31
0.0
  0
LINE
  5
27EC
330
27E1
100
AcDbEntity
  8
ASSE
100
AcDbLine
 10
-87.0619998234231
 20
282.3889736869298
 30
0.0
 11
-604.216083914031
 21
279.6307094082842
 31
0.0
1001
ACAD
1000
ASC_BOUNDS
1002
{
1070
    19
1005
2845
1002
}
  0
LINE
  5
27ED
330
27E1
100
AcDbEntity
  8
0
100
AcDbLine
 10
-322.0697262564613
 20
63.76858603510368
 30
0.0
 11
-322.7965910764992
 21
200.050345971714
 31
0.0
  0
LINE
  5
27EE
330
27E1
100
AcDbEntity
  8
ASSE
100
AcDbLine
 10
-303.5151983580378
 20
301.9361271507652
 30
0.0
 11
-302.1626777998717
 21
48.34855909677958
 31
0.0
  0
LINE
  5
27EF
330
27E1
100
AcDbEntity
  8
0
100
AcDbLine
 10
-322.0053956890144
 20
51.7070820144811
 30
0.0
 11
-322.1019291918378
 21
69.80639745106987
 31
0.0
  0
CIRCLE
  5
27F0
330
27E1
100
AcDbEntity
  8
0
100
AcDbCircle
 10
-615.9362347702299
 20
126.3579162032731
 30
0.0
 40
140.0
1001
ACAD
1000
ASC_BOUNDS
1002
{
1070
    19
1005
2845
1002
}
  0
ARC
  5
27F1
330
27E1
100
AcDbEntity
  8
0
100
AcDbCircle
 10
-374.9119063370362
 20
81.2856587302274
 30
0.0
 40
25.113374100496
100
AcDbArc
 50
259.3439829561773
 51
349.3439829561735
  0
LINE
  5
27F2
330
27E1
100
AcDbEntity
  8
ASSE
100
AcDbLine
 10
-375.4507437756606
 20
112.6993274054377
 30
0.0
 11
-375.0787955816176
 21
42.9618011253608
 31
0.0
  0
CIRCLE
  5
27F3
330
27E1
100
AcDbEntity
  8
VITE
100
AcDbCircle
 10
-375.0884225527297
 20
81.06017174427393
 30
0.0
 40
17.0
  0
LWPOLYLINE
  5
27F4
330
27E1
100
AcDbEntity
  8
VITE
100
AcDbPolyline
 90
        6
 70
     1
 43
0.0
 10
-358.14101209613
 20
90.96565568746632
 10
-375.1931180560127
 20
100.6898016996485
 10
-392.1405285126134
 20
90.78431775645526
 10
-392.0358330093304
 20
71.15468780108153
 10
-374.9837270494463
 20
61.43054178889975
 10
-358.0363165928458
 20
71.33602573209259
  0
LINE
  5
27F5
330
27E1
100
AcDbEntity
  8
0
100
AcDbLine
 10
-379.5556771131548
 20
56.60536392464769
 30
0.0
 11
-485.4677919618902
 21
76.53347206298144
 31
0.0
  0
LINE
  5
27F6
330
27E1
100
AcDbEntity
  8
ASSE
100
AcDbLine
 10
-587.8693835125895
 20
275.9322058532086
 30
0.0
 11
-643.2722964879963
 21
-18.51820766689593
 31
0.0
  0
LINE
  5
27F7
330
27E1
100
AcDbEntity
  8
0
100
AcDbLine
 10
-334.2056642583234
 20
76.64236692132203
 30
0.0
 11
-334.0723275443447
 21
51.64272249743703
 31
0.0
  0
LINE
  5
27F8
330
27E1
100
AcDbEntity
  8
0
100
AcDbLine
 10
-350.0856842712146
 20
81.35497830667487
 30
0.0
 11
-349.9256802144405
 21
51.35540499801232
 31
0.0
  0
LINE
  5
27F9
330
27E1
100
AcDbEntity
  8
0
100
AcDbLine
 39
0.1234
 10
-379.2790235070496
 20
-280.8686753877234
 30
0.0
 11
-509.2313791407558
 21
-280.8686753877234
 31
0.0
  0
LINE
  5
27FA
330
27E1
100
AcDbEntity
  8
0
100
AcDbLine
 39
0.1234
 10
-379.2075684639949
 20
-280.8471694885564
 30
0.0
 11
-379.2075684639949
 21
-150.8163305005654
 31
0.0
  0
LINE
  5
27FB
330
27E1
100
AcDbEntity
  8
ASSE
100
AcDbLine
 10
-720.0126072154581
 20
42.15707969264872
 30
0.0
 11
-766.8851537852856
 21
0.3823522923460132
 31
0.0
  0
LINE
  5
27FC
330
27E1
100
AcDbEntity
  8
ASSE
100
AcDbLine
 10
-721.2923832606963
 20
-0.4449838000289219
 30
0.0
 11
-762.4805287292299
 21
45.76939955426337
 31
0.0
  0
CIRCLE
  5
27FD
330
27E1
100
AcDbEntity
  8
0
100
AcDbCircle
 10
-741.8879047469463
 20
22.65965111763148
 30
0.0
 40
14.5
  0
LINE
  5
27FE
330
27E1
100
AcDbEntity
  8
0
100
AcDbLine
 10
-751.6171081310849
 20
36.9043494547343
 30
0.0
 11
-753.5593407058868
 21
35.23469900467603
 31
0.0
  0
ARC
  5
27FF
330
27E1
100
AcDbEntity
  8
0
100
AcDbCircle
 10
-741.8834263015855
 20
22.65880846668892
 30
0.0
 40
17.0856665073389
100
AcDbArc
 50
131.7087292011559
 51
311.7087292011628
  0
CIRCLE
  5
2800
330
27E1
100
AcDbEntity
  8
0
100
AcDbCircle
 10
-741.8879047469463
 20
22.65965111763148
 30
0.0
 40
11.0
  0
CIRCLE
  5
2801
330
27E1
100
AcDbEntity
  8
0
100
AcDbCircle
 10
-741.8879047469463
 20
22.65965111763148
 30
0.0
 40
13.0
  0
LWPOLYLINE
  5
2802
330
27E1
100
AcDbEntity
  8
VITE
100
AcDbPolyline
 90
        6
 70
     1
 43
0.0
 10
-734.8013048875068
 20
25.14642322031909
 10
-740.4952781729892
 20
30.03641315461868
 10
-747.5771203230838
 20
27.55028260806943
 10
-748.9649891876954
 20
20.17416212722196
 10
-743.2710159022126
 20
15.28417219292282
 10
-736.189173752118
 20
17.77030273947207
  0
CIRCLE
  5
2803
330
27E1
100
AcDbEntity
  8
VITE
100
AcDbCircle
 10
-741.8831470376005
 20
22.66029267377029
 30
0.0
 40
6.5
  0
CIRCLE
  5
2804
330
27E1
100
AcDbEntity
  8
VITE
100
AcDbCircle
 10
-741.8831470376005
 20
22.66029267377029
 30
0.0
 40
6.5
  0
CIRCLE
  5
2805
330
27E1
100
AcDbEntity
  8
VITE
100
AcDbCircle
 10
-741.8831470376005
 20
22.66029267377029
 30
0.0
 40
5.75
  0
LINE
  5
2806
330
27E1
100
AcDbEntity
  8
ASSE
100
AcDbLine
 10
-734.512484286306
 20
21.27345071930017
 30
0.0
 11
-749.253809788895
 21
24.04713462824133
 31
0.0
  0
LINE
  5
2807
330
27E1
100
AcDbEntity
  8
ASSE
100
AcDbLine
 10
-743.2699889920718
 20
15.28962992247602
 30
0.0
 11
-740.4963050831299
 21
30.03095542506548
 31
0.0
  0
CIRCLE
  5
2808
330
27E1
100
AcDbEntity
  8
VITE
100
AcDbCircle
 10
-741.8831470376005
 20
22.66029267377029
 30
0.0
 40
4.978571428571428
  0
LINE
  5
2809
330
27E1
100
AcDbEntity
  8
0
100
AcDbLine
 10
-730.5351880869675
 20
10.09403432935801
 30
0.0
 11
-714.4340516262461
 21
26.8554535473238
 31
0.0
  0
LINE
  5
280A
330
27E1
100
AcDbEntity
  8
0
100
AcDbLine
 10
-732.1497444720864
 20
8.413267478643547
 30
0.0
 11
-731.4976717512852
 21
9.09208069537567
 31
0.0
  0
LINE
  5
280B
330
27E1
100
AcDbEntity
  8
0
100
AcDbLine
 10
-751.6171081310849
 20
36.9043494547343
 30
0.0
 11
-732.9344314254517
 21
49.66983382129024
 31
0.0
  0
LINE
  5
280C
330
27E1
100
AcDbEntity
  8
0
100
AcDbLine
 10
-509.6847557275546
 20
-150.0229873845153
 30
0.0
 11
-509.6847557275546
 21
-281.127234717909
 31
0.0
  0
CIRCLE
  5
280D
330
27E1
100
AcDbEntity
  8
0
100
AcDbCircle
 10
-463.430998225313
 20
34.4139850119966
 30
0.0
 40
14.5
  0
LINE
  5
280E
330
27E1
100
AcDbEntity
  8
ASSE
100
AcDbLine
 10
-456.5571281546353
 20
-130.3552419861623
 30
0.0
 11
-518.4612761957869
 21
-130.6854105094214
 31
0.0
  0
CIRCLE
  5
280F
330
27E1
100
AcDbEntity
  8
0
100
AcDbCircle
 10
-487.5092056326975
 20
-130.5203262662323
 30
0.0
 40
13.0
  0
CIRCLE
  5
2810
330
27E1
100
AcDbEntity
  8
0
100
AcDbCircle
 10
-487.5092056326975
 20
-130.5203262662323
 30
0.0
 40
14.5
  0
LINE
  5
2811
330
27E1
100
AcDbEntity
  8
ASSE
100
AcDbLine
 10
-432.4789207472512
 20
34.57906929206751
 30
0.0
 11
-494.3830687884029
 21
34.24890076880751
 31
0.0
  0
LINE
  5
2812
330
27E1
100
AcDbEntity
  8
0
100
AcDbLine
 10
-509.4075568230932
 20
-149.6373923366879
 30
0.0
 11
-509.4075568230932
 21
35.62828384928366
 31
0.0
  0
LINE
  5
2813
330
27E1
100
AcDbEntity
  8
ASSE
100
AcDbLine
 10
-487.4646557069857
 20
-138.0186850587804
 30
0.0
 11
-487.5446577353727
 21
-123.0188984044495
 31
0.0
  0
LINE
  5
2814
330
27E1
100
AcDbEntity
  8
ASSE
100
AcDbLine
 10
-487.6654785630039
 20
-101.2203114828928
 30
0.0
 11
-487.33060793704
 21
-164.0060688883265
 31
0.0
  0
LWPOLYLINE
  5
2815
330
27E1
100
AcDbEntity
  8
VITE
100
AcDbPolyline
 90
        6
 70
     1
 43
0.0
 10
-481.0247644877732
 20
-126.7314008121591
 10
-487.5446873547873
 20
-123.013344983972
 10
-494.0245795881933
 20
-126.8007359034279
 10
-493.9845489545851
 20
-134.3061826510713
 10
-487.4646260875708
 20
-138.0242384792579
 10
-480.9847338541649
 20
-134.236847559802
  0
CIRCLE
  5
2816
330
27E1
100
AcDbEntity
  8
VITE
100
AcDbCircle
 10
-487.5046567211788
 20
-130.518791731615
 30
0.0
 40
4.978571428571428
  0
CIRCLE
  5
2817
330
27E1
100
AcDbEntity
  8
VITE
100
AcDbCircle
 10
-487.5046567211788
 20
-130.518791731615
 30
0.0
 40
5.75
  0
CIRCLE
  5
2818
330
27E1
100
AcDbEntity
  8
VITE
100
AcDbCircle
 10
-487.5046567211788
 20
-130.518791731615
 30
0.0
 40
6.5
  0
CIRCLE
  5
2819
330
27E1
100
AcDbEntity
  8
VITE
100
AcDbCircle
 10
-487.5046567211788
 20
-130.518791731615
 30
0.0
 40
6.5
  0
CIRCLE
  5
281A
330
27E1
100
AcDbEntity
  8
0
100
AcDbCircle
 10
-487.5092056326975
 20
-130.5203262662323
 30
0.0
 40
11.0
  0
LINE
  5
281B
330
27E1
100
AcDbEntity
  8
ASSE
100
AcDbLine
 10
-480.0047633940137
 20
-130.4787907174211
 30
0.0
 11
-495.0045500483447
 21
-130.5587927458084
 31
0.0
  0
LINE
  5
281C
330
27E1
100
AcDbEntity
  8
ASSE
100
AcDbLine
 10
-303.0096915600547
 20
42.91191771362242
 30
0.0
 11
-301.9483125564006
 21
-156.0887693334223
 31
0.0
  0
CIRCLE
  5
281D
330
27E1
100
AcDbEntity
  8
0
100
AcDbCircle
 10
-302.6602455146555
 20
-56.86613349074173
 30
0.0
 40
15.0
  0
LINE
  5
281E
330
27E1
100
AcDbEntity
  8
0
100
AcDbLine
 10
-428.0270299743879
 20
-76.48571263516237
 30
0.0
 11
-428.113664721101
 21
-60.2423405138959
 31
0.0
  0
LINE
  5
281F
330
27E1
100
AcDbEntity
  8
0
100
AcDbLine
 10
-466.9824212082767
 20
-76.84471722060812
 30
0.0
 11
-467.0696443337167
 21
-60.4910284541827
 31
0.0
  0
LINE
  5
2820
330
27E1
100
AcDbEntity
  8
0
100
AcDbLine
 10
-410.7757222211957
 20
-45.10865856161558
 30
0.0
 11
-410.6080602069867
 21
-76.54404206214962
 31
0.0
  0
LINE
  5
2821
330
27E1
100
AcDbEntity
  8
0
100
AcDbLine
 10
-439.3963644506186
 20
-76.69758576156323
 30
0.0
 11
-439.0245197640506
 21
-146.4157051581039
 31
0.0
  0
LINE
  5
2822
330
27E1
100
AcDbEntity
  8
0
100
AcDbLine
 10
-419.0248042249423
 20
-146.3090357869211
 30
0.0
 11
-419.3966489115109
 21
-76.59091639037956
 31
0.0
  0
LINE
  5
2823
330
27E1
100
AcDbEntity
  8
0
100
AcDbLine
 10
-439.0245197640506
 20
-146.4157051581039
 30
0.0
 11
-419.0248042249423
 21
-146.3090357869211
 31
0.0
  0
LINE
  5
2824
330
27E1
100
AcDbEntity
  8
0
100
AcDbLine
 10
-410.6135888763837
 20
-76.54407154955356
 30
0.0
 11
-466.9824212082767
 21
-76.84471722060812
 31
0.0
  0
LINE
  5
2825
330
27E1
100
AcDbEntity
  8
0
100
AcDbLine
 10
-349.9256802144405
 20
51.35540499801232
 30
0.0
 11
-399.9249690622109
 21
51.08873157005541
 31
0.0
  0
LINE
  5
2826
330
27E1
100
AcDbEntity
  8
0
100
AcDbLine
 10
-419.5643109257189
 20
-45.15553288984643
 30
0.0
 11
-419.9743361064011
 21
31.72114582842709
 31
0.0
  0
LINE
  5
2827
330
27E1
100
AcDbEntity
  8
0
100
AcDbLine
 10
-439.9740516455092
 20
31.61447645724433
 30
0.0
 11
-439.5640264648275
 21
-45.26220226102828
 31
0.0
  0
LINE
  5
2828
330
27E1
100
AcDbEntity
  8
ASSE
100
AcDbLine
 10
-463.5872711556196
 20
63.71399979533612
 30
0.0
 11
-463.2524005296554
 21
0.9282423899023797
 31
0.0
  0
LINE
  5
2829
330
27E1
100
AcDbEntity
  8
0
100
AcDbLine
 10
-444.7978708578002
 20
-45.29011720257744
 30
0.0
 11
-418.3202421174096
 21
-45.14889759359698
 31
0.0
  0
LINE
  5
282A
330
27E1
100
AcDbEntity
  8
0
100
AcDbLine
 10
-428.113664721101
 20
-60.2423405138959
 30
0.0
 11
-467.0697594239368
 21
-60.45011457536088
 31
0.0
  0
LINE
  5
282B
330
27E1
100
AcDbEntity
  8
0
100
AcDbLine
 10
-444.8313000013733
 20
-45.30596688522814
 30
0.0
 11
-444.7511629073219
 21
-60.33107734948294
 31
0.0
  0
CIRCLE
  5
282C
330
27E1
100
AcDbEntity
  8
0
100
AcDbCircle
 10
-437.0455816670914
 20
-52.750676494152
 30
0.0
 40
5.306069902824674
  0
LINE
  5
282D
330
27E1
100
AcDbEntity
  8
0
100
AcDbLine
 10
-419.8753281277963
 20
-45.15719171390787
 30
0.0
 11
-410.7812508905927
 21
-45.10868804901906
 31
0.0
  0
LINE
  5
282E
330
27E1
100
AcDbEntity
  8
0
100
AcDbLine
 10
-419.9743361064011
 20
31.72114582842709
 30
0.0
 11
-439.9740516455092
 21
31.61447645724433
 31
0.0
  0
LINE
  5
282F
330
27E1
100
AcDbEntity
  8
ASSE
100
AcDbLine
 10
-463.3864482996012
 20
26.91562621944854
 30
0.0
 11
-463.4664503279882
 21
41.91541287378027
 31
0.0
  0
CIRCLE
  5
2830
330
27E1
100
AcDbEntity
  8
0
100
AcDbCircle
 10
-463.430998225313
 20
34.4139850119966
 30
0.0
 40
13.0
  0
CIRCLE
  5
2831
330
27E1
100
AcDbEntity
  8
0
100
AcDbCircle
 10
-463.430998225313
 20
34.4139850119966
 30
0.0
 40
11.0
  0
CIRCLE
  5
2832
330
27E1
100
AcDbEntity
  8
VITE
100
AcDbCircle
 10
-463.4264493137946
 20
34.4155195466144
 30
0.0
 40
6.5
  0
CIRCLE
  5
2833
330
27E1
100
AcDbEntity
  8
VITE
100
AcDbCircle
 10
-463.4264493137946
 20
34.4155195466144
 30
0.0
 40
6.5
  0
CIRCLE
  5
2834
330
27E1
100
AcDbEntity
  8
VITE
100
AcDbCircle
 10
-463.4264493137946
 20
34.4155195466144
 30
0.0
 40
5.75
  0
LWPOLYLINE
  5
2835
330
27E1
100
AcDbEntity
  8
VITE
100
AcDbPolyline
 90
        6
 70
     1
 43
0.0
 10
-456.9465570803886
 20
38.20291046607076
 10
-463.466479947403
 20
41.92096629425782
 10
-469.9463721808093
 20
38.13357537480147
 10
-469.906341547201
 20
30.62812862715805
 10
-463.3864186801861
 20
26.91007279897098
 10
-456.9065264467804
 20
30.69746371842734
  0
CIRCLE
  5
2836
330
27E1
100
AcDbEntity
  8
VITE
100
AcDbCircle
 10
-463.4264493137946
 20
34.4155195466144
 30
0.0
 40
4.978571428571428
  0
LINE
  5
2837
330
27E1
100
AcDbEntity
  8
ASSE
100
AcDbLine
 10
-455.9265559866289
 20
34.45552056080782
 30
0.0
 11
-470.9263426409604
 21
34.37551853242098
 31
0.0
  0
LINE
  5
2838
330
27E1
100
AcDbEntity
  8
0
100
AcDbLine
 10
-399.9249690622109
 20
51.08873157005541
 30
0.0
 11
-399.9523804559844
 21
56.22816449175775
 31
0.0
  0
LINE
  5
2839
330
27E1
100
AcDbEntity
  8
0
100
AcDbLine
 10
-399.9523804559844
 20
56.22816449175775
 30
0.0
 11
-399.9748765039053
 21
60.44600654133114
 31
0.0
  0
LINE
  5
283A
330
27E1
100
AcDbEntity
  8
0
100
AcDbLine
 10
-334.0723275443447
 20
51.64272249743703
 30
0.0
 11
-322.0053956890144
 21
51.7070820144811
 31
0.0
  0
LINE
  5
283B
330
27E1
100
AcDbEntity
  8
ASSE
100
AcDbLine
 10
-525.3122266741331
 20
109.3063727056517
 30
0.0
 11
-780.1719078562762
 21
157.2600113800647
 31
0.0
  0
LINE
  5
283C
330
27E1
100
AcDbEntity
  8
ASSE
100
AcDbLine
 10
-511.7598767028689
 20
106.7564028920803
 30
0.0
 11
-338.6392396670166
 21
74.1825393566844
 31
0.0
  0
LINE
  5
283D
330
27E1
100
AcDbEntity
  8
0
100
AcDbLine
 10
-516.6069133179305
 20
265.7964947822695
 30
0.0
 11
-344.26988699355
 21
266.7156619671025
 31
0.0
  0
CIRCLE
  5
283E
330
27E1
100
AcDbEntity
  8
0
100
AcDbCircle
 10
-615.9362347702299
 20
126.3579162032731
 30
0.0
 40
10.0
  0
CIRCLE
  5
283F
330
27E1
100
AcDbEntity
  8
0
100
AcDbCircle
 10
-615.9362347702299
 20
126.3579162032731
 30
0.0
 40
18.0
  0
CIRCLE
  5
2840
330
27E1
100
AcDbEntity
  8
0
100
AcDbCircle
 10
-615.9362347702299
 20
126.3579162032731
 30
0.0
 40
32.5
  0
LINE
  5
2841
330
27E1
100
AcDbEntity
  8
0
100
AcDbLine
 10
-516.6426917765918
 20
280.9677707614448
 30
0.0
 11
-516.5493560768072
 21
263.4680196647252
 31
0.0
  0
LINE
  5
2842
330
27E1
100
AcDbEntity
  8
0
100
AcDbLine
 10
-536.5490716159151
 20
263.3613502935424
 30
0.0
 11
-536.6424073156999
 21
280.861101390262
 31
0.0
  0
LINE
  5
2843
330
27E1
100
AcDbEntity
  8
0
100
AcDbLine
 10
-566.2490476662617
 20
280.703193058873
 30
0.0
 11
-566.1207008477695
 21
256.6391170103745
 31
0.0
1001
ACAD
1000
ASC_BOUNDS
1002
{
1070
    19
1005
2845
1002
}
  0
LINE
  5
2844
330
27E1
100
AcDbEntity
  8
0
100
AcDbLine
 10
-543.2913874331384
 20
324.7013312846245
 30
0.0
 11
-542.8691037513636
 21
245.5262745776101
 31
0.0
1001
ACAD
1000
ASC_BOUNDS
1002
{
1070
    19
1005
2845
1002
}
  0
INSERT
  5
2845
330
27E1
100
AcDbEntity
  8
0
100
AcDbBlockReference
  2
*X12
 10
-2580.282051590351
 20
3000.766017031684
 30
0.0
 50
270.3055866873954
1001
ACAD
1000
HATCH
1002
{
1070
    19
1000
AR-HBONE
1040
1.0
1040
14.1425004349994
1000
ASC_BOUNDS
1070
     2
1070
     1
1070
     4
1005
2844
1005
27EC
1005
2843
1005
27F0
1070
     1
1070
     7
1005
2844
1005
2849
1005
284C
1005
284D
1005
284A
1005
2843
1005
27EC
1000
ASC_SEEDPOINT
1011
-2059.579563004449
1021
-4427.904409444487
1031
0.0
1002
}
  0
LINE
  5
2846
330
27E1
100
AcDbEntity
  8
0
100
AcDbLine
 10
-516.5493560768072
 20
263.4680196647252
 30
0.0
 11
-536.5490716159151
 21
263.3613502935424
 31
0.0
  0
LINE
  5
2847
330
27E1
100
AcDbEntity
  8
0
100
AcDbLine
 10
-541.0913905514153
 20
244.5929619255555
 30
0.0
 11
-536.4287685131637
 21
263.4209713460102
 31
0.0
  0
LINE
  5
2848
330
27E1
100
AcDbEntity
  8
0
100
AcDbLine
 10
-516.7360274763773
 20
298.4675218581653
 30
0.0
 11
-536.7357430154855
 21
298.3608524869826
 31
0.0
  0
LINE
  5
2849
330
27E1
100
AcDbEntity
  8
0
100
AcDbLine
 10
-543.4840474128891
 20
324.8252370217726
 30
0.0
 11
-536.6148107920187
 21
298.3025180738425
 31
0.0
1001
ACAD
1000
ASC_BOUNDS
1002
{
1070
    19
1005
2845
1002
}
  0
LINE
  5
284A
330
27E1
100
AcDbEntity
  8
0
100
AcDbLine
 10
-566.2490476662617
 20
280.703193058873
 30
0.0
 11
-566.4570529400682
 21
319.7026383601344
 31
0.0
1001
ACAD
1000
ASC_BOUNDS
1002
{
1070
    19
1005
2845
1002
}
  0
LINE
  5
284B
330
27E1
100
AcDbEntity
  8
0
100
AcDbLine
 10
-536.7357430154855
 20
298.3608524869826
 30
0.0
 11
-536.6424073156999
 21
280.861101390262
 31
0.0
  0
LINE
  5
284C
330
27E1
100
AcDbEntity
  8
0
100
AcDbLine
 10
-561.4837913980868
 20
324.7292345877078
 30
0.0
 11
-543.4840474128891
 21
324.8252370217726
 31
0.0
1001
ACAD
1000
ASC_BOUNDS
1002
{
1070
    19
1005
2845
1002
}
  0
ARC
  5
284D
330
27E1
100
AcDbEntity
  8
0
100
AcDbCircle
 10
-561.4571240552911
 20
319.7293057029303
 30
0.0
 40
5.0
100
AcDbArc
 50
90.30558668739542
 51
180.3055866873954
1001
ACAD
1000
ASC_BOUNDS
1002
{
1070
    19
1005
2845
1002
}
  0
LINE
  5
284E
330
27E1
100
AcDbEntity
  8
0
100
AcDbLine
 10
-516.6426917765918
 20
280.9677707614448
 30
0.0
 11
-516.7360274763773
 21
298.4675218581653
 31
0.0
  0
LINE
  5
284F
330
27E1
100
AcDbEntity
  8
0
100
AcDbLine
 10
-322.7965910764987
 20
200.0503459717104
 30
0.0
 11
-322.8701976423703
 21
213.8510308629731
 31
0.0
  0
LINE
  5
2850
330
27E1
100
AcDbEntity
  8
0
100
AcDbLine
 10
-334.2056643301034
 20
76.64238037965538
 30
0.0
 11
-334.8990152427925
 21
206.6405313838597
 31
0.0
  0
LINE
  5
2851
330
27E1
100
AcDbEntity
  8
0
100
AcDbLine
 10
-370.3981085687523
 20
105.2751846962557
 30
0.0
 11
-476.3102234174875
 21
125.2032928345899
 31
0.0
  0
ARC
  5
2852
330
27E1
100
AcDbEntity
  8
0
100
AcDbCircle
 10
-375.041879344873
 20
80.59488989067563
 30
0.0
 40
25.113374100496
100
AcDbArc
 50
349.3439829561735
 51
79.34398295617732
  0
LINE
  5
2853
330
27E1
100
AcDbEntity
  8
0
100
AcDbLine
 10
-348.1910279155631
 20
236.8771947884117
 30
0.0
 11
-348.3510319723372
 21
266.8767680970743
 31
0.0
  0
LINE
  5
2854
330
27E1
100
AcDbEntity
  8
0
100
AcDbLine
 10
-334.9003262147641
 20
206.8863289002968
 30
0.0
 11
-322.8333943594348
 21
206.9506884173399
 31
0.0
  0
LINE
  5
2855
330
27E1
100
AcDbEntity
  8
0
100
AcDbLine
 10
-344.3263402135801
 20
236.8978072719335
 30
0.0
 11
-348.1910279155631
 21
236.8771947884117
 31
0.0
  0
LINE
  5
2856
330
27E1
100
AcDbEntity
  8
0
100
AcDbLine
 10
-270.3570170923208
 20
51.96845864034845
 30
0.0
 11
-270.5686359512565
 21
91.64542433813608
 31
0.0
  0
LINE
  5
2857
330
27E1
100
AcDbEntity
  8
0
100
AcDbLine
 10
-283.1481169630155
 20
200.2618128695201
 30
0.0
 11
-282.4212521429776
 21
63.9800529329093
 31
0.0
  0
LINE
  5
2858
330
27E1
100
AcDbEntity
  8
COSTRUZIONE
 62
     1
100
AcDbLine
 39
0.1234
 10
-39.24785170955351
 20
-48.13940190729022
 30
0.0
 11
-57.99902288996008
 21
-78.3958327923774
 31
0.0
  0
LINE
  5
2859
330
27E1
100
AcDbEntity
  8
0
100
AcDbLine
 39
0.1234
 10
-20.22018758639887
 20
-32.85691111279061
 30
0.0
 11
-27.45251318998953
 21
-36.73676469846486
 31
0.0
  0
ARC
  5
285A
330
27E1
100
AcDbEntity
  8
COSTRUZIONE
100
AcDbCircle
 10
-73.10286720413387
 20
-117.7721607926122
 30
0.0
 40
25.096370903677
100
AcDbArc
 50
94.61584905883944
 51
20.45797883069473
  0
LINE
  5
285B
330
27E1
100
AcDbEntity
  8
0
100
AcDbLine
 10
-72.80993610628025
 20
-142.9428819997274
 30
0.0
 11
-109.1774612695211
 21
-142.9428819997274
 31
0.0
  0
LINE
  5
285C
330
27E1
100
AcDbEntity
  8
0
100
AcDbLine
 10
-75.12248883113386
 20
-92.75718605709277
 30
0.0
 11
-109.1774612695211
 21
-92.75718605709277
 31
0.0
  0
LINE
  5
285D
330
27E1
100
AcDbEntity
  8
0
100
AcDbLine
 10
-110.4799397527549
 20
52.49315047805271
 30
0.0
 11
-109.4132460409268
 21
-147.5040049130304
 31
0.0
  0
LINE
  5
285E
330
27E1
100
AcDbEntity
  8
0
100
AcDbLine
 10
-130.2252977087894
 20
-9.471173985715495
 30
0.0
 11
-129.5691244142722
 21
-132.4987974654079
 31
0.0
  0
CIRCLE
  5
285F
330
27E1
100
AcDbEntity
  8
0
100
AcDbCircle
 10
-184.6587590045317
 20
-65.33927604455425
 30
0.0
 40
10.77928353839161
  0
LINE
  5
2860
330
27E1
100
AcDbEntity
  8
0
100
AcDbLine
 10
-198.3505794348195
 20
-62.82108139843808
 30
0.0
 11
-210.4140645007826
 21
-18.65151172343007
 31
0.0
  0
LINE
  5
2861
330
27E1
100
AcDbEntity
  8
0
100
AcDbLine
 10
-239.5247543601212
 20
-133.0852507017755
 30
0.0
 11
-240.1807197371106
 21
-10.09661021570195
 31
0.0
  0
LINE
  5
2862
330
27E1
100
AcDbEntity
  8
ASSE
100
AcDbLine
 10
-185.2048262660082
 20
46.75371425219395
 30
0.0
 11
-184.4295013195747
 21
-98.61395977741153
 31
0.0
  0
LINE
  5
2863
330
27E1
100
AcDbEntity
  8
0
100
AcDbLine
 10
-172.4886982698042
 20
-63.62773655551587
 30
0.0
 11
-160.4010540440299
 21
-18.38476511066142
 31
0.0
  0
LINE
  5
2864
330
27E1
100
AcDbEntity
  8
0
100
AcDbLine
 10
-141.5049521150269
 20
-144.5626284115821
 30
0.0
 11
-227.4609234139468
 21
-145.0210784025309
 31
0.0
  0
ARC
  5
2865
330
27E1
100
AcDbEntity
  8
0
100
AcDbCircle
 10
-227.5249250366566
 20
-133.0212490790661
 30
0.0
 40
12.0
100
AcDbArc
 50
180.3055866873954
 51
270.3055866873954
  0
ARC
  5
2866
330
27E1
100
AcDbEntity
  8
0
100
AcDbCircle
 10
-185.178289600266
 20
-55.48659732237524
 30
0.0
 40
15.07660028479595
100
AcDbArc
 50
209.1095686839556
 51
227.38283014625
  0
ARC
  5
2867
330
27E1
100
AcDbEntity
  8
0
100
AcDbCircle
 10
-141.5689537377377
 20
-132.5627990881178
 30
0.0
 40
12.0
100
AcDbArc
 50
270.3055866873954
 51
0.3055866873986775
  0
ARC
  5
2868
330
27E1
100
AcDbEntity
  8
0
100
AcDbCircle
 10
-185.178289600266
 20
-55.48659732237524
 30
0.0
 40
15.07660028479595
100
AcDbArc
 50
317.0874932552984
 51
327.3173767165694
  0
CIRCLE
  5
2869
330
27E1
100
AcDbEntity
  8
0
100
AcDbCircle
 10
-184.9775729024152
 20
-5.564036002411512
 30
0.0
 40
10.0
  0
LINE
  5
286A
330
27E1
100
AcDbEntity
  8
ASSE
100
AcDbLine
 10
-148.7477931408225
 20
-5.125809796140629
 30
0.0
 11
-222.1891866117784
 21
-5.517512730366206
 31
0.0
  0
CIRCLE
  5
286B
330
27E1
100
AcDbEntity
  8
0
100
AcDbCircle
 10
-184.9775729024152
 20
-5.564036002411512
 30
0.0
 40
21.92606435362722
  0
LINE
  5
286C
330
27E1
100
AcDbEntity
  8
0
100
AcDbLine
 10
-224.6740999586358
 20
47.99653033080244
 30
0.0
 11
-146.135409064318
 21
48.4154199272491
 31
0.0
  0
LINE
  5
286D
330
27E1
100
AcDbEntity
  8
0
100
AcDbLine
 10
-160.6960587465064
 20
26.57742304700173
 30
0.0
 11
-210.6953475942771
 21
26.31074961904528
 31
0.0
  0
LINE
  5
286E
330
27E1
100
AcDbEntity
  8
0
100
AcDbLine
 10
-239.8807418477535
 20
-10.16363310442989
 30
0.0
 11
-224.611427819748
 21
48.08491056571097
 31
0.0
  0
LINE
  5
286F
330
27E1
100
AcDbEntity
  8
0
100
AcDbLine
 10
-210.6953475942771
 20
26.31074961904528
 30
0.0
 11
-210.4561767896275
 21
-18.53200144630341
 31
0.0
  0
LINE
  5
2870
330
27E1
100
AcDbEntity
  8
0
100
AcDbLine
 10
-282.4212521429776
 20
63.9800529329093
 30
0.0
 11
-282.3568464157856
 21
51.90445701763906
 31
0.0
  0
LINE
  5
2871
330
27E1
100
AcDbEntity
  8
0
100
AcDbLine
 10
-282.3568464157856
 20
51.90445701763906
 30
0.0
 11
-270.3570170923208
 21
51.96845864034845
 31
0.0
  0
LINE
  5
2872
330
27E1
100
AcDbEntity
  8
0
100
AcDbLine
 10
-160.4568879418566
 20
-18.2653280183465
 30
0.0
 11
-160.6960587465064
 21
26.57742304700173
 31
0.0
  0
LINE
  5
2873
330
27E1
100
AcDbEntity
  8
0
100
AcDbLine
 10
-130.2247237987385
 20
-9.578777861422395
 30
0.0
 11
-146.1144938436909
 21
48.50357744977941
 31
0.0
  0
LINE
  5
2874
330
27E1
100
AcDbEntity
  8
ASSE
100
AcDbLine
 10
-129.7920188079013
 20
65.49431160037807
 30
0.0
 11
-129.4571481819375
 21
2.708554194944781
 31
0.0
  0
LINE
  5
2875
330
27E1
100
AcDbEntity
  8
0
100
AcDbLine
 10
-188.7794578646362
 20
-27.14321304209966
 30
0.0
 11
-188.6305038630971
 21
-55.0709829929026
 31
0.0
  0
LINE
  5
2876
330
27E1
100
AcDbEntity
  8
0
100
AcDbLine
 10
-180.7009186207196
 20
-27.1001257942064
 30
0.0
 11
-180.5493513307133
 21
-55.51786794021222
 31
0.0
  0
LINE
  5
2877
330
27E1
100
AcDbEntity
  8
ASSE
100
AcDbLine
 10
-98.68366839953296
 20
36.35938109710946
 30
0.0
 11
-160.5878164406844
 21
36.02921257384991
 31
0.0
  0
LINE
  5
2878
330
27E1
100
AcDbEntity
  8
ASSE
100
AcDbLine
 10
-129.591195951883
 20
28.69593802449094
 30
0.0
 11
-129.6711979802694
 21
43.69572467882266
 31
0.0
  0
CIRCLE
  5
2879
330
27E1
100
AcDbEntity
  8
VITE
100
AcDbCircle
 10
-129.6311969660762
 20
36.19583135165635
 30
0.0
 40
4.978571428571428
  0
ARC
  5
287A
330
27E1
100
AcDbEntity
  8
0
100
AcDbCircle
 10
-129.6357458775946
 20
36.194296817039
 30
0.0
 40
14.5
100
AcDbArc
 50
224.4532235826827
 51
166.0482608379949
  0
ARC
  5
287B
330
27E1
100
AcDbEntity
  8
0
100
AcDbCircle
 10
-129.6357458775946
 20
36.194296817039
 30
0.0
 40
13.0
100
AcDbArc
 50
208.067214421717
 51
181.6856592318009
  0
CIRCLE
  5
287C
330
27E1
100
AcDbEntity
  8
0
100
AcDbCircle
 10
-129.6357458775946
 20
36.194296817039
 30
0.0
 40
11.0
  0
LWPOLYLINE
  5
287D
330
27E1
100
AcDbEntity
  8
VITE
100
AcDbPolyline
 90
        6
 70
     1
 43
0.0
 10
-123.1513047326707
 20
39.98322227111225
 10
-129.6712275996847
 20
43.70127809929977
 10
-136.1511198330908
 20
39.91388717984341
 10
-136.1110891994826
 20
32.40844043220045
 10
-129.5911663324677
 20
28.69038460401339
 10
-123.1112740990624
 20
32.47777552346883
  0
CIRCLE
  5
287E
330
27E1
100
AcDbEntity
  8
VITE
100
AcDbCircle
 10
-129.6311969660762
 20
36.19583135165635
 30
0.0
 40
6.5
  0
CIRCLE
  5
287F
330
27E1
100
AcDbEntity
  8
VITE
100
AcDbCircle
 10
-129.6311969660762
 20
36.19583135165635
 30
0.0
 40
6.5
  0
CIRCLE
  5
2880
330
27E1
100
AcDbEntity
  8
VITE
100
AcDbCircle
 10
-129.6311969660762
 20
36.19583135165635
 30
0.0
 40
5.75
  0
LINE
  5
2881
330
27E1
100
AcDbEntity
  8
ASSE
100
AcDbLine
 10
-122.1313036389103
 20
36.23583236585023
 30
0.0
 11
-137.1310902932423
 21
36.15583033746247
 31
0.0
  0
ARC
  5
2882
330
27E1
100
AcDbEntity
  8
COSTRUZIONE
100
AcDbCircle
 10
-38.0467080572364
 20
-61.42458578138087
 30
0.0
 40
4.014477155476527
100
AcDbArc
 50
148.2117796047919
 51
328.2117796047919
  0
LINE
  5
2883
330
27E1
100
AcDbEntity
  8
COSTRUZIONE
100
AcDbLine
 10
-34.88935271852642
 20
-63.90392724575486
 30
0.0
 11
-27.95958841301899
 21
-52.74154394013362
 31
0.0
  0
ARC
  5
2884
330
27E1
100
AcDbEntity
  8
0
100
AcDbCircle
 10
-48.22046782058373
 20
-62.64387400110354
 30
0.0
 40
13.0
100
AcDbArc
 50
91.12502195559796
 51
204.4480527542834
  0
ARC
  5
2885
330
27E1
100
AcDbEntity
  8
0
100
AcDbCircle
 10
-48.22046782058373
 20
-62.64387400110354
 30
0.0
 40
11.0
100
AcDbArc
 50
97.7615315563597
 51
198.3204874186282
  0
LINE
  5
2886
330
27E1
100
AcDbEntity
  8
ASSE
100
AcDbLine
 10
-66.15964102260363
 20
-51.52622073844373
 30
0.0
 11
-32.07160176971024
 21
-72.65199930971812
 31
0.0
  0
LINE
  5
2887
330
27E1
100
AcDbEntity
  8
COSTRUZIONE
100
AcDbLine
 10
-35.87550337585048
 20
-105.3424853471656
 30
0.0
 11
0.9991702968875415
 21
-45.8424144099888
 31
0.0
  0
LINE
  5
2888
330
27E1
100
AcDbEntity
  8
COSTRUZIONE
100
AcDbLine
 10
-53.84850703078996
 20
-61.43947146426149
 30
0.0
 11
-32.0219178401519
 21
-74.96631842623401
 31
0.0
  0
LINE
  5
2889
330
27E1
100
AcDbEntity
  8
COSTRUZIONE
100
AcDbLine
 10
-78.76997212292213
 20
-98.64267582520994
 30
0.0
 11
-47.00235162691046
 21
-47.38322089977032
 31
0.0
  0
LINE
  5
288A
330
27E1
100
AcDbEntity
  8
COSTRUZIONE
100
AcDbLine
 10
-75.41712522146713
 20
-97.97113091394008
 30
0.0
 11
-53.07981101127666
 21
-61.91586442357425
 31
0.0
  0
LINE
  5
288B
330
27E1
100
AcDbEntity
  8
COSTRUZIONE
100
AcDbLine
 10
21.78888861401469
 20
11.86148185818433
 30
0.0
 11
-54.30645373483435
 21
-110.9241001357966
 31
0.0
  0
LINE
  5
288C
330
27E1
100
AcDbEntity
  8
COSTRUZIONE
100
AcDbLine
 10
-44.37551350973286
 20
-100.0746748224886
 30
0.0
 11
24.10602331106634
 21
10.42545691798272
 31
0.0
  0
LINE
  5
288D
330
27E1
100
AcDbEntity
  8
ASSE
100
AcDbLine
 39
0.1234
 10
-73.29045239930633
 20
-85.65648431292515
 30
0.0
 11
-73.29045239930633
 21
-148.8657013180636
 31
0.0
  0
CIRCLE
  5
288E
330
27E1
100
AcDbEntity
  8
COSTRUZIONE
100
AcDbCircle
 10
-72.94394277499191
 20
-117.817626034904
 30
0.0
 40
20.0
  0
LINE
  5
288F
330
27E1
100
AcDbEntity
  8
COSTRUZIONE
100
AcDbLine
 10
-70.67105872799174
 20
-142.5506947340888
 30
0.0
 11
-96.18298659860442
 21
-126.7398898027039
 31
0.0
  0
LINE
  5
2890
330
27E1
100
AcDbEntity
  8
COSTRUZIONE
100
AcDbLine
 10
-67.21915604839693
 20
-136.9807890550059
 30
0.0
 11
-70.67105872799174
 21
-142.5506947340888
 31
0.0
  0
LINE
  5
2891
330
27E1
100
AcDbEntity
  8
COSTRUZIONE
100
AcDbLine
 10
-44.41171545271276
 20
-100.1792611179074
 30
0.0
 11
-53.30056971326735
 21
-114.5220987995932
 31
0.0
  0
LINE
  5
2892
330
27E1
100
AcDbEntity
  8
ASSE
100
AcDbLine
 39
0.1234
 10
-97.91282734287598
 20
-117.7809739785367
 30
0.0
 11
-42.81827248821787
 21
-117.7809739785368
 31
0.0
  0
CIRCLE
  5
2893
330
27E1
100
AcDbEntity
  8
0
100
AcDbCircle
 10
-73.29045239930633
 20
-117.7809739785367
 30
0.0
 40
6.0
  0
LINE
  5
2894
330
27E1
100
AcDbEntity
  8
COSTRUZIONE
100
AcDbLine
 10
-96.18298659860442
 20
-126.7398898027039
 30
0.0
 11
-92.67591283025046
 21
-121.0809614051015
 31
0.0
  0
CIRCLE
  5
2895
330
27E1
100
AcDbEntity
  8
COSTRUZIONE
100
AcDbCircle
 10
-88.12151054117544
 20
-108.4159655758461
 30
0.0
 40
1.5
  0
LINE
  5
2896
330
27E1
100
AcDbEntity
  8
COSTRUZIONE
100
AcDbLine
 10
-44.37551350973286
 20
-100.0746748224886
 30
0.0
 11
-35.87550337585048
 21
-105.3424853471656
 31
0.0
  0
LINE
  5
2897
330
27E1
100
AcDbEntity
  8
COSTRUZIONE
100
AcDbLine
 10
-44.37551350973286
 20
-100.0746748224886
 30
0.0
 11
-44.19329531582639
 21
-99.7806520045591
 31
0.0
  0
LINE
  5
2898
330
27E1
100
AcDbEntity
  8
COSTRUZIONE
100
AcDbLine
 10
-46.69344615833392
 20
-98.63815535845652
 30
0.0
 11
-44.37551350973286
 21
-100.0746748224886
 31
0.0
  0
ARC
  5
2899
330
27E1
100
AcDbEntity
  8
COSTRUZIONE
100
AcDbCircle
 10
0.0
 20
0.0
 30
0.0
 40
3.97942060725154
100
AcDbArc
 50
324.5619765594823
 51
149.4298783302871
  0
LINE
  5
289A
330
27E1
100
AcDbEntity
  8
COSTRUZIONE
100
AcDbLine
 10
-15.29579947955721
 20
-17.1209889887416
 30
0.0
 11
-3.340500152125969
 21
2.1697894021529
 31
0.0
  0
LINE
  5
289B
330
27E1
100
AcDbEntity
  8
COSTRUZIONE
100
AcDbLine
 10
3.427080532826721
 20
-2.024362392641705
 30
0.0
 11
-8.495791372451549
 21
-21.3352374084834
 31
0.0
  0
LINE
  5
289C
330
27E1
100
AcDbEntity
  8
COSTRUZIONE
100
AcDbLine
 10
0.9991702968875415
 20
-45.8424144099888
 30
0.0
 11
-7.522504106753331
 21
-40.56117763446673
 31
0.0
  0
LINE
  5
289D
330
27E1
100
AcDbEntity
  8
VITE
100
AcDbLine
 10
-4.115052114227182
 20
-55.55485672587133
 30
0.0
 11
0.0499528513753376
 21
-58.13608388296302
 31
0.0
  0
LINE
  5
289E
330
27E1
100
AcDbEntity
  8
VITE
100
AcDbLine
 10
-5.795483671599185
 20
-58.26635995857987
 30
0.0
 11
-1.630478705996665
 21
-60.84758711567156
 31
0.0
  0
LINE
  5
289F
330
27E1
100
AcDbEntity
  8
VITE
100
AcDbLine
 10
-5.635268703623751
 20
-56.48918350025155
 30
0.0
 11
0.2594112734898317
 21
-46.97767216043712
 31
0.0
  0
ARC
  5
28A0
330
27E1
100
AcDbEntity
  8
VITE
100
AcDbCircle
 10
6.152081824155402
 20
-57.21195077599759
 30
0.0
 40
10.39999999998251
100
AcDbArc
 50
125.591914656718
 51
170.8316445528756
  0
LINE
  5
28A1
330
27E1
100
AcDbEntity
  8
ASSE
100
AcDbLine
 10
-11.97912460994984
 20
-45.97528651627704
 30
0.0
 11
8.753289108232138
 21
-58.82402733733193
 31
0.0
  0
LINE
  5
28A2
330
27E1
100
AcDbEntity
  8
COSTRUZIONE
100
AcDbLine
 10
-2.099727175514317
 20
11.39428985681002
 30
0.0
 11
-15.88117667579445
 21
2.830672281589841
 31
0.0
  0
LINE
  5
28A3
330
27E1
100
AcDbEntity
  8
COSTRUZIONE
100
AcDbLine
 10
-55.20481354474736
 20
-60.59891179240503
 30
0.0
 11
-15.69367318900754
 21
3.155297257405209
 31
0.0
  0
LINE
  5
28A4
330
27E1
100
AcDbEntity
  8
COSTRUZIONE
100
AcDbLine
 10
-53.07981101127666
 20
-61.91586442357425
 30
0.0
 11
-55.20481354474736
 21
-60.59891179240503
 31
0.0
  0
LINE
  5
28A5
330
27E1
100
AcDbEntity
  8
COSTRUZIONE
100
AcDbLine
 10
-28.36258153467429
 20
-38.20522870568538
 30
0.0
 11
-21.69281446500826
 21
-27.44305580344848
 31
0.0
  0
LWPOLYLINE
  5
28A6
330
27E1
100
AcDbEntity
  8
VITE
100
AcDbPolyline
 90
        6
 70
     1
 43
0.0
 10
-15.3285157194773
 20
-31.89104487888971
 10
-8.714574838144699
 20
-28.34292997776652
 10
-8.480362037397298
 20
-20.84103170484263
 10
-14.86009011798228
 20
-16.88724833304195
 10
-21.47403099931489
 20
-20.43536323416515
 10
-21.70824380006229
 20
-27.93726150708903
  0
LINE
  5
28A7
330
27E1
100
AcDbEntity
  8
ASSE
100
AcDbLine
 10
-19.57194186470519
 20
-31.61415521976596
 30
0.0
 11
-10.61666397275439
 21
-17.1641379921657
 31
0.0
  0
CIRCLE
  5
28A8
330
27E1
100
AcDbEntity
  8
VITE
100
AcDbCircle
 10
-15.0943029187299
 20
-24.38914660596572
 30
0.0
 40
6.5
  0
LINE
  5
28A9
330
27E1
100
AcDbEntity
  8
ASSE
100
AcDbLine
 10
-32.63872391982204
 20
-52.69839493670975
 30
0.0
 11
-23.68344602787124
 21
-38.24837770910949
 31
0.0
  0
LINE
  5
28AA
330
27E1
100
AcDbEntity
  8
ASSE
100
AcDbLine
 10
-35.38609358764665
 20
-40.99574737693433
 30
0.0
 11
-20.93607636004662
 21
-49.95102526888491
 31
0.0
  0
LWPOLYLINE
  5
28AB
330
27E1
100
AcDbEntity
  8
VITE
100
AcDbPolyline
 90
        6
 70
     1
 43
0.0
 10
-28.39529777459415
 20
-52.9752845958335
 10
-21.78135689326177
 20
-49.4271696947103
 10
-21.54714409251414
 20
-41.92527142178642
 10
-27.92687217309935
 20
-37.97148804998573
 10
-34.54081305443173
 20
-41.51960295110893
 10
-34.77502585517914
 20
-49.02150122403281
  0
CIRCLE
  5
28AC
330
27E1
100
AcDbEntity
  8
VITE
100
AcDbCircle
 10
-28.16108497384675
 20
-45.47338632290951
 30
0.0
 40
6.5
  0
LINE
  5
28AD
330
27E1
100
AcDbEntity
  8
COSTRUZIONE
100
AcDbLine
 10
-34.75959652012511
 20
-48.52729552039227
 30
0.0
 11
-41.62614802121334
 21
-59.6069949649077
 31
0.0
  0
ARC
  5
28AE
330
27E1
100
AcDbEntity
  8
VITE
100
AcDbCircle
 10
-3.943753405711277
 20
-57.53748602562097
 30
0.0
 40
1.990015625005356
100
AcDbArc
 50
94.93807888100265
 51
201.4854803285025
  0
LINE
  5
28AF
330
27E1
100
AcDbEntity
  8
COSTRUZIONE
100
AcDbLine
 10
-21.56257342756839
 20
-42.41947712542719
 30
0.0
 11
-14.89280635790214
 21
-31.65730422318984
 31
0.0
  0
LINE
  5
28B0
330
27E1
100
AcDbEntity
  8
COSTRUZIONE
100
AcDbLine
 10
-16.92263839107067
 20
-34.93259151212851
 30
0.0
 11
-20.34935741040067
 21
-32.80891092459842
 31
0.0
  0
LINE
  5
28B1
330
27E1
100
AcDbEntity
  8
ASSE
100
AcDbLine
 10
-22.3193115325298
 20
-19.91150765999054
 30
0.0
 11
-7.86929430492978
 21
-28.86678555194112
 31
0.0
  0
ARC
  5
28B2
330
27E1
100
AcDbEntity
  8
VITE
100
AcDbCircle
 10
1.950926571402305
 20
-48.02597468580666
 30
0.0
 40
1.990015625005242
100
AcDbArc
 50
94.93807888101562
 51
201.4854803285025
  0
LINE
  5
28B3
330
27E1
100
AcDbEntity
  8
FILETTO
100
AcDbLine
 10
4.090004358658688
 20
-60.62430603860798
 30
0.0
 11
8.304252778399813
 21
-53.82429793150208
 31
0.0
  0
LINE
  5
28B4
330
27E1
100
AcDbEntity
  8
VITE
100
AcDbLine
 10
8.654150506845098
 20
-55.31471614711858
 30
0.0
 11
5.580422574274734
 21
-60.27440831016292
 31
0.0
  0
LINE
  5
28B5
330
27E1
100
AcDbEntity
  8
VITE
100
AcDbLine
 10
4.951172043722863
 20
-51.74625405790539
 30
0.0
 11
8.304252778399813
 21
-53.82429793150208
 31
0.0
  0
LINE
  5
28B6
330
27E1
100
AcDbEntity
  8
VITE
100
AcDbLine
 10
1.7796278628864
 20
-46.0433453860569
 30
0.0
 11
5.944632828488693
 21
-48.62457254314858
 31
0.0
  0
LINE
  5
28B7
330
27E1
100
AcDbEntity
  8
VITE
100
AcDbLine
 10
0.099196305514397
 20
-48.75484861876543
 30
0.0
 11
4.264201271116917
 21
-51.33607577585713
 31
0.0
  0
ARC
  5
28B8
330
27E1
100
AcDbEntity
  8
VITE
100
AcDbCircle
 10
4.092902562595327
 20
-49.35344647610896
 30
0.0
 40
1.990015625004127
100
AcDbArc
 50
274.9380788811594
 51
21.48548032849109
  0
LINE
  5
28B9
330
27E1
100
AcDbEntity
  8
FILETTO
100
AcDbLine
 10
4.660264602244069
 20
-59.70414806657732
 30
0.0
 11
1.307183867567118
 21
-57.62610419298062
 31
0.0
  0
LINE
  5
28BA
330
27E1
100
AcDbEntity
  8
VITE
100
AcDbLine
 10
4.090004358658688
 20
-60.62430603860798
 30
0.0
 11
0.7369236239812836
 21
-58.54626216501128
 31
0.0
  0
LINE
  5
28BB
330
27E1
100
AcDbEntity
  8
VITE
100
AcDbLine
 10
5.580422574274734
 20
-60.27440831016292
 30
0.0
 11
4.090004358658688
 21
-60.62430603860798
 31
0.0
  0
ARC
  5
28BC
330
27E1
100
AcDbEntity
  8
VITE
100
AcDbCircle
 10
-1.801777414533262
 20
-58.86495781591384
 30
0.0
 40
1.990015625014936
100
AcDbArc
 50
274.9380788815779
 51
21.48548032807557
  0
ARC
  5
28BD
330
27E1
100
AcDbEntity
  8
VITE
100
AcDbCircle
 10
-6.002932667276354
 20
-49.67898172572415
 30
0.0
 40
10.39999999999405
100
AcDbArc
 50
305.5919146567505
 51
350.8316445528489
  0
LINE
  5
28BE
330
27E1
100
AcDbEntity
  8
VITE
100
AcDbLine
 10
-0.1102621166000972
 20
-59.91326034129156
 30
0.0
 11
5.784417860513485
 21
-50.40174900147713
 31
0.0
  0
LINE
  5
28BF
330
27E1
100
AcDbEntity
  8
FILETTO
100
AcDbLine
 10
4.380911800137027
 20
-52.66641202993605
 30
0.0
 11
7.733992534813978
 21
-54.74445590353275
 31
0.0
  0
LINE
  5
28C0
330
27E1
100
AcDbEntity
  8
VITE
100
AcDbLine
 10
8.304252778399813
 20
-53.82429793150208
 30
0.0
 11
8.654150506845098
 21
-55.31471614711858
 31
0.0
  0
LINE
  5
28C1
330
27E1
100
AcDbEntity
  8
ASSE
100
AcDbLine
 10
27.80326498397767
 20
40.50767729897756
 30
0.0
 11
17.85385350149704
 21
24.3209787117953
 31
0.0
  0
CIRCLE
  5
28C2
330
27E1
100
AcDbEntity
  8
VITE
100
AcDbCircle
 10
22.77608129837312
 20
32.44685077456961
 30
0.0
 40
6.5
  0
LINE
  5
28C3
330
27E1
100
AcDbEntity
  8
ASSE
100
AcDbLine
 10
30.86943059196414
 20
27.47214503332907
 30
0.0
 11
14.68273200478211
 21
37.42155651580969
 31
0.0
  0
ARC
  5
28C4
330
27E1
100
AcDbEntity
  8
COSTRUZIONE
100
AcDbCircle
 10
22.73625922284531
 20
32.42994215756016
 30
0.0
 40
10.03538752971838
100
AcDbArc
 50
328.225895213386
 51
148.239699427273
  0
LINE
  5
28C5
330
27E1
100
AcDbEntity
  8
COSTRUZIONE
100
AcDbLine
 10
14.39525670529906
 20
38.0101921350606
 30
0.0
 11
-2.099727175514317
 21
11.39428985681002
 31
0.0
  0
INSERT
  5
28C6
330
27E1
100
AcDbEntity
  8
SEZIONE
100
AcDbBlockReference
  2
*X13
 10
-136.9482776745765
 20
262.1826289588967
 30
0.0
 50
238.2117796047964
1001
ACAD
1000
HATCH
1002
{
1070
    19
1000
AR-SAND
1040
3.0
1040
0.0
1002
}
  0
ARC
  5
28C7
330
27E1
100
AcDbEntity
  8
COSTRUZIONE
100
AcDbCircle
 10
22.75960682671006
 20
32.41997957358262
 30
0.0
 40
20.00029388615192
100
AcDbArc
 50
268.2514904710282
 51
208.0303609500806
  0
LINE
  5
28C8
330
27E1
100
AcDbEntity
  8
COSTRUZIONE
100
AcDbLine
 10
31.28495755765811
 20
27.17354556100281
 30
0.0
 11
21.80432754638673
 21
11.87583301156837
 31
0.0
  0
LINE
  5
28C9
330
27E1
100
AcDbEntity
  8
COSTRUZIONE
100
AcDbLine
 10
24.10602331106634
 20
10.42545691798272
 30
0.0
 11
21.7946239446876
 21
11.85792743474189
 31
0.0
  0
LWPOLYLINE
  5
28CA
330
27E1
100
AcDbEntity
  8
VITE
100
AcDbPolyline
 90
        6
 70
     1
 43
0.0
 10
22.85867505673218
 20
35.44571360422333
 10
20.22028678460697
 20
34.01781048232965
 10
20.13769302624837
 20
31.0189476526757
 10
22.69348754001362
 20
29.44798794491566
 10
25.33187581213837
 20
30.87589106680934
 10
25.41446957049788
 20
33.87475389646306
  0
LINE
  5
28CB
330
27E1
100
AcDbEntity
  8
0
100
AcDbLine
 10
-283.1481169630155
 20
200.2618128695201
 30
0.0
 11
-283.212522690208
 21
212.3374087847862
 31
0.0
  0
LINE
  5
28CC
330
27E1
100
AcDbEntity
  8
0
100
AcDbLine
 10
-270.5686359512565
 20
91.64542433813608
 30
0.0
 11
-282.5684652747213
 21
91.58142271542624
 31
0.0
  0
LINE
  5
28CD
330
27E1
100
AcDbEntity
  8
0
100
AcDbLine
 10
-261.9561915679753
 20
267.1546857178957
 30
0.0
 11
-106.6127447662097
 21
267.9832168915183
 31
0.0
  0
LINE
  5
28CE
330
27E1
100
AcDbEntity
  8
0
100
AcDbLine
 10
-258.3523120463496
 20
267.3567802673971
 30
0.0
 11
-258.1923079895755
 21
237.3572069587346
 31
0.0
  0
LINE
  5
28CF
330
27E1
100
AcDbEntity
  8
0
100
AcDbLine
 10
-258.1923079895755
 20
237.3572069587346
 30
0.0
 11
-261.7971628452467
 21
237.3379803052405
 31
0.0
  0
LINE
  5
28D0
330
27E1
100
AcDbEntity
  8
0
100
AcDbLine
 10
-106.8105612946237
 20
267.6828255509669
 30
0.0
 11
-106.9705653513979
 21
297.6823988596299
 31
0.0
  0
ENDBLK
  5
28D2
330
27E1
100
AcDbEntity
  8
0
100
AcDbBlockEnd
  0
BLOCK
  5
3083
330
306E
100
AcDbEntity
  8
0
100
AcDbBlockBegin
  2
A$C36FE21C4
 70
     0
 10
0.0
 20
0.0
 30
0.0
  3
A$C36FE21C4
  1

  0
LINE
  5
306F
330
306E
100
AcDbEntity
  8
ASSE
100
AcDbLine
 10
134.0124623186666
 20
-44.99462645948187
 30
0.0
 11
46.76767424307036
 21
192.4287180098758
 31
0.0
  0
LINE
  5
3070
330
306E
100
AcDbEntity
  8
0
100
AcDbLine
 10
164.2028514994417
 20
246.4578087280187
 30
0.0
 11
245.1269583949506
 21
26.71506797356687
 31
0.0
  0
LINE
  5
3071
330
306E
100
AcDbEntity
  8
0
100
AcDbLine
 10
858.0681833258568
 20
251.2358606755092
 30
0.0
 11
286.8859454438124
 21
41.70084950695991
 31
0.0
  0
LINE
  5
3072
330
306E
100
AcDbEntity
  8
ASSE
 62
     1
100
AcDbLine
 39
0.1234
 10
-39.37795001285849
 20
47.21125373283484
 30
0.0
 11
-90.48554491192589
 21
185.9897142846484
 31
0.0
  0
CIRCLE
  5
3073
330
306E
100
AcDbEntity
  8
0
100
AcDbCircle
 10
-65.33875693001482
 20
117.7056846635293
 30
0.0
 40
45.0
  0
LINE
  5
3074
330
306E
100
AcDbEntity
  8
ASSE
100
AcDbLine
 10
-137.7678356956621
 20
90.85670269797038
 30
0.0
 11
-7.788009560783393
 21
139.0393672749096
 31
0.0
  0
ARC
  5
3075
330
306E
100
AcDbEntity
  8
0
100
AcDbCircle
 10
-19.32875041893385
 20
-34.13198839166352
 30
0.0
 40
201.083575959179
100
AcDbArc
 50
113.883591960396
 51
201.0403308455357
  0
CIRCLE
  5
3076
330
306E
100
AcDbEntity
  8
0
100
AcDbCircle
 10
89.69938955298676
 20
75.59662227649369
 30
0.0
 40
117.5
  0
LINE
  5
3077
330
306E
100
AcDbEntity
  8
ASSE
100
AcDbLine
 10
-27.25217366059041
 20
32.62100683950666
 30
0.0
 11
866.4980733867251
 21
359.8491702851542
 31
0.0
  0
LINE
  5
3078
330
306E
100
AcDbEntity
  8
ASSE
100
AcDbLine
 10
-195.6545180654793
 20
-165.2335765960306
 30
0.0
 11
0.0
 21
0.0
 31
0.0
  0
LINE
  5
3079
330
306E
100
AcDbEntity
  8
ASSE
100
AcDbLine
 10
-9.827724796547045
 20
-173.225070270786
 30
0.0
 11
-172.9641409521773
 21
19.21227356682175
 31
0.0
  0
ARC
  5
307A
330
306E
100
AcDbEntity
  8
0
100
AcDbCircle
 10
-91.23417323827926
 20
-77.0488149264097
 30
0.0
 40
119.4160552356193
100
AcDbArc
 50
194.2837420678281
 51
194.1918669574437
  0
LINE
  5
307B
330
306E
100
AcDbEntity
  8
0
100
AcDbLine
 10
136.580796111104
 20
-83.76788860919168
 30
0.0
 11
203.5835345628293
 21
11.94797152197588
 31
0.0
  0
LINE
  5
307C
330
306E
100
AcDbEntity
  8
0
100
AcDbLine
 10
8.296245933662248
 20
-139.4173003639161
 30
0.0
 11
136.5810746143834
 21
-83.78640991305656
 31
0.0
  0
LINE
  5
307D
330
306E
100
AcDbEntity
  8
0
100
AcDbLine
 10
304.6747577308033
 20
48.43253995898931
 30
0.0
 11
204.3331118278692
 21
13.5099810504962
 31
0.0
  0
LINE
  5
307E
330
306E
100
AcDbEntity
  8
0
100
AcDbLine
 10
788.8683865575495
 20
439.1422038515129
 30
0.0
 11
241.9960115305348
 21
238.0981266825392
 31
0.0
  0
LINE
  5
307F
330
306E
100
AcDbEntity
  8
0
100
AcDbLine
 10
197.0717955114723
 20
258.8782810388656
 30
0.0
 11
241.9960115305348
 21
238.0981266825392
 31
0.0
  0
LINE
  5
3080
330
306E
100
AcDbEntity
  8
0
100
AcDbLine
 10
74.1107595232479
 20
213.6943942128864
 30
0.0
 11
197.0717955114723
 21
258.8782810388656
 31
0.0
  0
LINE
  5
3081
330
306E
100
AcDbEntity
  8
0
100
AcDbLine
 10
74.1107595232479
 20
213.6943942128864
 30
0.0
 11
-89.8451157853724
 21
155.3520425073566
 31
0.0
  0
LINE
  5
3082
330
306E
100
AcDbEntity
  8
0
100
AcDbLine
 10
788.8683865575495
 20
439.1422038515129
 30
0.0
 11
858.0681833258568
 21
251.2358606755092
 31
0.0
  0
ENDBLK
  5
3084
330
306E
100
AcDbEntity
  8
0
100
AcDbBlockEnd
  0
ENDSEC
  0
SECTION
  2
ENTITIES
  0
LWPOLYLINE
  5
48
330
1A
100
AcDbEntity
  8
SQUADRATURA
100
AcDbPolyline
 90
        4
 70
     1
 43
0.0
 10
-111.067233749156
 20
194.4777378765393
 10
3988.932766250844
 20
194.4777378765393
 10
3988.932766250844
 20
3064.477737876539
 10
-111.067233749156
 20
3064.477737876539
  0
LWPOLYLINE
  5
4E
330
1A
100
AcDbEntity
  8
SQUADRATURA
100
AcDbPolyline
 90
        4
 70
     1
 43
0.0
 10
-61.067233749156
 20
244.4777378765393
 10
3938.932766250844
 20
244.4777378765393
 10
3938.932766250844
 20
3014.477737876539
 10
-61.067233749156
 20
3014.477737876539
  0
LINE
  5
89E
330
1A
100
AcDbEntity
  8
ASSE
100
AcDbLine
 10
1658.423403180687
 20
1656.669989437951
 30
0.0
 11
2760.070080824355
 21
1656.669989437951
 31
0.0
  0
CIRCLE
  5
A1B
330
1A
100
AcDbEntity
  8
0
100
AcDbCircle
 10
2235.402963008735
 20
1656.669989437951
 30
0.0
 40
560.0
  0
CIRCLE
  5
A1C
330
1A
100
AcDbEntity
  8
0
100
AcDbCircle
 10
2235.402963008735
 20
1656.669989437951
 30
0.0
 40
530.0
  0
CIRCLE
  5
15B6
330
1A
100
AcDbEntity
  8
ASSE
100
AcDbCircle
 10
2235.123222778939
 20
1657.474315206273
 30
0.0
 40
500.0
  0
CIRCLE
  5
15B7
330
1A
100
AcDbEntity
  8
COSTRUZIONE
100
AcDbCircle
 10
2735.123222778939
 20
1657.474315206273
 30
0.0
 40
20.0
  0
LINE
  5
15B8
330
1A
100
AcDbEntity
  8
ASSE
100
AcDbLine
 10
2756.623222778939
 20
1657.474315206273
 30
0.0
 11
2713.623222778938
 21
1657.474315206273
 31
0.0
  0
LINE
  5
15B9
330
1A
100
AcDbEntity
  8
ASSE
100
AcDbLine
 10
2657.025585345474
 20
1964.004324276797
 30
0.0
 11
2622.23785458735
 21
1938.729558428221
 31
0.0
  0
CIRCLE
  5
15BA
330
1A
100
AcDbEntity
  8
COSTRUZIONE
100
AcDbCircle
 10
2639.631719966413
 20
1951.366941352508
 30
0.0
 40
20.0
  0
LINE
  5
15BB
330
1A
100
AcDbEntity
  8
ASSE
100
AcDbLine
 10
2396.275585345474
 20
2153.450288454195
 30
0.0
 11
2382.987854587351
 21
2112.554858253504
 31
0.0
  0
CIRCLE
  5
15BC
330
1A
100
AcDbEntity
  8
COSTRUZIONE
100
AcDbCircle
 10
2389.631719966412
 20
2133.002573353849
 30
0.0
 40
20.0
  0
LINE
  5
15BD
330
1A
100
AcDbEntity
  8
ASSE
100
AcDbLine
 10
2073.970860212403
 20
2153.450288454195
 30
0.0
 11
2087.258590970526
 21
2112.554858253504
 31
0.0
  0
CIRCLE
  5
15BE
330
1A
100
AcDbEntity
  8
COSTRUZIONE
100
AcDbCircle
 10
2080.614725591466
 20
2133.00257335385
 30
0.0
 40
20.0
  0
LINE
  5
15BF
330
1A
100
AcDbEntity
  8
ASSE
100
AcDbLine
 10
1813.220860212403
 20
1964.004324276798
 30
0.0
 11
1848.008590970526
 21
1938.729558428221
 31
0.0
  0
CIRCLE
  5
15C0
330
1A
100
AcDbEntity
  8
COSTRUZIONE
100
AcDbCircle
 10
1830.614725591465
 20
1951.36694135251
 30
0.0
 40
20.0
  0
CIRCLE
  5
15C2
330
1A
100
AcDbEntity
  8
COSTRUZIONE
100
AcDbCircle
 10
1735.123869719298
 20
1656.669989437951
 30
0.0
 40
20.0
  0
LINE
  5
15C3
330
1A
100
AcDbEntity
  8
ASSE
100
AcDbLine
 10
1813.220860212403
 20
1350.944306135748
 30
0.0
 11
1848.008590970526
 21
1376.219071984324
 31
0.0
  0
CIRCLE
  5
15C4
330
1A
100
AcDbEntity
  8
COSTRUZIONE
100
AcDbCircle
 10
1830.614725591464
 20
1363.581689060036
 30
0.0
 40
20.0
  0
LINE
  5
15C5
330
1A
100
AcDbEntity
  8
ASSE
100
AcDbLine
 10
2073.970860212403
 20
1161.49834195835
 30
0.0
 11
2087.258590970526
 21
1202.393772159042
 31
0.0
  0
CIRCLE
  5
15C6
330
1A
100
AcDbEntity
  8
COSTRUZIONE
100
AcDbCircle
 10
2080.614725591465
 20
1181.946057058697
 30
0.0
 40
20.0
  0
LINE
  5
15C7
330
1A
100
AcDbEntity
  8
ASSE
100
AcDbLine
 10
2396.275585345474
 20
1161.49834195835
 30
0.0
 11
2382.987854587351
 21
1202.393772159041
 31
0.0
  0
CIRCLE
  5
15C8
330
1A
100
AcDbEntity
  8
COSTRUZIONE
100
AcDbCircle
 10
2389.631719966412
 20
1181.946057058696
 30
0.0
 40
20.0
  0
LINE
  5
15C9
330
1A
100
AcDbEntity
  8
ASSE
100
AcDbLine
 10
2657.025585345474
 20
1350.944306135748
 30
0.0
 11
2622.23785458735
 21
1376.219071984324
 31
0.0
  0
CIRCLE
  5
15CA
330
1A
100
AcDbEntity
  8
COSTRUZIONE
100
AcDbCircle
 10
2639.631719966412
 20
1363.581689060036
 30
0.0
 40
20.0
  0
LINE
  5
164F
330
1A
100
AcDbEntity
  8
ASSE
 62
     1
100
AcDbLine
 39
0.1234
 10
2235.402963008734
 20
965.1951719384324
 30
0.0
 11
2235.402963008735
 21
2247.992894669191
 31
0.0
  0
LINE
  5
182F
330
1A
100
AcDbEntity
  8
0
100
AcDbLine
 10
1920.117485873947
 20
788.5677846276736
 30
0.0
 11
2234.117485873946
 21
788.5677846276736
 31
0.0
  0
LINE
  5
1836
330
1A
100
AcDbEntity
  8
0
100
AcDbLine
 10
746.4731883005733
 20
902.3064437974184
 30
0.0
 11
746.4731883005733
 21
962.3064437974184
 31
0.0
  0
LINE
  5
1838
330
1A
100
AcDbEntity
  8
0
100
AcDbLine
 10
746.4731883005733
 20
842.3064437974185
 30
0.0
 11
746.4731883005733
 21
902.3064437974184
 31
0.0
  0
ARC
  5
183B
330
1A
100
AcDbEntity
  8
COSTRUZIONE
100
AcDbCircle
 10
1919.62677171196
 20
902.7017287345517
 30
0.0
 40
35.0
100
AcDbArc
 50
358.1169767033417
 51
183.5384826077872
  0
LINE
  5
183C
330
1A
100
AcDbEntity
  8
0
100
AcDbLine
 10
1920.117485873947
 20
873.945959673132
 30
0.0
 11
1920.117485873947
 21
788.5677846276736
 31
0.0
  0
LINE
  5
183D
330
1A
100
AcDbEntity
  8
0
100
AcDbLine
 10
2047.117485873946
 20
962.3064437974184
 30
0.0
 11
2075.117485873946
 21
962.3064437974184
 31
0.0
  0
LINE
  5
1841
330
1A
100
AcDbEntity
  8
ASSE
100
AcDbLine
 10
2452.144679462641
 20
902.3064437974184
 30
0.0
 11
3770.401284001471
 21
902.3064437974184
 31
0.0
  0
LINE
  5
1842
330
1A
100
AcDbEntity
  8
0
100
AcDbLine
 10
2676.117485873946
 20
962.3064437974184
 30
0.0
 11
3536.544356453198
 21
962.3064437974184
 31
0.0
  0
LINE
  5
1844
330
1A
100
AcDbEntity
  8
0
100
AcDbLine
 10
2550.117485873947
 20
788.5677846276736
 30
0.0
 11
2236.117485873946
 21
788.5677846276736
 31
0.0
  0
LINE
  5
1845
330
1A
100
AcDbEntity
  8
0
100
AcDbLine
 10
2395.117485873947
 20
962.3064437974184
 30
0.0
 11
2423.117485873946
 21
962.3064437974184
 31
0.0
  0
ARC
  5
1846
330
1A
100
AcDbEntity
  8
COSTRUZIONE
100
AcDbCircle
 10
2550.608200035934
 20
902.7017287345517
 30
0.0
 40
35.0
100
AcDbArc
 50
356.4615173922128
 51
181.8830232966582
  0
LINE
  5
1847
330
1A
100
AcDbEntity
  8
0
100
AcDbLine
 10
2550.117485873947
 20
873.945959673132
 30
0.0
 11
2550.117485873947
 21
788.5677846276736
 31
0.0
  0
LINE
  5
184D
330
1A
100
AcDbEntity
  8
0
100
AcDbLine
 10
3746.473188300573
 20
962.3064437974184
 30
0.0
 11
3746.473188300573
 21
842.3064437974185
 31
0.0
  0
ARC
  5
184E
330
1A
100
AcDbEntity
  8
0
100
AcDbCircle
 10
1920.117485873947
 20
1053.567784627673
 30
0.0
 40
179.6218249545416
100
AcDbArc
 50
270.0
 51
18.83843355798074
  0
LINE
  5
184F
330
1A
100
AcDbEntity
  8
ASSE
100
AcDbLine
 10
2082.734395278499
 20
1144.88585937584
 30
0.0
 11
1919.380588345551
 21
1055.595790523368
 31
0.0
  0
ARC
  5
1850
330
1A
100
AcDbEntity
  8
0
100
AcDbCircle
 10
1920.117485873944
 20
1053.567784627672
 30
0.0
 40
156.348968656656
100
AcDbArc
 50
282.6086067933667
 51
15.92122814546538
  0
ARC
  5
1856
330
1A
100
AcDbEntity
  8
0
100
AcDbCircle
 10
1920.117485873944
 20
1053.567784627672
 30
0.0
 40
156.348968656656
100
AcDbArc
 50
95.89352923206456
 51
137.0638197284565
  0
LINE
  5
1858
330
1A
100
AcDbEntity
  8
ASSE
100
AcDbLine
 10
1919.387084391252
 20
866.2025157294982
 30
0.0
 11
1919.380588345551
 21
1055.595790523368
 31
0.0
  0
ARC
  5
1859
330
1A
100
AcDbEntity
  8
0
100
AcDbCircle
 10
1920.117485873944
 20
1053.567784627672
 30
0.0
 40
156.348968656656
100
AcDbArc
 50
162.6024871143946
 51
256.7594800848132
  0
LINE
  5
185A
330
1A
100
AcDbEntity
  8
ASSE
100
AcDbLine
 10
1759.713884625554
 20
1147.007108420898
 30
0.0
 11
1919.380588345551
 21
1055.595790523368
 31
0.0
  0
CIRCLE
  5
185B
330
1A
100
AcDbEntity
  8
0
100
AcDbCircle
 10
1920.117485873947
 20
1054.567784627673
 30
0.0
 40
40.0
  0
ARC
  5
185C
330
1A
100
AcDbEntity
  8
COSTRUZIONE
100
AcDbCircle
 10
1791.203286645715
 20
1128.549926609672
 30
0.0
 40
35.0
100
AcDbArc
 50
233.9624397877397
 51
65.02348311376799
  0
ARC
  5
185D
330
1A
100
AcDbEntity
  8
COSTRUZIONE
100
AcDbCircle
 10
2053.005305937627
 20
1126.843828182011
 30
0.0
 40
35.0
100
AcDbArc
 50
163.5286087754472
 51
300.1585320886967
  0
ARC
  5
1862
330
1A
100
AcDbEntity
  8
0
100
AcDbCircle
 10
2550.117485873949
 20
1053.567784627672
 30
0.0
 40
156.348968656656
100
AcDbArc
 50
42.93618027154349
 51
84.10647076793543
  0
ARC
  5
1863
330
1A
100
AcDbEntity
  8
0
100
AcDbCircle
 10
2550.117485873947
 20
1053.567784627673
 30
0.0
 40
179.6218249545416
100
AcDbArc
 50
161.1615664420192
 51
270.0
  0
ARC
  5
1864
330
1A
100
AcDbEntity
  8
0
100
AcDbCircle
 10
2550.117485873949
 20
1053.567784627672
 30
0.0
 40
156.348968656656
100
AcDbArc
 50
163.6518284526487
 51
257.3913932066332
  0
LINE
  5
1865
330
1A
100
AcDbEntity
  8
ASSE
100
AcDbLine
 10
2387.500576469394
 20
1144.88585937584
 30
0.0
 11
2550.427864903022
 21
1052.098964033449
 31
0.0
  0
ARC
  5
1866
330
1A
100
AcDbEntity
  8
COSTRUZIONE
100
AcDbCircle
 10
2419.229665810266
 20
1126.843828182011
 30
0.0
 40
35.0
100
AcDbArc
 50
236.862429065626
 51
16.47139122455272
  0
ARC
  5
1869
330
1A
100
AcDbEntity
  8
ASSE
100
AcDbCircle
 10
2549.62318364946
 20
1052.698494508745
 30
0.0
 40
150.0
100
AcDbArc
 50
138.7263605299421
 51
140.0149939222705
  0
ARC
  5
186A
330
1A
100
AcDbEntity
  8
0
100
AcDbCircle
 10
2550.117485873949
 20
1053.567784627672
 30
0.0
 40
156.348968656656
100
AcDbArc
 50
283.2405199151867
 51
17.39751288560531
  0
LINE
  5
186B
330
1A
100
AcDbEntity
  8
ASSE
100
AcDbLine
 10
2550.847887356641
 20
866.2025157294982
 30
0.0
 11
2550.427864903022
 21
1052.098964033449
 31
0.0
  0
LINE
  5
186C
330
1A
100
AcDbEntity
  8
ASSE
100
AcDbLine
 10
2710.521087122339
 20
1147.007108420898
 30
0.0
 11
2550.427864903022
 21
1052.098964033449
 31
0.0
  0
CIRCLE
  5
186D
330
1A
100
AcDbEntity
  8
0
100
AcDbCircle
 10
2550.117485873947
 20
1054.567784627673
 30
0.0
 40
40.0
  0
ARC
  5
186E
330
1A
100
AcDbEntity
  8
COSTRUZIONE
100
AcDbCircle
 10
2679.031685102178
 20
1128.549926609672
 30
0.0
 40
35.0
100
AcDbArc
 50
114.976516886232
 51
306.0375602122602
  0
LINE
  5
1879
330
1A
100
AcDbEntity
  8
0
100
AcDbLine
 10
1920.117485873947
 20
873.945959673132
 30
0.0
 11
1919.386853742637
 21
873.945959673132
 31
0.0
  0
LINE
  5
187A
330
1A
100
AcDbEntity
  8
0
100
AcDbLine
 10
1370.117485873946
 20
873.945959673132
 30
0.0
 11
1370.117485873946
 21
773.9459596731319
 31
0.0
  0
LINE
  5
187B
330
1A
100
AcDbEntity
  8
0
100
AcDbLine
 10
1370.117485873946
 20
773.9459596731319
 30
0.0
 11
1370.270872269167
 21
773.9459596731319
 31
0.0
  0
LINE
  5
187C
330
1A
100
AcDbEntity
  8
0
100
AcDbLine
 10
1920.293224027606
 20
773.9459596731319
 30
0.0
 11
1920.293224027606
 21
789.5355206306494
 31
0.0
  0
LINE
  5
187D
330
1A
100
AcDbEntity
  8
0
100
AcDbLine
 10
1257.647792452941
 20
842.3064437974185
 30
0.0
 11
1075.14257686976
 21
842.3064437974186
 31
0.0
  0
LINE
  5
187F
330
1A
100
AcDbEntity
  8
0
100
AcDbLine
 10
1370.270872269167
 20
871.5462330884811
 30
0.0
 11
1258.253692493845
 21
871.5462330884811
 31
0.0
  0
LINE
  5
1880
330
1A
100
AcDbEntity
  8
0
100
AcDbLine
 10
1258.253692493845
 20
871.5462330884811
 30
0.0
 11
1258.253692493845
 21
753.4710096648695
 31
0.0
  0
LINE
  5
1881
330
1A
100
AcDbEntity
  8
0
100
AcDbLine
 10
1258.253692493845
 20
753.4710096648695
 30
0.0
 11
1370.270872269167
 21
753.4710096648695
 31
0.0
  0
LINE
  5
1882
330
1A
100
AcDbEntity
  8
0
100
AcDbLine
 10
1370.270872269167
 20
753.4710096648695
 30
0.0
 11
1370.270872269167
 21
775.4503802588751
 31
0.0
  0
ARC
  5
188D
330
1A
100
AcDbEntity
  8
0
100
AcDbCircle
 10
1892.617485873939
 20
892.8952917640119
 30
0.0
 40
33.39651458895668
100
AcDbArc
 50
214.5694300495725
 51
325.4305699504409
  0
ARC
  5
188E
330
1A
100
AcDbEntity
  8
0
100
AcDbCircle
 10
1782.584002651019
 20
892.8952917640119
 30
0.0
 40
33.39651458895668
100
AcDbArc
 50
214.5694300495725
 51
325.4305699504409
  0
ARC
  5
188F
330
1A
100
AcDbEntity
  8
0
100
AcDbCircle
 10
1672.674237133545
 20
892.8952917640119
 30
0.0
 40
33.39651458895668
100
AcDbArc
 50
214.5694300495725
 51
325.4305699504409
  0
ARC
  5
1890
330
1A
100
AcDbEntity
  8
0
100
AcDbCircle
 10
1562.637050801729
 20
892.8952917640119
 30
0.0
 40
33.39651458895668
100
AcDbArc
 50
214.5694300495725
 51
325.4305699504409
  0
ARC
  5
1891
330
1A
100
AcDbEntity
  8
0
100
AcDbCircle
 10
1452.678913454995
 20
892.8952917640119
 30
0.0
 40
33.39651458895668
100
AcDbArc
 50
214.5694300495725
 51
325.4305699504409
  0
LINE
  5
1894
330
1A
100
AcDbEntity
  8
0
100
AcDbLine
 10
1535.180770597999
 20
873.945959673132
 30
0.0
 11
1480.117485873946
 21
873.945959673132
 31
0.0
  0
LINE
  5
1896
330
1A
100
AcDbEntity
  8
0
100
AcDbLine
 10
1645.031937922864
 20
873.945959673132
 30
0.0
 11
1590.117485873945
 21
873.945959673132
 31
0.0
  0
LINE
  5
1898
330
1A
100
AcDbEntity
  8
0
100
AcDbLine
 10
1755.117485873944
 20
873.945959673132
 30
0.0
 11
1700.117485873944
 21
873.945959673132
 31
0.0
  0
LINE
  5
189A
330
1A
100
AcDbEntity
  8
0
100
AcDbLine
 10
1865.010514884957
 20
873.945959673132
 30
0.0
 11
1810.0095807249
 21
873.945959673132
 31
0.0
  0
ARC
  5
189C
330
1A
100
AcDbEntity
  8
0
100
AcDbCircle
 10
1397.426818420929
 20
755.5780486382436
 30
0.0
 40
33.39651458895668
100
AcDbArc
 50
34.56943004955906
 51
110.6990209265592
  0
ARC
  5
189D
330
1A
100
AcDbEntity
  8
0
100
AcDbCircle
 10
1507.384955767663
 20
755.5780486382436
 30
0.0
 40
33.39651458895668
100
AcDbArc
 50
34.56943004955906
 51
145.4305699504274
  0
ARC
  5
189E
330
1A
100
AcDbEntity
  8
0
100
AcDbCircle
 10
1617.422142099479
 20
755.5780486382436
 30
0.0
 40
33.39651458895668
100
AcDbArc
 50
34.56943004955906
 51
145.4305699504274
  0
ARC
  5
189F
330
1A
100
AcDbEntity
  8
0
100
AcDbCircle
 10
1727.331907616953
 20
755.5780486382436
 30
0.0
 40
33.39651458895668
100
AcDbArc
 50
34.56943004955906
 51
145.4305699504274
  0
ARC
  5
18A0
330
1A
100
AcDbEntity
  8
0
100
AcDbCircle
 10
1837.365390839873
 20
755.5780486382436
 30
0.0
 40
33.39651458895668
100
AcDbArc
 50
34.56943004955906
 51
145.4305699504274
  0
LINE
  5
18A2
330
1A
100
AcDbEntity
  8
0
100
AcDbLine
 10
1424.977948989031
 20
773.9459596731319
 30
0.0
 11
1480.230044023097
 21
773.9459596731319
 31
0.0
  0
LINE
  5
18A4
330
1A
100
AcDbEntity
  8
0
100
AcDbLine
 10
1534.477551446687
 20
773.9459596731319
 30
0.0
 11
1590.231923520325
 21
773.9459596731319
 31
0.0
  0
LINE
  5
18A6
330
1A
100
AcDbEntity
  8
0
100
AcDbLine
 10
1644.981719160596
 20
773.9459596731319
 30
0.0
 11
1700.233814194661
 21
773.9459596731319
 31
0.0
  0
LINE
  5
18A8
330
1A
100
AcDbEntity
  8
0
100
AcDbLine
 10
1755.184507238229
 20
773.9459596731319
 30
0.0
 11
1809.9343028785
 21
773.9459596731319
 31
0.0
  0
LINE
  5
18AA
330
1A
100
AcDbEntity
  8
0
100
AcDbLine
 10
1865.186386735454
 20
773.9459596731319
 30
0.0
 11
1920.293224027606
 21
773.9459596731319
 31
0.0
  0
LINE
  5
18AB
330
1A
100
AcDbEntity
  8
0
100
AcDbLine
 10
1425.117485873947
 20
873.945959673132
 30
0.0
 11
1370.22815334876
 21
856.8635545923116
 31
0.0
  0
LINE
  5
18AD
330
1A
100
AcDbEntity
  8
0
100
AcDbLine
 10
1385.622524486137
 20
786.8188205779928
 30
0.0
 11
1370.22815334876
 21
791.6097858099438
 31
0.0
  0
LINE
  5
18B0
330
1A
100
AcDbEntity
  8
0
100
AcDbLine
 10
1865.279190292791
 20
774.236225331616
 30
0.0
 11
1920.117485873938
 21
873.945959673132
 31
0.0
  0
LINE
  5
18B1
330
1A
100
AcDbEntity
  8
0
100
AcDbLine
 10
1810.117485873944
 20
774.8881201466058
 30
0.0
 11
1865.117485873943
 21
873.9459596731279
 31
0.0
  0
LINE
  5
18B2
330
1A
100
AcDbEntity
  8
0
100
AcDbLine
 10
1810.117485873943
 20
873.945959673132
 30
0.0
 11
1755.081174841798
 21
774.8834344047045
 31
0.0
  0
LINE
  5
18B3
330
1A
100
AcDbEntity
  8
0
100
AcDbLine
 10
1755.117485873944
 20
873.8974591817136
 30
0.0
 11
1700.117485873944
 21
773.9459596731319
 31
0.0
  0
LINE
  5
18B4
330
1A
100
AcDbEntity
  8
0
100
AcDbLine
 10
1700.117485873944
 20
873.8638628827393
 30
0.0
 11
1645.117485873945
 21
773.9459596731319
 31
0.0
  0
LINE
  5
18B5
330
1A
100
AcDbEntity
  8
0
100
AcDbLine
 10
1645.142211305577
 20
873.9072385654926
 30
0.0
 11
1590.117485873945
 21
773.9459596731319
 31
0.0
  0
LINE
  5
18B6
330
1A
100
AcDbEntity
  8
0
100
AcDbLine
 10
1590.117485873945
 20
873.9175976224133
 30
0.0
 11
1535.117485873946
 21
773.9459596731319
 31
0.0
  0
LINE
  5
18B7
330
1A
100
AcDbEntity
  8
0
100
AcDbLine
 10
1425.117485873947
 20
873.945959673132
 30
0.0
 11
1370.019566092707
 21
792.0346200580179
 31
0.0
  0
LINE
  5
18B8
330
1A
100
AcDbEntity
  8
0
100
AcDbLine
 10
1480.117485873946
 20
873.8571214133619
 30
0.0
 11
1425.117485873947
 21
773.9459596731319
 31
0.0
  0
LINE
  5
18B9
330
1A
100
AcDbEntity
  8
0
100
AcDbLine
 10
1480.117485873946
 20
773.9459596731319
 30
0.0
 11
1535.137050801729
 21
873.945959673132
 31
0.0
  0
LINE
  5
1A5F
330
1A
100
AcDbEntity
  8
0
100
AcDbLine
 10
746.3822751579319
 20
962.3064437974184
 30
0.0
 11
1035.108028304618
 21
962.3064437974184
 31
0.0
  0
LINE
  5
1A61
330
1A
100
AcDbEntity
  8
ASSE
100
AcDbLine
 10
704.6458574052321
 20
902.3064437974182
 30
0.0
 11
2017.062110256429
 21
902.3064437974184
 31
0.0
  0
LINE
  5
1A7B
330
1A
100
AcDbEntity
  8
0
100
AcDbLine
 10
3746.473041728914
 20
842.3064437974185
 30
0.0
 11
3576.592711506985
 21
842.3064437974185
 31
0.0
  0
CIRCLE
  5
1A81
330
1A
100
AcDbEntity
  8
0
100
AcDbCircle
 10
2235.373841902414
 20
1656.275658380694
 30
0.0
 40
50.0
  0
CIRCLE
  5
1A82
330
1A
100
AcDbEntity
  8
0
100
AcDbCircle
 10
2235.373841902414
 20
1656.275658380694
 30
0.0
 40
20.0
  0
CIRCLE
  5
1A83
330
1A
100
AcDbEntity
  8
0
100
AcDbCircle
 10
2235.373841902414
 20
1656.275658380694
 30
0.0
 40
45.366219281359
  0
CIRCLE
  5
1A84
330
1A
100
AcDbEntity
  8
0
100
AcDbCircle
 10
2235.373841902414
 20
1656.275658380694
 30
0.0
 40
95.96700963406238
  0
ARC
  5
1A85
330
1A
100
AcDbEntity
  8
0
100
AcDbCircle
 10
2235.402963008734
 20
1656.669989437951
 30
0.0
 40
453.64767696887
100
AcDbArc
 50
106.8682734051795
 51
163.1359399495666
  0
ARC
  5
1A86
330
1A
100
AcDbEntity
  8
0
100
AcDbCircle
 10
2235.402963008734
 20
1656.669989437951
 30
0.0
 40
241.9240707484811
100
AcDbArc
 50
112.4514955241157
 51
157.555394331623
  0
LINE
  5
1A8B
330
1A
100
AcDbEntity
  8
0
100
AcDbLine
 10
2315.373853079525
 20
2052.537879266572
 30
0.0
 11
2315.373853079525
 21
1898.765094667092
 31
0.0
  0
LINE
  5
1A8C
330
1A
100
AcDbEntity
  8
0
100
AcDbLine
 10
2155.373853079525
 20
2052.520230604158
 30
0.0
 11
2155.373853079525
 21
1898.741045130748
 31
0.0
  0
LINE
  5
1A8D
330
1A
100
AcDbEntity
  8
0
100
AcDbLine
 10
2155.373853079525
 20
1414.598933745155
 30
0.0
 11
2155.373853079525
 21
1260.819748271745
 31
0.0
  0
LINE
  5
1A8E
330
1A
100
AcDbEntity
  8
0
100
AcDbLine
 10
2315.373853079524
 20
1414.574884208811
 30
0.0
 11
2315.373853079524
 21
1260.802099609331
 31
0.0
  0
ARC
  5
1A91
330
1A
100
AcDbEntity
  8
0
100
AcDbCircle
 10
2235.402963008734
 20
1656.669989437951
 30
0.0
 40
241.9240707484811
100
AcDbArc
 50
292.4377161548643
 51
337.555394331623
  0
ARC
  5
1A93
330
1A
100
AcDbEntity
  8
0
100
AcDbCircle
 10
2235.402963008734
 20
1656.669989437951
 30
0.0
 40
453.64767696887
100
AcDbArc
 50
286.8598467896084
 51
343.1359399495667
  0
LINE
  5
1A94
330
1A
100
AcDbEntity
  8
0
100
AcDbLine
 10
1839.543896342651
 20
1736.669989437952
 30
0.0
 11
1993.319880498917
 21
1736.669989437952
 31
0.0
  0
LINE
  5
1A95
330
1A
100
AcDbEntity
  8
0
100
AcDbLine
 10
1839.543896342651
 20
1576.669989437951
 30
0.0
 11
1993.319880498917
 21
1576.669989437951
 31
0.0
  0
LINE
  5
1A96
330
1A
100
AcDbEntity
  8
0
100
AcDbLine
 10
2477.486045518551
 20
1576.669989437951
 30
0.0
 11
2631.262029674817
 21
1576.669989437951
 31
0.0
  0
LINE
  5
1A97
330
1A
100
AcDbEntity
  8
0
100
AcDbLine
 10
2477.486045518551
 20
1736.669989437952
 30
0.0
 11
2631.262029674818
 21
1736.669989437952
 31
0.0
  0
ARC
  5
1A99
330
1A
100
AcDbEntity
  8
0
100
AcDbCircle
 10
2235.402963008734
 20
1656.669989437951
 30
0.0
 40
241.9240707484811
100
AcDbArc
 50
202.4446056683769
 51
247.5485044758841
  0
ARC
  5
1A9B
330
1A
100
AcDbEntity
  8
0
100
AcDbCircle
 10
2235.402963008734
 20
1656.669989437951
 30
0.0
 40
453.64767696887
100
AcDbArc
 50
196.8640600504333
 51
253.1317265948204
  0
ARC
  5
1A9C
330
1A
100
AcDbEntity
  8
0
100
AcDbCircle
 10
2235.402963008734
 20
1656.669989437951
 30
0.0
 40
241.9240707484811
100
AcDbArc
 50
22.44460566837696
 51
67.56228384513554
  0
ARC
  5
1A9D
330
1A
100
AcDbEntity
  8
0
100
AcDbCircle
 10
2235.402963008734
 20
1656.669989437951
 30
0.0
 40
453.64767696887
100
AcDbArc
 50
16.86406005043325
 51
73.1401532103915
  0
ARC
  5
1A9E
330
1A
100
AcDbEntity
  8
0
100
AcDbCircle
 10
1993.319880498917
 20
1556.669989437952
 30
0.0
 40
20.0
100
AcDbArc
 50
22.44460566838087
 51
89.99999999999934
  0
ARC
  5
1A9F
330
1A
100
AcDbEntity
  8
0
100
AcDbCircle
 10
2135.373853079524
 20
1414.598933745155
 30
0.0
 40
20.0
100
AcDbArc
 50
0.0
 51
67.54850447588463
  0
ARC
  5
1AA0
330
1A
100
AcDbEntity
  8
0
100
AcDbCircle
 10
2335.373853079525
 20
1414.574884208811
 30
0.0
 40
20.0
100
AcDbArc
 50
112.4377161548639
 51
180.0
  0
ARC
  5
1AA1
330
1A
100
AcDbEntity
  8
0
100
AcDbCircle
 10
2477.486045518551
 20
1556.669989437952
 30
0.0
 40
20.0
100
AcDbArc
 50
90.0
 51
157.5553943316191
  0
ARC
  5
1AA2
330
1A
100
AcDbEntity
  8
0
100
AcDbCircle
 10
2477.486045518551
 20
1756.669989437951
 30
0.0
 40
20.0
100
AcDbArc
 50
202.4446056683808
 51
270.0
  0
ARC
  5
1AA3
330
1A
100
AcDbEntity
  8
0
100
AcDbCircle
 10
2477.486045518551
 20
1756.669989437952
 30
0.0
 40
20.0
100
AcDbArc
 50
202.4446056683808
 51
270.0
  0
ARC
  5
1AA4
330
1A
100
AcDbEntity
  8
0
100
AcDbCircle
 10
2477.486045518551
 20
1756.669989437952
 30
0.0
 40
20.0
100
AcDbArc
 50
202.4446056683808
 51
270.0
  0
ARC
  5
1AA5
330
1A
100
AcDbEntity
  8
0
100
AcDbCircle
 10
2335.373853079525
 20
1898.765094667092
 30
0.0
 40
20.0
100
AcDbArc
 50
180.0
 51
247.562283845136
  0
ARC
  5
1AA6
330
1A
100
AcDbEntity
  8
0
100
AcDbCircle
 10
2135.373853079525
 20
1898.741045130748
 30
0.0
 40
20.0
100
AcDbArc
 50
292.4514955241159
 51
0.0000000000006514
  0
ARC
  5
1AA7
330
1A
100
AcDbEntity
  8
0
100
AcDbCircle
 10
1993.319880498917
 20
1756.669989437952
 30
0.0
 40
20.0
100
AcDbArc
 50
270.0000000000006
 51
337.555394331619
  0
ARC
  5
1AA8
330
1A
100
AcDbEntity
  8
0
100
AcDbCircle
 10
1839.543896342651
 20
1776.669989437952
 30
0.0
 40
40.0
100
AcDbArc
 50
163.1359399495668
 51
270.0
  0
ARC
  5
1AA9
330
1A
100
AcDbEntity
  8
0
100
AcDbCircle
 10
1839.543896342651
 20
1536.669989437952
 30
0.0
 40
40.0
100
AcDbArc
 50
90.0
 51
196.8640600504331
  0
ARC
  5
1AAA
330
1A
100
AcDbEntity
  8
0
100
AcDbCircle
 10
2115.373853079524
 20
2052.520230604158
 30
0.0
 40
40.0
100
AcDbArc
 50
0.0
 51
106.8682734051795
  0
ARC
  5
1AAB
330
1A
100
AcDbEntity
  8
0
100
AcDbCircle
 10
2355.373853079525
 20
2052.537879266572
 30
0.0
 40
40.0
100
AcDbArc
 50
73.14015321039173
 51
180.0
  0
ARC
  5
1AAC
330
1A
100
AcDbEntity
  8
0
100
AcDbCircle
 10
2631.262029674818
 20
1776.669989437951
 30
0.0
 40
40.0
100
AcDbArc
 50
270.0
 51
16.86406005043325
  0
ARC
  5
1AAD
330
1A
100
AcDbEntity
  8
0
100
AcDbCircle
 10
2115.373853079524
 20
1260.819748271745
 30
0.0
 40
40.0
100
AcDbArc
 50
253.13172659482
 51
0.0
  0
ARC
  5
1AAE
330
1A
100
AcDbEntity
  8
0
100
AcDbCircle
 10
2355.373853079525
 20
1260.802099609331
 30
0.0
 40
40.0
100
AcDbArc
 50
180.0
 51
286.8598467896084
  0
ARC
  5
1AAF
330
1A
100
AcDbEntity
  8
0
100
AcDbCircle
 10
2631.262029674817
 20
1536.669989437952
 30
0.0
 40
40.0
100
AcDbArc
 50
343.1359399495666
 51
90.0
  0
INSERT
  5
1B9F
330
1A
100
AcDbEntity
  8
0
100
AcDbBlockReference
  2
A$C6
 10
2193.817474906884
 20
2923.153615274756
 30
0.0
  0
LINE
  5
1C15
330
1A
100
AcDbEntity
  8
0
100
AcDbLine
 10
1978.473050199521
 20
2151.001868467384
 30
0.0
 11
1978.46365695327
 21
2151.008626389979
 31
0.0
  0
LINE
  5
1C16
330
1A
100
AcDbEntity
  8
0
100
AcDbLine
 10
1978.584145588181
 20
2154.308507861423
 30
0.0
 11
1977.820181666486
 21
2154.858137766788
 31
0.0
  0
LINE
  5
1E39
330
1A
100
AcDbEntity
  8
0
100
AcDbLine
 10
1315.613043115709
 20
2809.580406700856
 30
0.0
 11
3286.608224274975
 21
2809.580406700856
 31
0.0
  0
LINE
  5
1E3A
330
1A
100
AcDbEntity
  8
0
100
AcDbLine
 10
1325.380482249846
 20
2769.493214216605
 30
0.0
 11
3286.608224274975
 21
2769.493214216605
 31
0.0
  0
LINE
  5
1E3D
330
1A
100
AcDbEntity
  8
0
 48
10.0
100
AcDbLine
 10
1325.140810491292
 20
2809.611569900822
 30
0.0
 11
1035.033163174696
 21
2809.611569900822
 31
0.0
  0
LINE
  5
1E40
330
1A
100
AcDbEntity
  8
0
 48
10.0
100
AcDbLine
 10
1325.242809518885
 20
2769.611569900822
 30
0.0
 11
1325.242809518885
 21
2809.611569900822
 31
0.0
  0
LINE
  5
1E42
330
1A
100
AcDbEntity
  8
0
 48
10.0
100
AcDbLine
 10
1325.242809518885
 20
2769.611569900822
 30
0.0
 11
1285.242809518885
 21
2769.611569900822
 31
0.0
  0
LINE
  5
1E46
330
1A
100
AcDbEntity
  8
0
 48
10.0
100
AcDbLine
 10
3286.594710534572
 20
2809.611569900822
 30
0.0
 11
3576.58717864437
 21
2809.611569900822
 31
0.0
  0
LINE
  5
1E47
330
1A
100
AcDbEntity
  8
0
 48
10.0
100
AcDbLine
 10
3286.492711506983
 20
2769.611569900822
 30
0.0
 11
3286.492711506983
 21
2809.611569900822
 31
0.0
  0
LINE
  5
1E49
330
1A
100
AcDbEntity
  8
0
 48
10.0
100
AcDbLine
 10
3286.492711506983
 20
2769.611569900822
 30
0.0
 11
3326.492711506983
 21
2769.611569900822
 31
0.0
  0
LINE
  5
1E4E
330
1A
100
AcDbEntity
  8
0
 48
10.0
100
AcDbLine
 10
3576.592711506985
 20
812.9071093208271
 30
0.0
 11
3576.592711506985
 21
523.3194647868189
 31
0.0
  0
LINE
  5
1E4F
330
1A
100
AcDbEntity
  8
0
 48
10.0
100
AcDbLine
 10
3576.592711506985
 20
2519.919167048856
 30
0.0
 11
3576.592711506985
 21
2809.50248834222
 31
0.0
  0
LINE
  5
1E51
330
1A
100
AcDbEntity
  8
0
100
AcDbLine
 10
3576.537647148276
 20
2519.025559558816
 30
0.0
 11
3576.592711506985
 21
812.9071093208271
 31
0.0
  0
LINE
  5
1E52
330
1A
100
AcDbEntity
  8
0
100
AcDbLine
 10
3536.544356453198
 20
2523.371756992869
 30
0.0
 11
3536.592711506981
 21
813.3147064688612
 31
0.0
  0
LINE
  5
1E57
330
1A
100
AcDbEntity
  8
0
 48
10.0
100
AcDbLine
 10
3536.592711506981
 20
773.3147064688613
 30
0.0
 11
3536.592711506981
 21
813.3147064688612
 31
0.0
  0
LINE
  5
1E59
330
1A
100
AcDbEntity
  8
0
 48
10.0
100
AcDbLine
 10
3536.592711506981
 20
813.3147064688612
 30
0.0
 11
3576.592711506985
 21
813.3147064688612
 31
0.0
  0
LINE
  5
1E5B
330
1A
100
AcDbEntity
  8
0
 48
10.0
100
AcDbLine
 10
3536.592711506981
 20
2559.511569900822
 30
0.0
 11
3536.592711506981
 21
2519.511569900822
 31
0.0
  0
LINE
  5
1E5D
330
1A
100
AcDbEntity
  8
0
 48
10.0
100
AcDbLine
 10
3536.592711506981
 20
2519.511569900822
 30
0.0
 11
3576.592711506985
 21
2519.511569900822
 31
0.0
  0
LINE
  5
1E63
330
1A
100
AcDbEntity
  8
0
100
AcDbLine
 10
3086.237819797835
 20
703.9720452549503
 30
0.0
 11
3086.237819797835
 21
523.9299940131862
 31
0.0
  0
LINE
  5
1E64
330
1A
100
AcDbEntity
  8
0
 48
10.0
100
AcDbLine
 10
3286.594710534572
 20
523.214706468861
 30
0.0
 11
3576.398692924932
 21
523.214706468861
 31
0.0
  0
LINE
  5
1E66
330
1A
100
AcDbEntity
  8
0
100
AcDbLine
 10
3571.679328437991
 20
703.9720452549503
 30
0.0
 11
3086.237819797835
 21
703.9720452549503
 31
0.0
  0
LINE
  5
1E67
330
1A
100
AcDbEntity
  8
0
100
AcDbLine
 10
1325.222404035985
 20
523.211065250672
 30
0.0
 11
3285.590238370728
 21
523.211065250672
 31
0.0
  0
LINE
  5
1E68
330
1A
100
AcDbEntity
  8
0
100
AcDbLine
 10
1325.242809518885
 20
563.2147064688609
 30
0.0
 11
3085.957346858445
 21
563.2316212224899
 31
0.0
  0
LINE
  5
1E6C
330
1A
100
AcDbEntity
  8
0
 48
10.0
100
AcDbLine
 10
1325.140810491292
 20
523.214706468861
 30
0.0
 11
1035.142809518883
 21
523.214706468861
 31
0.0
  0
LINE
  5
1E6F
330
1A
100
AcDbEntity
  8
0
 48
10.0
100
AcDbLine
 10
1325.242809518885
 20
563.2147064688609
 30
0.0
 11
1285.242809518885
 21
563.2147064688609
 31
0.0
  0
LINE
  5
1E71
330
1A
100
AcDbEntity
  8
0
 48
10.0
100
AcDbLine
 10
1325.242809518885
 20
563.2147064688609
 30
0.0
 11
1325.242809518885
 21
523.214706468861
 31
0.0
  0
LINE
  5
1E73
330
1A
100
AcDbEntity
  8
0
 48
10.0
100
AcDbLine
 10
1035.142809518883
 20
813.3216571735168
 30
0.0
 11
1035.142809518883
 21
523.3947168867128
 31
0.0
  0
LINE
  5
1E76
330
1A
100
AcDbEntity
  8
0
 48
10.0
100
AcDbLine
 10
1035.142809518883
 20
2519.919167048856
 30
0.0
 11
1035.142809518883
 21
2809.611569900822
 31
0.0
  0
LINE
  5
1E77
330
1A
100
AcDbEntity
  8
0
100
AcDbLine
 10
1075.142809518883
 20
813.3147064688612
 30
0.0
 11
1075.129111409202
 21
2520.314469446418
 31
0.0
  0
LINE
  5
1E78
330
1A
100
AcDbEntity
  8
0
100
AcDbLine
 10
1035.142809518883
 20
813.3216571735168
 30
0.0
 11
1035.108028304618
 21
2528.532405343639
 31
0.0
  0
LINE
  5
1E7B
330
1A
100
AcDbEntity
  8
0
 48
10.0
100
AcDbLine
 10
1075.142809518883
 20
813.3147064688612
 30
0.0
 11
1035.142809518883
 21
813.3147064688612
 31
0.0
  0
LINE
  5
1E7E
330
1A
100
AcDbEntity
  8
0
 48
10.0
100
AcDbLine
 10
1075.142809518883
 20
773.3147064688613
 30
0.0
 11
1075.142809518883
 21
813.3147064688612
 31
0.0
  0
LINE
  5
1E82
330
1A
100
AcDbEntity
  8
0
 48
10.0
100
AcDbLine
 10
1075.142809518883
 20
2519.511569900822
 30
0.0
 11
1035.142809518883
 21
2519.511569900822
 31
0.0
  0
LINE
  5
1E84
330
1A
100
AcDbEntity
  8
0
 48
10.0
100
AcDbLine
 10
1075.142809518883
 20
2559.511569900822
 30
0.0
 11
1075.142809518883
 21
2519.511569900822
 31
0.0
  0
TEXT
  5
255D
330
1A
100
AcDbEntity
  8
TESTO
100
AcDbText
 10
727.5650325037276
 20
2912.07245829752
 30
0.0
 40
48.0
  1
canelli
 41
0.8
  7
ROMANS
100
AcDbText
  0
LINE
  5
255F
330
1A
100
AcDbEntity
  8
SQUADRATURA
100
AcDbLine
 10
952.1288521493961
 20
3014.47773787654
 30
0.0
 11
-61.067233749156
 21
3014.477737876539
 31
0.0
  0
LINE
  5
2560
330
1A
100
AcDbEntity
  8
TESTO
100
AcDbLine
 10
-58.36449714913033
 20
2902.760448440194
 30
0.0
 11
924.2419243250342
 21
2902.760448440194
 31
0.0
  0
LINE
  5
2561
330
1A
100
AcDbEntity
  8
TESTO
100
AcDbLine
 10
-58.36449714913033
 20
2891.666252922396
 30
0.0
 11
925.2035425258755
 21
2891.666252922396
 31
0.0
  0
TEXT
  5
2562
330
1A
100
AcDbEntity
  8
TESTO
100
AcDbText
 10
-51.94415976477467
 20
2488.138767470242
 30
0.0
 40
40.0
  1
7.500 B/h
 41
0.8
  7
ROMANS
100
AcDbText
  0
LINE
  5
2564
330
1A
100
AcDbEntity
  8
TESTO
100
AcDbLine
 10
-60.77154484778294
 20
1864.806496729397
 30
0.0
 11
470.3581792937102
 21
1864.806496729397
 31
0.0
  0
LINE
  5
2565
330
1A
100
AcDbEntity
  8
SQUADRATURA
100
AcDbLine
 10
-60.77154484778294
 20
1848.893571653739
 30
0.0
 11
555.5788800099945
 21
1848.788482462827
 31
0.0
  0
LINE
  5
2566
330
1A
100
AcDbEntity
  8
TESTO
100
AcDbLine
 10
-61.067233749156
 20
2481.736852733611
 30
0.0
 11
299.6288153829473
 21
2481.736852733611
 31
0.0
  0
LINE
  5
2567
330
1A
100
AcDbEntity
  8
TESTO
100
AcDbLine
 10
-61.067233749156
 20
2469.057772932135
 30
0.0
 11
299.6288153829473
 21
2469.057772932135
 31
0.0
  0
LINE
  5
2568
330
1A
100
AcDbEntity
  8
TESTO
100
AcDbLine
 10
-61.067233749156
 20
2238.71049718855
 30
0.0
 11
217.4901089501627
 21
2238.71049718855
 31
0.0
  0
LINE
  5
2569
330
1A
100
AcDbEntity
  8
TESTO
100
AcDbLine
 10
-61.067233749156
 20
2229.201185954429
 30
0.0
 11
217.4901089501627
 21
2229.201185954429
 31
0.0
  0
TEXT
  5
256A
330
1A
100
AcDbEntity
  8
TESTO
100
AcDbText
 10
-55.11969273526029
 20
2243.798495162528
 30
0.0
 40
40.0
  1
3000 mm
 41
0.8
  7
ROMANS
100
AcDbText
  0
LINE
  5
256B
330
1A
100
AcDbEntity
  8
TESTO
100
AcDbLine
 10
-61.067233749156
 20
2358.838243427973
 30
0.0
 11
443.4328925527834
 21
2358.838243427973
 31
0.0
  0
LINE
  5
256C
330
1A
100
AcDbEntity
  8
TESTO
100
AcDbLine
 10
-61.067233749156
 20
2127.945379082499
 30
0.0
 11
443.4328925527834
 21
2127.945379082499
 31
0.0
  0
LINE
  5
256D
330
1A
100
AcDbEntity
  8
TESTO
100
AcDbLine
 10
-61.067233749156
 20
2007.810528770348
 30
0.0
 11
467.4774691910425
 21
2007.810528770348
 31
0.0
  0
LINE
  5
256E
330
1A
100
AcDbEntity
  8
TESTO
100
AcDbLine
 10
-61.067233749156
 20
2344.574273810763
 30
0.0
 11
445.3561289544641
 21
2344.574273810763
 31
0.0
  0
LINE
  5
256F
330
1A
100
AcDbEntity
  8
TESTO
100
AcDbLine
 10
-61.067233749156
 20
2115.266299281022
 30
0.0
 11
443.4328925527834
 21
2115.266299281022
 31
0.0
  0
LINE
  5
2570
330
1A
100
AcDbEntity
  8
TESTO
100
AcDbLine
 10
-61.067233749156
 20
1993.546564685193
 30
0.0
 11
467.4774691910425
 21
1993.546564685193
 31
0.0
  0
TEXT
  5
2571
330
1A
100
AcDbEntity
  8
TESTO
100
AcDbText
 10
-55.11969273526029
 20
2364.382003047365
 30
0.0
 40
40.0
  1
LUNGHEZZA NASTRO
 41
0.8
  7
ROMANS
100
AcDbText
  0
TEXT
  5
2572
330
1A
100
AcDbEntity
  8
TESTO
100
AcDbText
 10
-58.29521686089265
 20
2135.907986700885
 30
0.0
 40
40.0
  1
DIMENSIONI NASTRO
 41
0.8
  7
ROMANS
100
AcDbText
  0
TEXT
  5
2573
330
1A
100
AcDbEntity
  8
TESTO
100
AcDbText
 10
-51.94415976477467
 20
2015.324478816049
 30
0.0
 40
40.0
  1
ALTEZZA 100 mm
 41
0.8
  7
ROMANS
100
AcDbText
  0
LINE
  5
2574
330
1A
100
AcDbEntity
  8
SQUADRATURA
100
AcDbLine
 10
-60.77154484778294
 20
2446.395355972336
 30
0.0
 11
555.5788800099945
 21
2446.395355972336
 31
0.0
  0
LINE
  5
2575
330
1A
100
AcDbEntity
  8
SQUADRATURA
100
AcDbLine
 10
-60.77154484778294
 20
2324.359183148322
 30
0.0
 11
555.5788800099945
 21
2324.359183148322
 31
0.0
  0
LINE
  5
2576
330
1A
100
AcDbEntity
  8
SQUADRATURA
100
AcDbLine
 10
-60.77154484778294
 20
2216.586974409461
 30
0.0
 11
555.5788800099945
 21
2216.586974409462
 31
0.0
  0
LINE
  5
2577
330
1A
100
AcDbEntity
  8
SQUADRATURA
100
AcDbLine
 10
-60.77154484778294
 20
2094.550807117502
 30
0.0
 11
555.5788800099945
 21
2094.550807117502
 31
0.0
  0
LINE
  5
2578
330
1A
100
AcDbEntity
  8
SQUADRATURA
100
AcDbLine
 10
-60.77154484778294
 20
1977.269287144521
 30
0.0
 11
555.5788800099945
 21
1977.269287144521
 31
0.0
  0
LINE
  5
2579
330
1A
100
AcDbEntity
  8
TESTO
100
AcDbLine
 10
-60.77154484778294
 20
1880.655350630285
 30
0.0
 11
468.4349428920295
 21
1880.655350630285
 31
0.0
  0
TEXT
  5
257A
330
1A
100
AcDbEntity
  8
TESTO
100
AcDbText
 10
-55.11969273526029
 20
1891.567719738964
 30
0.0
 40
40.0
  1
LARGHEZZA 120 mm
 41
0.8
  7
ROMANS
100
AcDbText
  0
TEXT
  5
257F
330
1A
100
AcDbEntity
  8
TESTO
100
AcDbText
 10
-61.47074098652502
 20
2913.354304278105
 30
0.0
 40
80.0
  1
ETICAP SYSTEM 
 41
0.8
  7
ROMANS
100
AcDbText
  0
LINE
  5
2580
330
1A
100
AcDbEntity
  8
SQUADRATURA
100
AcDbLine
 10
955.4688636762158
 20
2875.299067493315
 30
0.0
 11
-61.067233749156
 21
2875.299067493315
 31
0.0
  0
LINE
  5
2581
330
1A
100
AcDbEntity
  8
TESTO
100
AcDbLine
 10
-61.067233749156
 20
2796.788016704153
 30
0.0
 11
249.6313415041631
 21
2796.788016704153
 31
0.0
  0
LINE
  5
2582
330
1A
100
AcDbEntity
  8
TESTO
100
AcDbLine
 10
-61.067233749156
 20
2784.108931370621
 30
0.0
 11
249.6313415041631
 21
2784.108931370621
 31
0.0
  0
TEXT
  5
2583
330
1A
100
AcDbEntity
  8
TESTO
100
AcDbText
 10
-51.94415976477467
 20
2802.290539278427
 30
0.0
 40
40.0
  1
MODELLO
 41
0.8
  7
ROMANS
100
AcDbText
  0
TEXT
  5
2584
330
1A
100
AcDbEntity
  8
TESTO
100
AcDbText
 10
-55.11969273526029
 20
2700.746533201279
 30
0.0
 40
40.0
  1
PF3  10T 3S CA
 41
0.8
  7
ROMANS
100
AcDbText
  0
LINE
  5
2585
330
1A
100
AcDbEntity
  8
SQUADRATURA
100
AcDbLine
 10
-60.77154484778294
 20
2766.542197025394
 30
0.0
 11
555.5788800099945
 21
2766.542197025394
 31
0.0
  0
LINE
  5
2586
330
1A
100
AcDbEntity
  8
SQUADRATURA
100
AcDbLine
 10
-60.77154484778294
 20
2661.939762385944
 30
0.0
 11
555.5788800099945
 21
2661.939762385944
 31
0.0
  0
LINE
  5
2587
330
1A
100
AcDbEntity
  8
TESTO
100
AcDbLine
 10
-61.067233749156
 20
2694.492925214547
 30
0.0
 11
387.8137863284573
 21
2694.492925214547
 31
0.0
  0
LINE
  5
2588
330
1A
100
AcDbEntity
  8
TESTO
100
AcDbLine
 10
-61.067233749156
 20
2680.228955597336
 30
0.0
 11
385.4316056525131
 21
2680.228955597336
 31
0.0
  0
LINE
  5
2589
330
1A
100
AcDbEntity
  8
TESTO
100
AcDbLine
 10
-61.067233749156
 20
2575.561912074715
 30
0.0
 11
324.6275477458202
 21
2575.561912074715
 31
0.0
  0
LINE
  5
258A
330
1A
100
AcDbEntity
  8
SQUADRATURA
100
AcDbLine
 10
-60.77154484778294
 20
2560.50709631385
 30
0.0
 11
555.5788800099945
 21
2560.50709631385
 31
0.0
  0
LINE
  5
258B
330
1A
100
AcDbEntity
  8
TESTO
100
AcDbLine
 10
-61.067233749156
 20
2588.240997408247
 30
0.0
 11
324.6275477458202
 21
2588.240997408247
 31
0.0
  0
TEXT
  5
258C
330
1A
100
AcDbEntity
  8
TESTO
100
AcDbText
 10
-51.94415976477467
 20
2596.029275931883
 30
0.0
 40
40.0
  1
PRODUZIONE
 41
0.8
  7
ROMANS
100
AcDbText
  0
LINE
  5
258F
330
1A
100
AcDbEntity
  8
SQUADRATURA
100
AcDbLine
 10
955.4688636762158
 20
2875.299067493315
 30
0.0
 11
955.4688636762158
 21
3014.477737876539
 31
0.0
  0
LINE
  5
259C
330
1A
100
AcDbEntity
  8
0
100
AcDbLine
 10
1075.129111409202
 20
962.3064437974182
 30
0.0
 11
1794.117485873947
 21
962.3064437974184
 31
0.0
  0
LINE
  5
259D
330
1A
100
AcDbEntity
  8
0
100
AcDbLine
 10
1035.142809518883
 20
842.3064437974185
 30
0.0
 11
746.3822751579319
 21
842.3064437974185
 31
0.0
  0
DIMENSION
  5
25A2
330
1A
100
AcDbEntity
  8
QUOTA
100
AcDbDimension
  2
*D9
 10
3576.592711506985
 20
420.4681148442578
 30
0.0
 11
2305.867760512934
 21
447.4681148442577
 31
0.0
 70
    32
  1
2600 mm
  3
BASE
100
AcDbAlignedDimension
 13
1035.142809518883
 23
523.3947168867128
 33
0.0
 14
3576.592711506985
 24
523.3194647868189
 34
0.0
100
AcDbRotatedDimension
  0
MTEXT
  5
25CE
330
1A
100
AcDbEntity
  8
0
100
AcDbMText
 10
3113.707107751745
 20
683.1595587991081
 30
0.0
 40
50.0
 41
425.55
 71
     1
 72
     5
  1
 Quadro Elettrico
1001
ACAD
1000
MTEXTBEGIN
1070
    73
1070
     1
1070
    44
1040
1.0
1070
    74
1070
     0
1000
MTEXTEND
  0
LINE
  5
2622
330
1A
100
AcDbEntity
  8
0
100
AcDbLine
 10
3576.537647148276
 20
962.3064437974186
 30
0.0
 11
3746.475290598228
 21
962.3064437974184
 31
0.0
  0
LINE
  5
2623
330
1A
100
AcDbEntity
  8
0
100
AcDbLine
 10
3536.591891711515
 20
842.3064437974185
 30
0.0
 11
2550.117485873947
 21
842.3064437974185
 31
0.0
  0
DIMENSION
  5
263D
330
1A
100
AcDbEntity
  8
QUOTA
100
AcDbDimension
  2
*D10
 10
3746.473188300573
 20
299.0990018665743
 30
0.0
 11
2246.473188300573
 21
326.0990018665743
 31
0.0
 70
    32
  1
3000 mm
  3
BASE
100
AcDbAlignedDimension
 13
746.4731883005733
 23
842.3064437974185
 33
0.0
 14
3746.473188300573
 24
842.3064437974185
 34
0.0
100
AcDbRotatedDimension
  0
DIMENSION
  5
266E
330
1A
100
AcDbEntity
  8
QUOTA
100
AcDbDimension
  2
*D11
 10
659.9635863681414
 20
2809.611569900823
 30
0.0
 11
632.963586368141
 21
1666.413138184842
 31
0.0
 70
    32
  1
2290 mm
  3
BASE
100
AcDbAlignedDimension
 13
1035.142809518883
 23
523.214706468861
 33
0.0
 14
1035.142809518883
 24
2809.611569900822
 34
0.0
 50
90.0
100
AcDbRotatedDimension
  0
LINE
  5
26B2
330
1A
100
AcDbEntity
  8
SQUADRATURA
100
AcDbLine
 10
555.5788800099945
 20
1848.788482462827
 30
0.0
 11
555.5788800099945
 21
2875.299067493315
 31
0.0
  0
INSERT
  5
3085
330
1A
100
AcDbEntity
  8
COSTRUZIONE
100
AcDbBlockReference
  2
A$C36FE21C4
 10
2868.242644572584
 20
2040.573293500457
 30
0.0
 50
286.9940694147209
  0
INSERT
  5
3086
330
1A
100
AcDbEntity
  8
COSTRUZIONE
100
AcDbBlockReference
  2
A$C36FE21C4
 10
1948.741736345849
 20
2315.666774839525
 30
0.0
  0
INSERT
  5
3088
330
1A
100
AcDbEntity
  8
COSTRUZIONE
100
AcDbBlockReference
  2
A$C36FE21C4
 10
1494.164756415397
 20
1647.273384025546
 30
0.0
 50
81.67772412537029
  0
ENDSEC
  0
SECTION
  2
OBJECTS
  0
DICTIONARY
  5
C
330
0
100
AcDbDictionary
  3
ACAD_GROUP
350
D
  3
ACAD_LAYOUT
350
2034
  3
ACAD_MLINESTYLE
350
E
  3
ACAD_PLOTSETTINGS
350
2035
  3
ACAD_PLOTSTYLENAME
350
2032
  3
ACDBHEADERROUNDTRIPXREC
350
3099
  0
DICTIONARY
  5
30BB
330
1A
100
AcDbDictionary
280
     1
  3
ACAD_LAYOUTSELFREF
360
30BC
  0
DICTIONARY
  5
30B9
330
17
100
AcDbDictionary
280
     1
  3
ACAD_LAYOUTSELFREF
360
30BA
  0
DICTIONARY
  5
D
102
{ACAD_REACTORS
330
C
102
}
330
C
100
AcDbDictionary
  0
DICTIONARY
  5
2034
102
{ACAD_REACTORS
330
C
102
}
330
C
100
AcDbDictionary
  0
DICTIONARY
  5
E
102
{ACAD_REACTORS
330
C
102
}
330
C
100
AcDbDictionary
  3
STANDARD
350
13
  0
DICTIONARY
  5
2035
102
{ACAD_REACTORS
330
C
102
}
330
C
100
AcDbDictionary
  0
ACDBDICTIONARYWDFLT
  5
2032
102
{ACAD_REACTORS
330
C
102
}
330
C
100
AcDbDictionary
281
     1
  3
Normal
350
2033
100
AcDbDictionaryWithDefault
340
2033
  0
DICTIONARY
  5
3099
102
{ACAD_REACTORS
330
C
102
}
330
C
100
AcDbDictionary
  3
TSTACKALIGN
350
309A
  3
TSTACKSIZE
350
309B
  3
HYPERLINKBASE
350
309C
  3
STYLESHEET
350
309D
  3
LAYOUTDICT
350
309E
  3
PLOTSETDICT
350
309F
  3
PLOTSTYLNAMDICT
350
30A0
  3
LWETCUNION
350
30A1
  3
INSUNITS
350
30A2
  3
CEPSNTYPE
350
30A3
  3
FINGERPRINTGUID
350
30A4
  3
VERSIONGUID
350
30A5
  3
PSVPSCALE
350
30A6
  3
PUCSORTHOREF
350
30A7
  3
PUCSORTHOVIEW
350
30A8
  3
PUCSBASE
350
30A9
  3
PUCSORGTOP
350
30AA
  3
PUCSORGBOTTOM
350
30AB
  3
PUCSORGLEFT
350
30AC
  3
PUCSORGRIGHT
350
30AD
  3
PUCSORGFRONT
350
30AE
  3
PUCSORGBACK
350
30AF
  3
UCSORTHOREF
350
30B0
  3
UCSORTHOVIEW
350
30B1
  3
UCSBASE
350
30B2
  3
UCSORGTOP
350
30B3
  3
UCSORGBOTTOM
350
30B4
  3
UCSORGLEFT
350
30B5
  3
UCSORGRIGHT
350
30B6
  3
UCSORGFRONT
350
30B7
  3
UCSORGBACK
350
30B8
  0
XRECORD
  5
30BC
102
{ACAD_REACTORS
330
30BB
102
}
330
30BB
100
AcDbXrecord
340
1A
  0
XRECORD
  5
30BA
102
{ACAD_REACTORS
330
30B9
102
}
330
30B9
100
AcDbXrecord
340
17
  0
MLINESTYLE
  5
13
102
{ACAD_REACTORS
330
E
102
}
330
E
100
AcDbMlineStyle
  2
STANDARD
 70
     0
  3

 62
     0
 51
90.0
 52
90.0
 71
     2
 49
0.5
 62
   256
  6
BYLAYER
 49
-0.5
 62
   256
  6
BYLAYER
  0
ACDBPLACEHOLDER
  5
2033
102
{ACAD_REACTORS
330
2032
102
}
330
2032
100
AcDbPlaceHolder
280
     0
  0
XRECORD
  5
309A
102
{ACAD_REACTORS
330
3099
102
}
330
3099
100
AcDbXrecord
 90
        1
  0
XRECORD
  5
309B
102
{ACAD_REACTORS
330
3099
102
}
330
3099
100
AcDbXrecord
 90
       70
  0
XRECORD
  5
309C
102
{ACAD_REACTORS
330
3099
102
}
330
3099
100
AcDbXrecord
  1

  0
XRECORD
  5
309D
102
{ACAD_REACTORS
330
3099
102
}
330
3099
100
AcDbXrecord
  1
monochrome.ctb
  0
XRECORD
  5
309E
102
{ACAD_REACTORS
330
3099
102
}
330
3099
100
AcDbXrecord
340
2034
  0
XRECORD
  5
309F
102
{ACAD_REACTORS
330
3099
102
}
330
3099
100
AcDbXrecord
340
2035
  0
XRECORD
  5
30A0
102
{ACAD_REACTORS
330
3099
102
}
330
3099
100
AcDbXrecord
340
2032
  0
XRECORD
  5
30A1
102
{ACAD_REACTORS
330
3099
102
}
330
3099
100
AcDbXrecord
 90
    14877
  0
XRECORD
  5
30A2
102
{ACAD_REACTORS
330
3099
102
}
330
3099
100
AcDbXrecord
 90
        0
  0
XRECORD
  5
30A3
102
{ACAD_REACTORS
330
3099
102
}
330
3099
100
AcDbXrecord
 90
        0
  0
XRECORD
  5
30A4
102
{ACAD_REACTORS
330
3099
102
}
330
3099
100
AcDbXrecord
  1
{7B43DBFA-B9CF-46BA-92AD-2CE7D7AF0635}
  0
XRECORD
  5
30A5
102
{ACAD_REACTORS
330
3099
102
}
330
3099
100
AcDbXrecord
  1
{900C8975-A091-456F-BC22-D147620ABF2A}
  0
XRECORD
  5
30A6
102
{ACAD_REACTORS
330
3099
102
}
330
3099
100
AcDbXrecord
 40
0.0
  0
XRECORD
  5
30A7
102
{ACAD_REACTORS
330
3099
102
}
330
3099
100
AcDbXrecord
340
0
  0
XRECORD
  5
30A8
102
{ACAD_REACTORS
330
3099
102
}
330
3099
100
AcDbXrecord
 70
     0
  0
XRECORD
  5
30A9
102
{ACAD_REACTORS
330
3099
102
}
330
3099
100
AcDbXrecord
340
0
  0
XRECORD
  5
30AA
102
{ACAD_REACTORS
330
3099
102
}
330
3099
100
AcDbXrecord
 10
0.0
 20
0.0
 30
0.0
  0
XRECORD
  5
30AB
102
{ACAD_REACTORS
330
3099
102
}
330
3099
100
AcDbXrecord
 10
0.0
 20
0.0
 30
0.0
  0
XRECORD
  5
30AC
102
{ACAD_REACTORS
330
3099
102
}
330
3099
100
AcDbXrecord
 10
0.0
 20
0.0
 30
0.0
  0
XRECORD
  5
30AD
102
{ACAD_REACTORS
330
3099
102
}
330
3099
100
AcDbXrecord
 10
0.0
 20
0.0
 30
0.0
  0
XRECORD
  5
30AE
102
{ACAD_REACTORS
330
3099
102
}
330
3099
100
AcDbXrecord
 10
0.0
 20
0.0
 30
0.0
  0
XRECORD
  5
30AF
102
{ACAD_REACTORS
330
3099
102
}
330
3099
100
AcDbXrecord
 10
0.0
 20
0.0
 30
0.0
  0
XRECORD
  5
30B0
102
{ACAD_REACTORS
330
3099
102
}
330
3099
100
AcDbXrecord
340
0
  0
XRECORD
  5
30B1
102
{ACAD_REACTORS
330
3099
102
}
330
3099
100
AcDbXrecord
 70
     0
  0
XRECORD
  5
30B2
102
{ACAD_REACTORS
330
3099
102
}
330
3099
100
AcDbXrecord
340
0
  0
XRECORD
  5
30B3
102
{ACAD_REACTORS
330
3099
102
}
330
3099
100
AcDbXrecord
 10
0.0
 20
0.0
 30
0.0
  0
XRECORD
  5
30B4
102
{ACAD_REACTORS
330
3099
102
}
330
3099
100
AcDbXrecord
 10
0.0
 20
0.0
 30
0.0
  0
XRECORD
  5
30B5
102
{ACAD_REACTORS
330
3099
102
}
330
3099
100
AcDbXrecord
 10
0.0
 20
0.0
 30
0.0
  0
XRECORD
  5
30B6
102
{ACAD_REACTORS
330
3099
102
}
330
3099
100
AcDbXrecord
 10
0.0
 20
0.0
 30
0.0
  0
XRECORD
  5
30B7
102
{ACAD_REACTORS
330
3099
102
}
330
3099
100
AcDbXrecord
 10
0.0
 20
0.0
 30
0.0
  0
XRECORD
  5
30B8
102
{ACAD_REACTORS
330
3099
102
}
330
3099
100
AcDbXrecord
 10
0.0
 20
0.0
 30
0.0
  0
ENDSEC
  0
EOF
