  0
SECTION
  2
HEADER
  9
$ACADVER
  1
AC1014
  9
$ACADMAINTVER
 70
     9
  9
$DWGCODEPAGE
  3
ANSI_1252
  9
$INSBASE
 10
229.0
 20
50.0
 30
0.0
  9
$EXTMIN
 10
49.66920334108727
 20
49.85962897755598
 30
-0.0000075313934969
  9
$EXTMAX
 10
5890.330824319189
 20
4150.140390580218
 30
0.1234075325427839
  9
$LIMMIN
 10
0.0
 20
0.0
  9
$LIMMAX
 10
5940.0
 20
4200.0
  9
$ORTHOMODE
 70
     0
  9
$REGENMODE
 70
     1
  9
$FILLMODE
 70
     1
  9
$QTEXTMODE
 70
     0
  9
$MIRRTEXT
 70
     1
  9
$DRAGMODE
 70
     2
  9
$LTSCALE
 40
10.0
  9
$OSMODE
 70
    37
  9
$ATTMODE
 70
     1
  9
$TEXTSIZE
 40
60.0
  9
$TRACEWID
 40
0.05
  9
$TEXTSTYLE
  7
ROMANS
  9
$CLAYER
  8
0
  9
$CELTYPE
  6
BYLAYER
  9
$CECOLOR
 62
   256
  9
$CELTSCALE
 40
1.0
  9
$DELOBJ
 70
     1
  9
$DISPSILH
 70
     0
  9
$DIMSCALE
 40
1.0
  9
$DIMASZ
 40
3.0
  9
$DIMEXO
 40
2.0
  9
$DIMDLI
 40
10.0
  9
$DIMRND
 40
0.0
  9
$DIMDLE
 40
0.0
  9
$DIMEXE
 40
2.0
  9
$DIMTP
 40
0.1
  9
$DIMTM
 40
0.15
  9
$DIMTXT
 40
6.0
  9
$DIMCEN
 40
0.5
  9
$DIMTSZ
 40
0.0
  9
$DIMTOL
 70
     0
  9
$DIMLIM
 70
     0
  9
$DIMTIH
 70
     0
  9
$DIMTOH
 70
     0
  9
$DIMSE1
 70
     0
  9
$DIMSE2
 70
     0
  9
$DIMTAD
 70
     1
  9
$DIMZIN
 70
     8
  9
$DIMBLK
  1

  9
$DIMASO
 70
     1
  9
$DIMSHO
 70
     1
  9
$DIMPOST
  1

  9
$DIMAPOST
  1

  9
$DIMALT
 70
     0
  9
$DIMALTD
 70
     2
  9
$DIMALTF
 40
25.4
  9
$DIMLFAC
 40
1.0
  9
$DIMTOFL
 70
     1
  9
$DIMTVP
 40
0.0
  9
$DIMTIX
 70
     0
  9
$DIMSOXD
 70
     0
  9
$DIMSAH
 70
     0
  9
$DIMBLK1
  1

  9
$DIMBLK2
  1

  9
$DIMSTYLE
  2
BASE
  9
$DIMCLRD
 70
   256
  9
$DIMCLRE
 70
   256
  9
$DIMCLRT
 70
   254
  9
$DIMTFAC
 40
0.6666666666666666
  9
$DIMGAP
 40
1.0
  9
$DIMJUST
 70
     0
  9
$DIMSD1
 70
     0
  9
$DIMSD2
 70
     0
  9
$DIMTOLJ
 70
     1
  9
$DIMTZIN
 70
     0
  9
$DIMALTZ
 70
     0
  9
$DIMALTTZ
 70
     0
  9
$DIMFIT
 70
     5
  9
$DIMUPT
 70
     0
  9
$DIMUNIT
 70
     2
  9
$DIMDEC
 70
     0
  9
$DIMTDEC
 70
     0
  9
$DIMALTU
 70
     2
  9
$DIMALTTD
 70
     2
  9
$DIMTXSTY
  7
ROMANS
  9
$DIMAUNIT
 70
     0
  9
$LUNITS
 70
     2
  9
$LUPREC
 70
     2
  9
$SKETCHINC
 40
0.1
  9
$FILLETRAD
 40
20.0
  9
$AUNITS
 70
     1
  9
$AUPREC
 70
     3
  9
$MENU
  1
C:\promecad\acad
  9
$ELEVATION
 40
0.0
  9
$PELEVATION
 40
0.0
  9
$THICKNESS
 40
0.0
  9
$LIMCHECK
 70
     0
  9
$BLIPMODE
 70
     0
  9
$CHAMFERA
 40
90.0
  9
$CHAMFERB
 40
90.0
  9
$CHAMFERC
 40
0.0
  9
$CHAMFERD
 40
0.0
  9
$SKPOLY
 70
     0
  9
$TDCREATE
 40
2451059.566211632
  9
$TDUPDATE
 40
2453679.689087905
  9
$TDINDWG
 40
0.3668398032
  9
$TDUSRTIMER
 40
0.3668398032
  9
$USRTIMER
 70
     1
  9
$ANGBASE
 50
0.0
  9
$ANGDIR
 70
     0
  9
$PDMODE
 70
     0
  9
$PDSIZE
 40
0.0
  9
$PLINEWID
 40
0.0
  9
$COORDS
 70
     1
  9
$SPLFRAME
 70
     0
  9
$SPLINETYPE
 70
     6
  9
$SPLINESEGS
 70
     8
  9
$ATTDIA
 70
     0
  9
$ATTREQ
 70
     1
  9
$HANDLING
 70
 10241
  9
$HANDSEED
  5
17AC21874A38A5
  9
$SURFTAB1
 70
     6
  9
$SURFTAB2
 70
     6
  9
$SURFTYPE
 70
     6
  9
$SURFU
 70
     6
  9
$SURFV
 70
     6
  9
$UCSNAME
  2

  9
$UCSORG
 10
0.0
 20
0.0
 30
0.0
  9
$UCSXDIR
 10
1.0
 20
0.0
 30
0.0
  9
$UCSYDIR
 10
0.0
 20
1.0
 30
0.0
  9
$PUCSNAME
  2

  9
$PUCSORG
 10
0.0
 20
0.0
 30
0.0
  9
$PUCSXDIR
 10
1.0
 20
0.0
 30
0.0
  9
$PUCSYDIR
 10
0.0
 20
1.0
 30
0.0
  9
$USERI1
 70
    10
  9
$USERI2
 70
     1
  9
$USERI3
 70
     0
  9
$USERI4
 70
     2
  9
$USERI5
 70
     5
  9
$USERR1
 40
0.0
  9
$USERR2
 40
0.0
  9
$USERR3
 40
0.0
  9
$USERR4
 40
0.0
  9
$USERR5
 40
0.0
  9
$WORLDVIEW
 70
     1
  9
$SHADEDGE
 70
     3
  9
$SHADEDIF
 70
    70
  9
$TILEMODE
 70
     1
  9
$MAXACTVP
 70
    16
  9
$PINSBASE
 10
0.0
 20
0.0
 30
0.0
  9
$PLIMCHECK
 70
     0
  9
$PEXTMIN
 10
1.000000000000000E+20
 20
1.000000000000000E+20
 30
1.000000000000000E+20
  9
$PEXTMAX
 10
-1.000000000000000E+20
 20
-1.000000000000000E+20
 30
-1.000000000000000E+20
  9
$PLIMMIN
 10
0.0
 20
0.0
  9
$PLIMMAX
 10
12.0
 20
9.0
  9
$UNITMODE
 70
     0
  9
$VISRETAIN
 70
     0
  9
$PLINEGEN
 70
     0
  9
$PSLTSCALE
 70
     0
  9
$TREEDEPTH
 70
  3020
  9
$PICKSTYLE
 70
     1
  9
$CMLSTYLE
  2
STANDARD
  9
$CMLJUST
 70
     0
  9
$CMLSCALE
 40
1.0
  9
$PROXYGRAPHICS
 70
     1
  9
$MEASUREMENT
 70
     0
  0
ENDSEC
  0
SECTION
  2
CLASSES
  0
CLASS
  1
ACDBDICTIONARYWDFLT
  2
AcDbDictionaryWithDefault
  3
AutoCAD 2000
 90
        0
280
     0
281
     0
  0
CLASS
  1
ACDBPLACEHOLDER
  2
AcDbPlaceHolder
  3
AutoCAD 2000
 90
        0
280
     0
281
     0
  0
CLASS
  1
LAYOUT
  2
AcDbLayout
  3
AutoCAD 2000
 90
        0
280
     0
281
     0
  0
CLASS
  1
LONG_TRANSACTION
  2
AcDbLongTransaction
  3
AutoCAD 2000
 90
        0
280
     0
281
     0
  0
CLASS
  1
LWPOLYLINE
  2
AcDbPolyline
  3
AutoCAD 2000
 90
        0
280
     0
281
     1
  0
CLASS
  1
HATCH
  2
AcDbHatch
  3
AutoCAD 2000
 90
        0
280
     0
281
     1
  0
CLASS
  1
XRECORD
  2
AcDbXrecord
  3
AutoCAD 2000
 90
        0
280
     0
281
     0
  0
ENDSEC
  0
SECTION
  2
TABLES
  0
TABLE
  2
VPORT
  5
17AC21874A2FB9
330
0
100
AcDbSymbolTable
 70
     7
  0
VPORT
  5
17AC21874A387F
330
17AC21874A2FB9
100
AcDbSymbolTableRecord
100
AcDbViewportTableRecord
  2
*ACTIVE
 70
     0
 10
0.0
 20
0.0
 11
1.0
 21
1.0
 12
2970.000013830138
 22
2100.000009778887
 13
0.0
 23
0.0
 14
0.2
 24
0.2
 15
0.25
 25
0.25
 16
0.0
 26
0.0
 36
1.0
 17
0.0
 27
0.0
 37
0.0
 40
4147.591693467307
 41
1.828516377649325
 42
50.0
 43
0.0
 44
0.0
 50
0.0
 51
0.0
 71
     0
 72
   100
 73
     1
 74
     0
 75
     0
 76
     0
 77
     0
 78
     0
  0
ENDTAB
  0
TABLE
  2
LTYPE
  5
17AC21874A2FB6
330
0
100
AcDbSymbolTable
 70
     7
  0
LTYPE
  5
17AC21874A2FC3
330
17AC21874A2FB6
100
AcDbSymbolTableRecord
100
AcDbLinetypeTableRecord
  2
BYBLOCK
 70
     0
  3

 72
    65
 73
     0
 40
0.0
  0
LTYPE
  5
17AC21874A2FC4
330
17AC21874A2FB6
100
AcDbSymbolTableRecord
100
AcDbLinetypeTableRecord
  2
BYLAYER
 70
     0
  3

 72
    65
 73
     0
 40
0.0
  0
LTYPE
  5
17AC21874A2FC5
330
17AC21874A2FB6
100
AcDbSymbolTableRecord
100
AcDbLinetypeTableRecord
  2
CONTINUOUS
 70
     0
  3
Solid line
 72
    65
 73
     0
 40
0.0
  0
LTYPE
  5
17AC21874A2FD5
330
17AC21874A2FB6
100
AcDbSymbolTableRecord
100
AcDbLinetypeTableRecord
  2
ASSI5
 70
     0
  3
- . - . - . -
 72
    65
 73
     4
 40
10.0
 49
5.0
 74
     0
 49
-2.5
 74
     0
 49
0.0
 74
     0
 49
-2.5
 74
     0
  0
LTYPE
  5
17AC21874A2FD6
330
17AC21874A2FB6
100
AcDbSymbolTableRecord
100
AcDbLinetypeTableRecord
  2
ASSI10
 70
     0
  3
- . - . - . -
 72
    65
 73
     4
 40
20.0
 49
10.0
 74
     0
 49
-5.0
 74
     0
 49
0.0
 74
     0
 49
-5.0
 74
     0
  0
LTYPE
  5
17AC21874A2FD7
330
17AC21874A2FB6
100
AcDbSymbolTableRecord
100
AcDbLinetypeTableRecord
  2
TRATTO
 70
     0
  3
- - - - - - - - -
 72
    65
 73
     2
 40
5.0
 49
2.5
 74
     0
 49
-2.5
 74
     0
  0
LTYPE
  5
17AC21874A2FD8
330
17AC21874A2FB6
100
AcDbSymbolTableRecord
100
AcDbLinetypeTableRecord
  2
TRATTINO
 70
     0
  3
- - - - - - - - -
 72
    65
 73
     2
 40
3.0
 49
2.0
 74
     0
 49
-1.0
 74
     0
  0
LTYPE
  5
17AC21874A2FD9
330
17AC21874A2FB6
100
AcDbSymbolTableRecord
100
AcDbLinetypeTableRecord
  2
TRATTI1
 70
     0
  3
- - - - - - - - - - - - - - - - - - - - - -
 72
    65
 73
     2
 40
4.0
 49
2.5
 74
     0
 49
-1.5
 74
     0
  0
LTYPE
  5
17AC21874A2FDA
330
17AC21874A2FB6
100
AcDbSymbolTableRecord
100
AcDbLinetypeTableRecord
  2
ASSI
 70
     0
  3
assi
 72
    65
 73
     4
 40
17.0
 49
8.0
 74
     0
 49
-4.0
 74
     0
 49
1.0
 74
     0
 49
-4.0
 74
     0
  0
ENDTAB
  0
TABLE
  2
LAYER
  5
17AC21874A2FB3
330
0
100
AcDbSymbolTable
 70
    28
  0
LAYER
  5
17AC21874A2FC0
330
17AC21874A2FB3
100
AcDbSymbolTableRecord
100
AcDbLayerTableRecord
  2
0
 70
     0
 62
     7
  6
CONTINUOUS
  0
LAYER
  5
17AC21874A2FE0
330
17AC21874A2FB3
100
AcDbSymbolTableRecord
100
AcDbLayerTableRecord
  2
BOLLINI
 70
     0
 62
     4
  6
CONTINUOUS
  0
LAYER
  5
17AC21874A2FE1
330
17AC21874A2FB3
100
AcDbSymbolTableRecord
100
AcDbLayerTableRecord
  2
LINEAFIN
 70
     0
 62
     3
  6
CONTINUOUS
  0
LAYER
  5
17AC21874A2FE2
330
17AC21874A2FB3
100
AcDbSymbolTableRecord
100
AcDbLayerTableRecord
  2
FILETTO
 70
     0
 62
     3
  6
CONTINUOUS
  0
LAYER
  5
17AC21874A2FE3
330
17AC21874A2FB3
100
AcDbSymbolTableRecord
100
AcDbLayerTableRecord
  2
COSTRUZIONE
 70
     0
 62
     7
  6
CONTINUOUS
  0
LAYER
  5
17AC21874A2FE4
330
17AC21874A2FB3
100
AcDbSymbolTableRecord
100
AcDbLayerTableRecord
  2
TESTO
 70
     0
 62
   254
  6
CONTINUOUS
  0
LAYER
  5
17AC21874A2FE5
330
17AC21874A2FB3
100
AcDbSymbolTableRecord
100
AcDbLayerTableRecord
  2
FILETTONAS
 70
     0
 62
     3
  6
TRATTINO
  0
LAYER
  5
17AC21874A2FE6
330
17AC21874A2FB3
100
AcDbSymbolTableRecord
100
AcDbLayerTableRecord
  2
TOLLERANZE-G
 70
     0
 62
     3
  6
CONTINUOUS
  0
LAYER
  5
17AC21874A2FE7
330
17AC21874A2FB3
100
AcDbSymbolTableRecord
100
AcDbLayerTableRecord
  2
BULLONI
 70
     0
 62
    30
  6
CONTINUOUS
  0
LAYER
  5
17AC21874A2FE8
330
17AC21874A2FB3
100
AcDbSymbolTableRecord
100
AcDbLayerTableRecord
  2
VITE
 70
     0
 62
    30
  6
CONTINUOUS
  0
LAYER
  5
17AC21874A2FE9
330
17AC21874A2FB3
100
AcDbSymbolTableRecord
100
AcDbLayerTableRecord
  2
DADO
 70
     0
 62
    30
  6
CONTINUOUS
  0
LAYER
  5
17AC21874A2FEA
330
17AC21874A2FB3
100
AcDbSymbolTableRecord
100
AcDbLayerTableRecord
  2
CUSCINETTO
 70
     0
 62
   240
  6
CONTINUOUS
  0
LAYER
  5
17AC21874A2FEB
330
17AC21874A2FB3
100
AcDbSymbolTableRecord
100
AcDbLayerTableRecord
  2
SEDI
 70
     0
 62
     7
  6
CONTINUOUS
  0
LAYER
  5
17AC21874A2FEC
330
17AC21874A2FB3
100
AcDbSymbolTableRecord
100
AcDbLayerTableRecord
  2
FLANGIA
 70
     0
 62
     7
  6
CONTINUOUS
  0
LAYER
  5
17AC21874A2FED
330
17AC21874A2FB3
100
AcDbSymbolTableRecord
100
AcDbLayerTableRecord
  2
NASCOSTO
 70
     0
 62
     6
  6
TRATTINO
  0
LAYER
  5
17AC21874A2FEE
330
17AC21874A2FB3
100
AcDbSymbolTableRecord
100
AcDbLayerTableRecord
  2
SPINA
 70
     0
 62
     7
  6
CONTINUOUS
  0
LAYER
  5
17AC21874A2FEF
330
17AC21874A2FB3
100
AcDbSymbolTableRecord
100
AcDbLayerTableRecord
  2
SIMBOLO
 70
     0
 62
     4
  6
CONTINUOUS
  0
LAYER
  5
17AC21874A2FF0
330
17AC21874A2FB3
100
AcDbSymbolTableRecord
100
AcDbLayerTableRecord
  2
DISTINTA
 70
     0
 62
     7
  6
CONTINUOUS
  0
LAYER
  5
17AC21874A2FF1
330
17AC21874A2FB3
100
AcDbSymbolTableRecord
100
AcDbLayerTableRecord
  2
CARTIGLIO
 70
     0
 62
     9
  6
CONTINUOUS
  0
LAYER
  5
17AC21874A2FF2
330
17AC21874A2FB3
100
AcDbSymbolTableRecord
100
AcDbLayerTableRecord
  2
PROFILATO
 70
     0
 62
     7
  6
CONTINUOUS
  0
LAYER
  5
17AC21874A2FF3
330
17AC21874A2FB3
100
AcDbSymbolTableRecord
100
AcDbLayerTableRecord
  2
SQUADRATURA
 70
     0
 62
     9
  6
CONTINUOUS
  0
LAYER
  5
17AC21874A2FF4
330
17AC21874A2FB3
100
AcDbSymbolTableRecord
100
AcDbLayerTableRecord
  2
ASSE
 70
     0
 62
     1
  6
ASSI
  0
LAYER
  5
17AC21874A2FF5
330
17AC21874A2FB3
100
AcDbSymbolTableRecord
100
AcDbLayerTableRecord
  2
SEZIONE
 70
     0
 62
     4
  6
CONTINUOUS
  0
LAYER
  5
17AC21874A2FF6
330
17AC21874A2FB3
100
AcDbSymbolTableRecord
100
AcDbLayerTableRecord
  2
QUOTA
 70
     0
 62
     3
  6
CONTINUOUS
  0
LAYER
  5
17AC21874A2FF7
330
17AC21874A2FB3
100
AcDbSymbolTableRecord
100
AcDbLayerTableRecord
  2
TRAVE
 70
     0
 62
     7
  6
CONTINUOUS
  0
LAYER
  5
17AC21874A2FF8
330
17AC21874A2FB3
100
AcDbSymbolTableRecord
100
AcDbLayerTableRecord
  2
SALDATURA
 70
     0
 62
     2
  6
CONTINUOUS
  0
LAYER
  5
17AC21874A2FF9
330
17AC21874A2FB3
100
AcDbSymbolTableRecord
100
AcDbLayerTableRecord
  2
DEFPOINTS
 70
     0
 62
     7
  6
CONTINUOUS
  0
LAYER
  5
17AC21874A2FFA
330
17AC21874A2FB3
100
AcDbSymbolTableRecord
100
AcDbLayerTableRecord
  2
DATI
 70
     1
 62
   254
  6
CONTINUOUS
  0
ENDTAB
  0
TABLE
  2
STYLE
  5
17AC21874A2FB4
330
0
100
AcDbSymbolTable
 70
     5
  0
STYLE
  5
17AC21874A2FC1
330
17AC21874A2FB4
100
AcDbSymbolTableRecord
100
AcDbTextStyleTableRecord
  2
STANDARD
 70
     0
 40
0.0
 41
1.0
 50
0.0
 71
     0
 42
0.2
  3
TXT.SHX
  4

  0
STYLE
  5
17AC21874A2FD1
330
17AC21874A2FB4
100
AcDbSymbolTableRecord
100
AcDbTextStyleTableRecord
  2
SANSSERIFBOLD
 70
     0
 40
0.0
 41
1.0
 50
0.0
 71
     0
 42
2.5
  3
sasb____.pfb
  4

  0
STYLE
  5
17AC21874A2FD2
330
17AC21874A2FB4
100
AcDbSymbolTableRecord
100
AcDbTextStyleTableRecord
  2
ROMANS
 70
     0
 40
0.0
 41
0.8
 50
0.0
 71
     0
 42
60.0
  3
romans
  4

  0
STYLE
  5
17AC21874A2FD3
330
17AC21874A2FB4
100
AcDbSymbolTableRecord
100
AcDbTextStyleTableRecord
  2
ROMANC
 70
     0
 40
2.7
 41
0.8
 50
0.0
 71
     0
 42
8.808067653947915
  3
romanc
  4

  0
STYLE
  5
17AC21874A2FD4
330
17AC21874A2FB4
100
AcDbSymbolTableRecord
100
AcDbTextStyleTableRecord
  2
ROMANT
 70
     0
 40
3.5
 41
1.0
 50
0.0
 71
     0
 42
8.808067653947915
  3
romant
  4

  0
ENDTAB
  0
TABLE
  2
VIEW
  5
17AC21874A2FB7
330
0
100
AcDbSymbolTable
 70
     0
  0
ENDTAB
  0
TABLE
  2
UCS
  5
17AC21874A2FB8
330
0
100
AcDbSymbolTable
 70
     0
  0
ENDTAB
  0
TABLE
  2
APPID
  5
17AC21874A2FBA
330
0
100
AcDbSymbolTable
 70
     2
  0
APPID
  5
17AC21874A2FC2
330
17AC21874A2FBA
100
AcDbSymbolTableRecord
100
AcDbRegAppTableRecord
  2
ACAD
 70
     0
  0
APPID
  5
17AC21874A2FDD
330
17AC21874A2FBA
100
AcDbSymbolTableRecord
100
AcDbRegAppTableRecord
  2
AVE_RENDER
 70
     0
  0
ENDTAB
  0
TABLE
  2
DIMSTYLE
  5
17AC21874A2FBB
330
0
100
AcDbSymbolTable
 70
     2
  0
DIMSTYLE
105
17AC21874A2FDE
330
17AC21874A2FBB
100
AcDbSymbolTableRecord
100
AcDbDimStyleTableRecord
  2
SCALA-1
 70
     0
  3

  4

  5

  6

  7

 40
1.0
 41
3.0
 42
2.0
 43
10.0
 44
2.0
 45
0.0
 46
0.0
 47
0.1
 48
0.15
140
3.0
141
0.5
142
0.0
143
25.4
144
1.0
145
0.0
146
0.6666666666666666
147
1.0
 71
     0
 72
     0
 73
     0
 74
     0
 75
     0
 76
     0
 77
     1
 78
     8
170
     0
171
     2
172
     1
173
     0
174
     0
175
     0
176
   256
177
     5
178
     0
270
     2
271
     2
272
     2
273
     2
274
     2
340
17AC21874A2FD2
275
     1
280
     0
281
     0
282
     0
283
     1
284
     8
285
     8
286
     8
287
     5
288
     0
  0
DIMSTYLE
105
17AC21874A2FDF
102
{ACAD_REACTORS
330
17AC21874A325A
330
17AC21874A3272
330
17AC21874A335E
330
17AC21874A33A4
330
17AC21874A36B1
330
17AC21874A328A
102
}
330
17AC21874A2FBB
100
AcDbSymbolTableRecord
100
AcDbDimStyleTableRecord
  2
BASE
 70
     0
  3

  4

  5

  6

  7

 40
1.0
 41
3.0
 42
2.0
 43
10.0
 44
2.0
 45
0.0
 46
0.0
 47
0.1
 48
0.15
140
6.0
141
0.5
142
0.0
143
25.4
144
1.0
145
0.0
146
0.6666666666666666
147
1.0
 71
     0
 72
     0
 73
     0
 74
     0
 75
     0
 76
     0
 77
     1
 78
     8
170
     0
171
     2
172
     1
173
     0
174
     0
175
     0
176
   256
177
   256
178
   254
270
     2
271
     0
272
     0
273
     2
274
     2
340
17AC21874A2FD2
275
     0
280
     0
281
     0
282
     0
283
     1
284
     0
285
     0
286
     0
287
     5
288
     0
  0
ENDTAB
  0
TABLE
  2
BLOCK_RECORD
  5
17AC21874A2FB2
330
0
100
AcDbSymbolTable
 70
    24
  0
BLOCK_RECORD
  5
17AC21874A2FC9
102
{ACAD_XDICTIONARY
360
17AC21874A38A3
102
}
330
17AC21874A2FB2
100
AcDbSymbolTableRecord
100
AcDbBlockTableRecord
  2
*MODEL_SPACE
  0
BLOCK_RECORD
  5
17AC21874A2FC6
102
{ACAD_XDICTIONARY
360
17AC21874A38A1
102
}
330
17AC21874A2FB2
100
AcDbSymbolTableRecord
100
AcDbBlockTableRecord
  2
*PAPER_SPACE
  0
BLOCK_RECORD
  5
17AC21874A2FCD
330
17AC21874A2FB2
100
AcDbSymbolTableRecord
100
AcDbBlockTableRecord
  2
AVE_RENDER
  0
BLOCK_RECORD
  5
17AC21874A2FCE
330
17AC21874A2FB2
100
AcDbSymbolTableRecord
100
AcDbBlockTableRecord
  2
SCALA1
  0
BLOCK_RECORD
  5
17AC21874A2FCF
330
17AC21874A2FB2
100
AcDbSymbolTableRecord
100
AcDbBlockTableRecord
  2
FR0
  0
BLOCK_RECORD
  5
17AC21874A2FD0
330
17AC21874A2FB2
100
AcDbSymbolTableRecord
100
AcDbBlockTableRecord
  2
FR1
  0
BLOCK_RECORD
  5
17AC21874A324E
330
17AC21874A2FB2
100
AcDbSymbolTableRecord
100
AcDbBlockTableRecord
  2
*D4
  0
BLOCK_RECORD
  5
17AC21874A3266
330
17AC21874A2FB2
100
AcDbSymbolTableRecord
100
AcDbBlockTableRecord
  2
*D5
  0
BLOCK_RECORD
  5
17AC21874A327E
330
17AC21874A2FB2
100
AcDbSymbolTableRecord
100
AcDbBlockTableRecord
  2
*D6
  0
BLOCK_RECORD
  5
17AC21874A32D8
330
17AC21874A2FB2
100
AcDbSymbolTableRecord
100
AcDbBlockTableRecord
  2
A$C6
  0
BLOCK_RECORD
  5
17AC21874A32DE
330
17AC21874A2FB2
100
AcDbSymbolTableRecord
100
AcDbBlockTableRecord
  2
A$C1
  0
BLOCK_RECORD
  5
17AC21874A3352
330
17AC21874A2FB2
100
AcDbSymbolTableRecord
100
AcDbBlockTableRecord
  2
*D9
  0
BLOCK_RECORD
  5
17AC21874A3398
330
17AC21874A2FB2
100
AcDbSymbolTableRecord
100
AcDbBlockTableRecord
  2
*D10
  0
BLOCK_RECORD
  5
17AC21874A36B2
330
17AC21874A2FB2
100
AcDbSymbolTableRecord
100
AcDbBlockTableRecord
  2
*D11
  0
BLOCK_RECORD
  5
17AC21874A37FA
330
17AC21874A2FB2
100
AcDbSymbolTableRecord
100
AcDbBlockTableRecord
  2
A$C577153E3
  0
ENDTAB
  0
ENDSEC
  0
SECTION
  2
BLOCKS
  0
BLOCK
  5
17AC21874A2FFD
330
17AC21874A2FC9
100
AcDbEntity
  8
0
100
AcDbBlockBegin
  2
*MODEL_SPACE
 70
     0
 10
0.0
 20
0.0
 30
0.0
  3
*MODEL_SPACE
  1

  0
ENDBLK
  5
17AC21874A2FFE
330
17AC21874A2FC9
100
AcDbEntity
  8
0
100
AcDbBlockEnd
  0
BLOCK
  5
17AC21874A2FFB
330
17AC21874A2FC6
100
AcDbEntity
 67
     1
  8
0
100
AcDbBlockBegin
  2
*PAPER_SPACE
 70
     0
 10
0.0
 20
0.0
 30
0.0
  3
*PAPER_SPACE
  1

  0
ENDBLK
  5
17AC21874A2FFC
330
17AC21874A2FC6
100
AcDbEntity
 67
     1
  8
0
100
AcDbBlockEnd
  0
BLOCK
  5
14F
330
17AC21874A2FCD
100
AcDbEntity
  8
0
100
AcDbBlockBegin
  2
AVE_RENDER
 70
     0
 10
0.0
 20
0.0
 30
0.0
  3
AVE_RENDER
  1
AVE_RENDER
  0
ENDBLK
  5
150
330
17AC21874A2FCD
100
AcDbEntity
  8
0
100
AcDbBlockEnd
  0
BLOCK
  5
D132099F947
330
17AC21874A2FCE
100
AcDbEntity
  8
0
100
AcDbBlockBegin
  2
SCALA1
 70
     0
 10
0.0
 20
0.0
 30
0.0
  3
SCALA1
  1

  0
ENDBLK
  5
D132099FA65
330
17AC21874A2FCE
100
AcDbEntity
  8
0
100
AcDbBlockEnd
  0
BLOCK
  5
17AC21874A2E96
330
17AC21874A2FCF
100
AcDbEntity
  8
0
100
AcDbBlockBegin
  2
FR0
 70
     0
 10
0.0
 20
0.0
 30
0.0
  3
FR0
  1

  0
LINE
  5
17AC21874A2E97
330
17AC21874A2FCF
100
AcDbEntity
  8
0
 62
     0
100
AcDbLine
 10
-1.0
 20
0.0
 30
0.0
 11
0.0
 21
0.0
 31
0.0
  0
ENDBLK
  5
17AC21874A2E98
330
17AC21874A2FCF
100
AcDbEntity
  8
0
100
AcDbBlockEnd
  0
BLOCK
  5
17AC21874A2E9A
330
17AC21874A2FD0
100
AcDbEntity
  8
0
100
AcDbBlockBegin
  2
FR1
 70
     0
 10
0.0
 20
0.0
 30
0.0
  3
FR1
  1

  0
SOLID
  5
17AC21874A2E9B
330
17AC21874A2FD0
100
AcDbEntity
  8
0
  6
BYBLOCK
 62
     0
100
AcDbTrace
 10
-1.0
 20
0.1666666666666572
 30
0.0
 11
-1.0
 21
-0.1666666666666572
 31
0.0
 12
0.0
 22
0.0
 32
0.0
 13
0.0
 23
0.0
 33
0.0
  0
ENDBLK
  5
17AC21874A2E9C
330
17AC21874A2FD0
100
AcDbEntity
  8
0
100
AcDbBlockEnd
  0
BLOCK
  5
17AC21874A35C7
330
17AC21874A324E
100
AcDbEntity
  8
0
100
AcDbBlockBegin
  2
*D4
 70
     1
 10
0.0
 20
0.0
 30
0.0
  3
*D4
  1

  0
LINE
  5
17AC21874A3873
330
17AC21874A324E
100
AcDbEntity
  8
QUOTA
100
AcDbLine
 10
1459.720124083476
 20
1095.886941377047
 30
0.0
 11
1459.720124083476
 21
354.5716764626559
 31
0.0
  0
LINE
  5
17AC21874A3874
330
17AC21874A324E
100
AcDbEntity
  8
QUOTA
100
AcDbLine
 10
5461.200943052276
 20
1095.886941377047
 30
0.0
 11
5461.200943052276
 21
354.5716764626559
 31
0.0
  0
LINE
  5
17AC21874A3875
330
17AC21874A324E
100
AcDbEntity
  8
QUOTA
100
AcDbLine
 10
1489.720124083476
 20
374.5716764626558
 30
0.0
 11
5431.200943052275
 21
374.5716764626558
 31
0.0
  0
SOLID
  5
17AC21874A3876
330
17AC21874A324E
100
AcDbEntity
  8
QUOTA
100
AcDbTrace
 10
1489.720124083476
 20
379.5716764626559
 30
0.0
 11
1489.720124083476
 21
369.5716764626558
 31
0.0
 12
1459.720124083476
 22
374.5716764626558
 32
0.0
 13
1459.720124083476
 23
374.5716764626558
 33
0.0
  0
SOLID
  5
17AC21874A3877
330
17AC21874A324E
100
AcDbEntity
  8
QUOTA
100
AcDbTrace
 10
5431.200943052275
 20
379.5716764626559
 30
0.0
 11
5431.200943052275
 21
369.5716764626558
 31
0.0
 12
5461.200943052276
 22
374.5716764626558
 32
0.0
 13
5461.200943052276
 23
374.5716764626558
 33
0.0
  0
MTEXT
  5
17AC21874A3878
330
17AC21874A324E
100
AcDbEntity
  8
QUOTA
 62
   254
100
AcDbMText
 10
3460.460533567876
 20
414.5716764626558
 30
0.0
 40
60.0
 41
0.0
 71
     5
 72
     1
  1
\A1;4000 
  7
ROMANS
1001
ACAD
1000
MTEXTBEGIN
1070
    73
1070
     1
1070
    44
1040
1.0
1070
    74
1070
     0
1000
MTEXTEND
  0
POINT
  5
17AC21874A3879
330
17AC21874A324E
100
AcDbEntity
  8
DEFPOINTS
 62
     0
100
AcDbPoint
 10
1459.720124083476
 20
1115.886941377047
 30
0.0
  0
POINT
  5
17AC21874A387A
330
17AC21874A324E
100
AcDbEntity
  8
DEFPOINTS
 62
     0
100
AcDbPoint
 10
5461.200943052276
 20
1115.886941377047
 30
0.0
  0
POINT
  5
17AC21874A387B
330
17AC21874A324E
100
AcDbEntity
  8
DEFPOINTS
 62
     0
100
AcDbPoint
 10
5461.200943052276
 20
374.5716764626558
 30
0.0
  0
ENDBLK
  5
17AC21874A35D1
330
17AC21874A324E
100
AcDbEntity
  8
0
100
AcDbBlockEnd
  0
BLOCK
  5
17AC21874A35D2
330
17AC21874A3266
100
AcDbEntity
  8
0
100
AcDbBlockBegin
  2
*D5
 70
     1
 10
0.0
 20
0.0
 30
0.0
  3
*D5
  1

  0
LINE
  5
17AC21874A386A
330
17AC21874A3266
100
AcDbEntity
  8
QUOTA
100
AcDbLine
 10
2013.765642274373
 20
3051.9519172953
 30
0.0
 11
2013.765642274373
 21
3971.493841365278
 31
0.0
  0
LINE
  5
17AC21874A386B
330
17AC21874A3266
100
AcDbEntity
  8
QUOTA
100
AcDbLine
 10
5072.333521517046
 20
3051.9519172953
 30
0.0
 11
5072.333521517046
 21
3971.493841365278
 31
0.0
  0
LINE
  5
17AC21874A386C
330
17AC21874A3266
100
AcDbEntity
  8
QUOTA
100
AcDbLine
 10
2043.765642274373
 20
3951.493841365278
 30
0.0
 11
5042.333521517047
 21
3951.493841365278
 31
0.0
  0
SOLID
  5
17AC21874A386D
330
17AC21874A3266
100
AcDbEntity
  8
QUOTA
100
AcDbTrace
 10
2043.765642274373
 20
3956.493841365278
 30
0.0
 11
2043.765642274373
 21
3946.493841365278
 31
0.0
 12
2013.765642274373
 22
3951.493841365278
 32
0.0
 13
2013.765642274373
 23
3951.493841365278
 33
0.0
  0
SOLID
  5
17AC21874A386E
330
17AC21874A3266
100
AcDbEntity
  8
QUOTA
100
AcDbTrace
 10
5042.333521517047
 20
3956.493841365278
 30
0.0
 11
5042.333521517047
 21
3946.493841365278
 31
0.0
 12
5072.333521517046
 22
3951.493841365278
 32
0.0
 13
5072.333521517046
 23
3951.493841365278
 33
0.0
  0
MTEXT
  5
17AC21874A386F
330
17AC21874A3266
100
AcDbEntity
  8
QUOTA
 62
   254
100
AcDbMText
 10
3543.04958189571
 20
3991.493841365278
 30
0.0
 40
60.0
 41
0.0
 71
     5
 72
     1
  1
\A1;3060
  7
ROMANS
1001
ACAD
1000
MTEXTBEGIN
1070
    73
1070
     1
1070
    44
1040
1.0
1070
    74
1070
     0
1000
MTEXTEND
  0
POINT
  5
17AC21874A3870
330
17AC21874A3266
100
AcDbEntity
  8
DEFPOINTS
 62
     0
100
AcDbPoint
 10
2013.765642274373
 20
3031.9519172953
 30
0.0
  0
POINT
  5
17AC21874A3871
330
17AC21874A3266
100
AcDbEntity
  8
DEFPOINTS
 62
     0
100
AcDbPoint
 10
5072.333521517046
 20
3031.9519172953
 30
0.0
  0
POINT
  5
17AC21874A3872
330
17AC21874A3266
100
AcDbEntity
  8
DEFPOINTS
 62
     0
100
AcDbPoint
 10
5072.333521517046
 20
3951.493841365278
 30
0.0
  0
ENDBLK
  5
17AC21874A35DC
330
17AC21874A3266
100
AcDbEntity
  8
0
100
AcDbBlockEnd
  0
BLOCK
  5
17AC21874A35DD
330
17AC21874A327E
100
AcDbEntity
  8
0
100
AcDbBlockBegin
  2
*D6
 70
     1
 10
0.0
 20
0.0
 30
0.0
  3
*D6
  1

  0
LINE
  5
17AC21874A36D9
330
17AC21874A327E
100
AcDbEntity
  8
QUOTA
100
AcDbLine
 10
5630.021114149148
 20
2494.664733651712
 30
0.0
 11
5630.021114149148
 21
3626.654324831119
 31
0.0
  0
LINE
  5
17AC21874A36DA
330
17AC21874A327E
100
AcDbEntity
  8
QUOTA
100
AcDbLine
 10
1360.225501321885
 20
2050.576510080673
 30
0.0
 11
1360.225501321885
 21
3626.654324831119
 31
0.0
  0
LINE
  5
17AC21874A36DB
330
17AC21874A327E
100
AcDbEntity
  8
QUOTA
100
AcDbLine
 10
5600.021114149147
 20
3606.654324831119
 30
0.0
 11
1390.225501321885
 21
3606.654324831119
 31
0.0
  0
SOLID
  5
17AC21874A36DC
330
17AC21874A327E
100
AcDbEntity
  8
QUOTA
100
AcDbTrace
 10
5600.021114149147
 20
3611.654324831119
 30
0.0
 11
5600.021114149147
 21
3601.654324831119
 31
0.0
 12
5630.021114149148
 22
3606.654324831119
 32
0.0
 13
5630.021114149148
 23
3606.654324831119
 33
0.0
  0
SOLID
  5
17AC21874A36DD
330
17AC21874A327E
100
AcDbEntity
  8
QUOTA
100
AcDbTrace
 10
1390.225501321885
 20
3611.654324831119
 30
0.0
 11
1390.225501321885
 21
3601.654324831119
 31
0.0
 12
1360.225501321885
 22
3606.654324831119
 32
0.0
 13
1360.225501321885
 23
3606.654324831119
 33
0.0
  0
MTEXT
  5
17AC21874A36DE
330
17AC21874A327E
100
AcDbEntity
  8
QUOTA
 62
   254
100
AcDbMText
 10
3495.123307735516
 20
3646.654324831119
 30
0.0
 40
60.0
 41
0.0
 71
     5
 72
     1
  1
\A1;4270
  7
ROMANS
1001
ACAD
1000
MTEXTBEGIN
1070
    73
1070
     1
1070
    44
1040
1.0
1070
    74
1070
     0
1000
MTEXTEND
  0
POINT
  5
17AC21874A36DF
330
17AC21874A327E
100
AcDbEntity
  8
DEFPOINTS
 62
     0
100
AcDbPoint
 10
5630.021114149148
 20
2474.664733651712
 30
0.0
  0
POINT
  5
17AC21874A36E0
330
17AC21874A327E
100
AcDbEntity
  8
DEFPOINTS
 62
     0
100
AcDbPoint
 10
1360.225501321885
 20
2030.576510080673
 30
0.0
  0
POINT
  5
17AC21874A36E1
330
17AC21874A327E
100
AcDbEntity
  8
DEFPOINTS
 62
     0
100
AcDbPoint
 10
1360.225501321885
 20
3606.654324831119
 30
0.0
  0
ENDBLK
  5
17AC21874A35E7
330
17AC21874A327E
100
AcDbEntity
  8
0
100
AcDbBlockEnd
  0
BLOCK
  5
17AC21874A32DC
330
17AC21874A32D8
100
AcDbEntity
  8
0
100
AcDbBlockBegin
  2
A$C6
 70
     0
 10
0.0
 20
0.0
 30
0.0
  3
A$C6
  1

  0
LINE
  5
17AC21874A32D9
330
17AC21874A32D8
100
AcDbEntity
  8
0
100
AcDbLine
 10
1.900637218473519
 20
0.8165157741112096
 30
0.0
 11
1700.64860396784
 21
0.8165157741112096
 31
0.0
  0
LINE
  5
17AC21874A32DA
330
17AC21874A32D8
100
AcDbEntity
  8
0
100
AcDbLine
 10
1.900637218473519
 20
14.30680798376833
 30
0.0
 11
1700.64860396784
 21
14.30680798376833
 31
0.0
  0
TEXT
  5
17AC21874A32DB
330
17AC21874A32D8
100
AcDbEntity
  8
TESTO
100
AcDbText
 10
8.733529025279011
 20
25.88597534847285
 30
0.0
 40
25.0
  1
DATI NON INPEGNATIVI con la possibilità di modifica da parte del costruttore
  7
ROMANC
100
AcDbText
  0
ENDBLK
  5
17AC21874A32DD
330
17AC21874A32D8
100
AcDbEntity
  8
0
100
AcDbBlockEnd
  0
BLOCK
  5
17AC21874A32F4
330
17AC21874A32DE
100
AcDbEntity
  8
0
100
AcDbBlockBegin
  2
A$C1
 70
     0
 10
0.0
 20
0.0
 30
0.0
  3
A$C1
  1

  0
LINE
  5
17AC21874A32DF
330
17AC21874A32DE
100
AcDbEntity
  8
0
100
AcDbLine
 10
8.236120134431018
 20
2200.003732439194
 30
0.0
 11
816.0531799705594
 21
2200.003732439194
 31
0.0
  0
LINE
  5
17AC21874A32E0
330
17AC21874A32DE
100
AcDbEntity
  8
0
100
AcDbLine
 10
8.236120134431018
 20
2205.46726731254
 30
0.0
 11
810.5857158903518
 21
2205.46726731254
 31
0.0
  0
LINE
  5
17AC21874A32E1
330
17AC21874A32DE
100
AcDbEntity
  8
0
100
AcDbLine
 10
8.769371514955253
 20
2460.048318132843
 30
0.0
 11
1005.213752614609
 21
2460.048318132843
 31
0.0
  0
LINE
  5
17AC21874A32E2
330
17AC21874A32DE
100
AcDbEntity
  8
0
100
AcDbLine
 10
8.769371514955253
 20
2465.51185300619
 30
0.0
 11
1005.213752614609
 21
2465.51185300619
 31
0.0
  0
LINE
  5
17AC21874A32E3
330
17AC21874A32DE
100
AcDbEntity
  8
0
100
AcDbLine
 10
8.769371514955253
 20
2547.464847472593
 30
0.0
 11
905.4326279026399
 21
2547.464847472593
 31
0.0
  0
LINE
  5
17AC21874A32E4
330
17AC21874A32DE
100
AcDbEntity
  8
0
100
AcDbLine
 10
8.769371514955253
 20
2552.928382345939
 30
0.0
 11
904.0657737265656
 21
2552.928382345939
 31
0.0
  0
LINE
  5
17AC21874A32E5
330
17AC21874A32DE
100
AcDbEntity
  8
0
100
AcDbLine
 10
8.769371514955253
 20
2641.710793614414
 30
0.0
 11
1005.213752614609
 21
2641.710793614414
 31
0.0
  0
LINE
  5
17AC21874A32E6
330
17AC21874A32DE
100
AcDbEntity
  8
0
100
AcDbLine
 10
8.769371514955253
 20
2647.174328487761
 30
0.0
 11
1005.213752614609
 21
2647.174328487761
 31
0.0
  0
TEXT
  5
17AC21874A32E7
330
17AC21874A32DE
100
AcDbEntity
  8
TESTO
100
AcDbText
 10
2.829640692260852
 20
2211.965791873049
 30
0.0
 40
50.0
  1
Larghezza 120 mm
  7
ROMANC
100
AcDbText
  0
TEXT
  5
17AC21874A32E8
330
17AC21874A32DE
100
AcDbEntity
  8
TESTO
100
AcDbText
 10
3.362892072785086
 20
2652.767416947432
 30
0.0
 40
80.0
  1
ETICAP SYSTEM
  7
ROMANC
100
AcDbText
  0
LINE
  5
17AC21874A32E9
330
17AC21874A32DE
100
AcDbEntity
  8
0
100
AcDbLine
 10
8.769371514955253
 20
2282.483488437446
 30
0.0
 11
699.0360602224163
 21
2282.483488437446
 31
0.0
  0
LINE
  5
17AC21874A32EA
330
17AC21874A32DE
100
AcDbEntity
  8
0
100
AcDbLine
 10
8.769371514955253
 20
2287.947023310793
 30
0.0
 11
696.3023281823125
 21
2287.947023310793
 31
0.0
  0
LINE
  5
17AC21874A32EB
330
17AC21874A32DE
100
AcDbEntity
  8
0
100
AcDbLine
 10
8.769371514955253
 20
2375.363552650544
 30
0.0
 11
623.8585001834244
 21
2375.363552650544
 31
0.0
  0
LINE
  5
17AC21874A32EC
330
17AC21874A32DE
100
AcDbEntity
  8
0
100
AcDbLine
 10
8.769371514955253
 20
2380.82708752389
 30
0.0
 11
623.8585001834244
 21
2380.82708752389
 31
0.0
  0
TEXT
  5
17AC21874A32ED
330
17AC21874A32DE
100
AcDbEntity
  8
TESTO
100
AcDbText
 10
3.362892072785086
 20
2298.908462072176
 30
0.0
 40
50.0
  1
Altezza 100 mm
  7
ROMANC
100
AcDbText
  0
TEXT
  5
17AC21874A32EE
330
17AC21874A32DE
100
AcDbEntity
  8
TESTO
100
AcDbText
 10
3.362892072785086
 20
2390.787905612801
 30
0.0
 40
50.0
  1
Sezione nastro
  7
ROMANC
100
AcDbText
  0
TEXT
  5
17AC21874A32EF
330
17AC21874A32DE
100
AcDbEntity
  8
TESTO
100
AcDbText
 10
3.362892072785086
 20
2562.253848177083
 30
0.0
 40
50.0
  1
Modello PF3 8T 3S
  7
ROMANC
100
AcDbText
  0
TEXT
  5
17AC21874A32F0
330
17AC21874A32DE
100
AcDbEntity
  8
TESTO
100
AcDbText
 10
3.362892072785086
 20
2474.472057581079
 30
0.0
 40
50.0
  1
Lunghezza nastro 3000 mm
  7
ROMANC
100
AcDbText
  0
LINE
  5
17AC21874A32F1
330
17AC21874A32DE
100
AcDbEntity
  8
0
100
AcDbLine
 10
1005.213752614609
 20
2460.048318132843
 30
0.0
 11
1193.841085722114
 21
2460.048318132843
 31
0.0
  0
LINE
  5
17AC21874A32F2
330
17AC21874A32DE
100
AcDbEntity
  8
0
100
AcDbLine
 10
1005.213752614609
 20
2465.51185300619
 30
0.0
 11
1192.474219702061
 21
2465.51185300619
 31
0.0
  0
INSERT
  5
17AC21874A32F3
330
17AC21874A32DE
100
AcDbEntity
  8
0
100
AcDbBlockReference
  2
A$C6
 10
-0.8998026578256599
 20
1.04487619154338
 30
0.0
  0
ENDBLK
  5
17AC21874A32F5
330
17AC21874A32DE
100
AcDbEntity
  8
0
100
AcDbBlockEnd
  0
BLOCK
  5
17AC21874A3614
330
17AC21874A3352
100
AcDbEntity
  8
0
100
AcDbBlockBegin
  2
*D9
 70
     1
 10
0.0
 20
0.0
 30
0.0
  3
*D9
  1

  0
LINE
  5
17AC21874A37A0
330
17AC21874A3352
100
AcDbEntity
  8
QUOTA
100
AcDbLine
 10
2133.640570406838
 20
3061.409588666291
 30
0.0
 11
758.741889330741
 21
3061.409588666291
 31
0.0
  0
LINE
  5
17AC21874A37A1
330
17AC21874A3352
100
AcDbEntity
  8
QUOTA
100
AcDbLine
 10
1990.249094087017
 20
743.9260078071856
 30
0.0
 11
758.7418893307402
 21
743.926007807186
 31
0.0
  0
LINE
  5
17AC21874A37A2
330
17AC21874A3352
100
AcDbEntity
  8
QUOTA
100
AcDbLine
 10
778.7418893307409
 20
3031.409588666291
 30
0.0
 11
778.7418893307404
 21
773.9260078071859
 31
0.0
  0
SOLID
  5
17AC21874A37A3
330
17AC21874A3352
100
AcDbEntity
  8
QUOTA
100
AcDbTrace
 10
773.7418893307409
 20
3031.409588666291
 30
0.0
 11
783.7418893307409
 21
3031.409588666291
 31
0.0
 12
778.7418893307409
 22
3061.409588666291
 32
0.0
 13
778.7418893307409
 23
3061.409588666291
 33
0.0
  0
SOLID
  5
17AC21874A37A4
330
17AC21874A3352
100
AcDbEntity
  8
QUOTA
100
AcDbTrace
 10
773.7418893307404
 20
773.9260078071859
 30
0.0
 11
783.7418893307405
 21
773.9260078071859
 31
0.0
 12
778.7418893307403
 22
743.926007807186
 32
0.0
 13
778.7418893307403
 23
743.926007807186
 33
0.0
  0
MTEXT
  5
17AC21874A37A5
330
17AC21874A3352
100
AcDbEntity
  8
QUOTA
 62
   254
100
AcDbMText
 10
738.7418893307404
 20
1902.667798236739
 30
0.0
 40
60.0
 41
0.0
 71
     5
 72
     1
  1
\A1;2320
  7
ROMANS
 11
0.0000000000000001
 21
1.0
 31
0.0
1001
ACAD
1000
MTEXTBEGIN
1070
    73
1070
     1
1070
    44
1040
1.0
1070
    74
1070
     0
1000
MTEXTEND
  0
POINT
  5
17AC21874A37A6
330
17AC21874A3352
100
AcDbEntity
  8
DEFPOINTS
 62
     0
100
AcDbPoint
 10
2153.640570406838
 20
3061.409588666291
 30
0.0
  0
POINT
  5
17AC21874A37A7
330
17AC21874A3352
100
AcDbEntity
  8
DEFPOINTS
 62
     0
100
AcDbPoint
 10
2010.249094087017
 20
743.9260078071856
 30
0.0
  0
POINT
  5
17AC21874A37A8
330
17AC21874A3352
100
AcDbEntity
  8
DEFPOINTS
 62
     0
100
AcDbPoint
 10
778.7418893307403
 20
743.926007807186
 30
0.0
  0
ENDBLK
  5
17AC21874A361E
330
17AC21874A3352
100
AcDbEntity
  8
0
100
AcDbBlockEnd
  0
BLOCK
  5
17AC21874A362A
330
17AC21874A3398
100
AcDbEntity
  8
0
100
AcDbBlockBegin
  2
*D10
 70
     1
 10
0.0
 20
0.0
 30
0.0
  3
*D10
  1

  0
LINE
  5
17AC21874A37A9
330
17AC21874A3398
100
AcDbEntity
  8
QUOTA
100
AcDbLine
 10
1403.756077781938
 20
1992.811744150287
 30
0.0
 11
1086.907010682866
 21
1992.811744150287
 31
0.0
  0
LINE
  5
17AC21874A37AA
330
17AC21874A3398
100
AcDbEntity
  8
QUOTA
100
AcDbLine
 10
1439.720124083476
 20
743.9260078071859
 30
0.0
 11
1086.907010682866
 21
743.926007807186
 31
0.0
  0
LINE
  5
17AC21874A37AB
330
17AC21874A3398
100
AcDbEntity
  8
QUOTA
100
AcDbLine
 10
1106.907010682866
 20
1962.811744150287
 30
0.0
 11
1106.907010682865
 21
773.9260078071859
 31
0.0
  0
SOLID
  5
17AC21874A37AC
330
17AC21874A3398
100
AcDbEntity
  8
QUOTA
100
AcDbTrace
 10
1101.907010682866
 20
1962.811744150287
 30
0.0
 11
1111.907010682866
 21
1962.811744150287
 31
0.0
 12
1106.907010682866
 22
1992.811744150287
 32
0.0
 13
1106.907010682866
 23
1992.811744150287
 33
0.0
  0
SOLID
  5
17AC21874A37AD
330
17AC21874A3398
100
AcDbEntity
  8
QUOTA
100
AcDbTrace
 10
1101.907010682865
 20
773.9260078071859
 30
0.0
 11
1111.907010682865
 21
773.9260078071859
 31
0.0
 12
1106.907010682865
 22
743.926007807186
 32
0.0
 13
1106.907010682865
 23
743.926007807186
 33
0.0
  0
MTEXT
  5
17AC21874A37AE
330
17AC21874A3398
100
AcDbEntity
  8
QUOTA
 62
   254
100
AcDbMText
 10
1066.907010682865
 20
1368.368875978736
 30
0.0
 40
60.0
 41
0.0
 71
     5
 72
     1
  1
\A1;1255
  7
ROMANS
 11
0.0000000000000001
 21
1.0
 31
0.0
1001
ACAD
1000
MTEXTBEGIN
1070
    73
1070
     1
1070
    44
1040
1.0
1070
    74
1070
     0
1000
MTEXTEND
  0
POINT
  5
17AC21874A37AF
330
17AC21874A3398
100
AcDbEntity
  8
DEFPOINTS
 62
     0
100
AcDbPoint
 10
1423.756077781938
 20
1992.811744150287
 30
0.0
  0
POINT
  5
17AC21874A37B0
330
17AC21874A3398
100
AcDbEntity
  8
DEFPOINTS
 62
     0
100
AcDbPoint
 10
1459.720124083476
 20
743.9260078071859
 30
0.0
  0
POINT
  5
17AC21874A37B1
330
17AC21874A3398
100
AcDbEntity
  8
DEFPOINTS
 62
     0
100
AcDbPoint
 10
1106.907010682865
 20
743.926007807186
 30
0.0
  0
ENDBLK
  5
17AC21874A3634
330
17AC21874A3398
100
AcDbEntity
  8
0
100
AcDbBlockEnd
  0
BLOCK
  5
17AC21874A36BC
330
17AC21874A36B2
100
AcDbEntity
  8
0
100
AcDbBlockBegin
  2
*D11
 70
     1
 10
0.0
 20
0.0
 30
0.0
  3
*D11
  1

  0
LINE
  5
17AC21874A36F4
330
17AC21874A36B2
100
AcDbEntity
  8
QUOTA
100
AcDbLine
 10
1383.756077781938
 20
1992.811744150287
 30
0.0
 11
1086.907010682866
 21
1992.811744150287
 31
0.0
  0
LINE
  5
17AC21874A36F5
330
17AC21874A36B2
100
AcDbEntity
  8
QUOTA
100
AcDbLine
 10
1340.225501321885
 20
3061.409588666291
 30
0.0
 11
1086.907010682866
 21
3061.409588666291
 31
0.0
  0
LINE
  5
17AC21874A36F6
330
17AC21874A36B2
100
AcDbEntity
  8
QUOTA
100
AcDbLine
 10
1106.907010682866
 20
2022.811744150287
 30
0.0
 11
1106.907010682866
 21
3031.40958866629
 31
0.0
  0
SOLID
  5
17AC21874A36F7
330
17AC21874A36B2
100
AcDbEntity
  8
QUOTA
100
AcDbTrace
 10
1101.907010682866
 20
2022.811744150287
 30
0.0
 11
1111.907010682866
 21
2022.811744150287
 31
0.0
 12
1106.907010682866
 22
1992.811744150287
 32
0.0
 13
1106.907010682866
 23
1992.811744150287
 33
0.0
  0
SOLID
  5
17AC21874A36F8
330
17AC21874A36B2
100
AcDbEntity
  8
QUOTA
100
AcDbTrace
 10
1101.907010682866
 20
3031.40958866629
 30
0.0
 11
1111.907010682866
 21
3031.40958866629
 31
0.0
 12
1106.907010682866
 22
3061.409588666291
 32
0.0
 13
1106.907010682866
 23
3061.409588666291
 33
0.0
  0
MTEXT
  5
17AC21874A36F9
330
17AC21874A36B2
100
AcDbEntity
  8
QUOTA
 62
   254
100
AcDbMText
 10
1066.907010682865
 20
2527.110666408289
 30
0.0
 40
60.0
 41
0.0
 71
     5
 72
     1
  1
\A1;1069
  7
ROMANS
 11
0.0000000000000001
 21
1.0
 31
0.0
1001
ACAD
1000
MTEXTBEGIN
1070
    73
1070
     1
1070
    44
1040
1.0
1070
    74
1070
     0
1000
MTEXTEND
  0
POINT
  5
17AC21874A36FA
330
17AC21874A36B2
100
AcDbEntity
  8
DEFPOINTS
 62
     0
100
AcDbPoint
 10
1403.756077781938
 20
1992.811744150287
 30
0.0
  0
POINT
  5
17AC21874A36FB
330
17AC21874A36B2
100
AcDbEntity
  8
DEFPOINTS
 62
     0
100
AcDbPoint
 10
1360.225501321885
 20
3061.409588666291
 30
0.0
  0
POINT
  5
17AC21874A36FC
330
17AC21874A36B2
100
AcDbEntity
  8
DEFPOINTS
 62
     0
100
AcDbPoint
 10
1106.907010682866
 20
3061.409588666291
 30
0.0
  0
ENDBLK
  5
17AC21874A36BD
330
17AC21874A36B2
100
AcDbEntity
  8
0
100
AcDbBlockEnd
  0
BLOCK
  5
17AC21874A382F
330
17AC21874A37FA
100
AcDbEntity
  8
0
100
AcDbBlockBegin
  2
A$C577153E3
 70
     0
 10
0.0
 20
0.0
 30
0.0
  3
A$C577153E3
  1

  0
LINE
  5
17AC21874A37FB
330
17AC21874A37FA
100
AcDbEntity
  8
0
100
AcDbLine
 39
0.1234
 10
46.12164254870731
 20
-41.25667460380282
 30
0.0
 11
201.0707950639261
 21
159.942851092775
 31
0.0
  0
LINE
  5
17AC21874A37FC
330
17AC21874A37FA
100
AcDbEntity
  8
0
100
AcDbLine
 39
0.1234
 10
-38.62061682522562
 20
48.38781171849723
 30
0.0
 11
159.8136782339506
 21
200.4760192735602
 31
0.0
  0
LINE
  5
17AC21874A37FD
330
17AC21874A37FA
100
AcDbEntity
  8
0
100
AcDbLine
 10
458.1461850375635
 20
-106.8814556178513
 30
0.0
 11
808.9810280954562
 21
-106.8814556178513
 31
0.0
  0
LINE
  5
17AC21874A37FE
330
17AC21874A37FA
100
AcDbEntity
  8
0
100
AcDbLine
 10
465.0
 20
-60.00000000000046
 30
0.0
 11
808.9810280954562
 21
-60.00000000000046
 31
0.0
  0
LINE
  5
17AC21874A37FF
330
17AC21874A37FA
100
AcDbEntity
  8
0
100
AcDbLine
 10
458.1461850375635
 20
105.8955091106618
 30
0.0
 11
808.9810280954562
 21
105.8955091106618
 31
0.0
  0
LINE
  5
17AC21874A3800
330
17AC21874A37FA
100
AcDbEntity
  8
0
100
AcDbLine
 10
808.9810280954562
 20
59.99999999999954
 30
0.0
 11
465.0
 21
59.99999999999954
 31
0.0
  0
LINE
  5
17AC21874A3801
330
17AC21874A37FA
100
AcDbEntity
  8
ASSE
 62
     1
100
AcDbLine
 39
0.1234
 10
1386.810269960704
 20
-0.0000000000004547
 30
0.0
 11
-198.3905115615452
 21
0.0
 31
0.0
  0
ARC
  5
17AC21874A3802
330
17AC21874A37FA
100
AcDbEntity
  8
0
100
AcDbCircle
 10
177.5795127866722
 20
177.2754408864252
 30
0.0
 40
29.21735143405257
100
AcDbArc
 50
319.2033285450505
 51
129.5407265357479
  0
LINE
  5
17AC21874A3803
330
17AC21874A37FA
100
AcDbEntity
  8
0
100
AcDbLine
 10
47.77231903708889
 20
-180.3862202729942
 30
0.0
 11
272.3165168888808
 21
-253.8909849281389
 31
0.0
  0
ARC
  5
17AC21874A3804
330
17AC21874A37FA
100
AcDbEntity
  8
0
100
AcDbCircle
 10
-0.0401365528741735
 20
-0.4929732535947551
 30
0.0
 40
161.6331052863097
100
AcDbArc
 50
239.9744648373911
 51
30.05821459410746
  0
LINE
  5
17AC21874A3805
330
17AC21874A37FA
100
AcDbEntity
  8
ASSE
 62
     1
100
AcDbLine
 39
0.1234
 10
-48.88948007298314
 20
-49.04840112237071
 30
0.0
 11
201.3976734779617
 21
201.2387524285745
 31
0.0
  0
ARC
  5
17AC21874A3806
330
17AC21874A37FA
100
AcDbEntity
  8
0
100
AcDbCircle
 10
0.0
 20
0.0
 30
0.0
 40
186.0
100
AcDbArc
 50
237.976010271731
 51
33.22419282304525
  0
ARC
  5
17AC21874A3807
330
17AC21874A37FA
100
AcDbEntity
  8
0
100
AcDbCircle
 10
-0.2792382126835946
 20
-0.7348704358460055
 30
0.0
 40
142.9468437121174
100
AcDbArc
 50
138.6440926842866
 51
221.1791311991852
  0
ARC
  5
17AC21874A3808
330
17AC21874A37FA
100
AcDbEntity
  8
0
100
AcDbCircle
 10
0.0
 20
0.0
 30
0.0
 40
61.89870434778459
100
AcDbArc
 50
128.3108794202573
 51
318.3229295753838
  0
LINE
  5
17AC21874A3809
330
17AC21874A37FA
100
AcDbEntity
  8
ASSE
 62
     1
100
AcDbLine
 39
0.1234
 10
0.0
 20
-198.487018419888
 30
0.0
 11
0.0
 21
200.1361103729632
 31
0.0
  0
ARC
  5
17AC21874A380A
330
17AC21874A37FA
100
AcDbEntity
  8
0
100
AcDbCircle
 10
-48.92884399285867
 20
-99.12053493803751
 30
0.0
 40
52.11101924722871
100
AcDbArc
 50
209.7242782185134
 51
236.9417985904882
  0
ARC
  5
17AC21874A380B
330
17AC21874A37FA
100
AcDbEntity
  8
0
100
AcDbCircle
 10
-134.4727312086888
 20
-125.1373914910705
 30
0.0
 40
40.28176604498389
100
AcDbArc
 50
0.5145732990490405
 51
48.11281855153546
  0
ARC
  5
17AC21874A380C
330
17AC21874A37FA
100
AcDbEntity
  8
0
100
AcDbCircle
 10
-0.0401365528741735
 20
-0.4929732535947551
 30
0.0
 40
161.6331052863097
100
AcDbArc
 50
60.08509317059211
 51
119.1145251798446
  0
ARC
  5
17AC21874A380D
330
17AC21874A37FA
100
AcDbEntity
  8
0
100
AcDbCircle
 10
0.0
 20
0.0
 30
0.0
 40
186.0
100
AcDbArc
 50
56.85032337210158
 51
171.6706090299063
  0
ARC
  5
17AC21874A380E
330
17AC21874A37FA
100
AcDbEntity
  8
0
100
AcDbCircle
 10
-134.4727312086888
 20
123.7032296962875
 30
0.0
 40
40.28176604498389
100
AcDbArc
 50
311.8871814484645
 51
359.4854267009509
  0
ARC
  5
17AC21874A380F
330
17AC21874A37FA
100
AcDbEntity
  8
0
100
AcDbCircle
 10
-48.92884399285867
 20
97.68637314325452
 30
0.0
 40
52.11101924722871
100
AcDbArc
 50
123.0582014095117
 51
150.2757217814865
  0
CIRCLE
  5
17AC21874A3810
330
17AC21874A37FA
100
AcDbEntity
  8
0
100
AcDbCircle
 10
0.0
 20
0.0
 30
0.0
 40
22.5
  0
LINE
  5
17AC21874A3811
330
17AC21874A37FA
100
AcDbEntity
  8
0
100
AcDbLine
 10
90.53388772582184
 20
162.5392526970572
 30
0.0
 11
110.4041457339935
 21
162.5042937481052
 31
0.0
  0
LINE
  5
17AC21874A3812
330
17AC21874A37FA
100
AcDbEntity
  8
0
100
AcDbLine
 10
465.0
 20
59.99999999999954
 30
0.0
 11
465.0
 21
-60.00000000000046
 31
0.0
  0
CIRCLE
  5
17AC21874A3813
330
17AC21874A37FA
100
AcDbEntity
  8
0
100
AcDbCircle
 10
325.5000000000009
 20
0.0
 30
0.0
 40
139.5
  0
CIRCLE
  5
17AC21874A3814
330
17AC21874A37FA
100
AcDbEntity
  8
0
100
AcDbCircle
 10
325.1618029318415
 20
-0.4929732535947551
 30
0.0
 40
116.8980749594031
  0
CIRCLE
  5
17AC21874A3815
330
17AC21874A37FA
100
AcDbEntity
  8
ASSE
100
AcDbCircle
 10
325.1618029318415
 20
-0.4929732535947551
 30
0.0
 40
90.0
  0
LINE
  5
17AC21874A3816
330
17AC21874A37FA
100
AcDbEntity
  8
ASSE
100
AcDbLine
 10
325.1618029318415
 20
94.50702674640524
 30
0.0
 11
325.1618029318415
 21
-95.49297325359475
 31
0.0
  0
LINE
  5
17AC21874A3817
330
17AC21874A37FA
100
AcDbEntity
  8
0
100
AcDbLine
 10
458.7268875315821
 20
-106.8814556178513
 30
0.0
 11
389.0407599533718
 21
-176.5175458756475
 31
0.0
  0
CIRCLE
  5
17AC21874A3818
330
17AC21874A37FA
100
AcDbEntity
  8
0
100
AcDbCircle
 10
325.5489648938746
 20
-209.4012635847611
 30
0.0
 40
70.0
  0
LINE
  5
17AC21874A3819
330
17AC21874A37FA
100
AcDbEntity
  8
ASSE
 62
     1
100
AcDbLine
 39
0.1234
 10
407.368847705009
 20
-209.4012635847611
 30
0.0
 11
240.8355686135619
 21
-209.4012635847611
 31
0.0
  0
LINE
  5
17AC21874A381A
330
17AC21874A37FA
100
AcDbEntity
  8
ASSE
 62
     1
100
AcDbLine
 39
0.1234
 10
325.5489648938737
 20
-287.1719601444674
 30
0.0
 11
325.5489648938737
 21
-135.8533055855495
 31
0.0
  0
CIRCLE
  5
17AC21874A381B
330
17AC21874A37FA
100
AcDbEntity
  8
0
100
AcDbCircle
 10
325.5489648938737
 20
-209.4012635847611
 30
0.0
 40
48.34995042717719
  0
CIRCLE
  5
17AC21874A381C
330
17AC21874A37FA
100
AcDbEntity
  8
0
100
AcDbCircle
 10
325.9058709793971
 20
-209.8652131016078
 30
0.0
 40
16.05716579480576
  0
CIRCLE
  5
17AC21874A381D
330
17AC21874A37FA
100
AcDbEntity
  8
COSTRUZIONE
100
AcDbCircle
 10
348.4555169910672
 20
-87.42629761961143
 30
0.0
 40
15.0
  0
LINE
  5
17AC21874A381E
330
17AC21874A37FA
100
AcDbEntity
  8
ASSE
100
AcDbLine
 10
352.72603123526
 20
-103.3640737533787
 30
0.0
 11
344.1850027468772
 21
-71.48852148583955
 31
0.0
  0
CIRCLE
  5
17AC21874A381F
330
17AC21874A37FA
100
AcDbEntity
  8
COSTRUZIONE
100
AcDbCircle
 10
388.8014132386306
 20
63.14663705319436
 30
0.0
 40
15.0
  0
LINE
  5
17AC21874A3820
330
17AC21874A37FA
100
AcDbEntity
  8
ASSE
100
AcDbLine
 10
400.4686751282088
 20
74.81389894277254
 30
0.0
 11
377.1341513490524
 21
51.47937516361662
 31
0.0
  0
LINE
  5
17AC21874A3821
330
17AC21874A37FA
100
AcDbEntity
  8
ASSE
100
AcDbLine
 10
420.1618029318415
 20
-0.4929732535947551
 30
0.0
 11
230.1618029318415
 21
-0.4929732535947551
 31
0.0
  0
LINE
  5
17AC21874A3822
330
17AC21874A37FA
100
AcDbEntity
  8
0
100
AcDbLine
 10
203.0597902739509
 20
162.341279058196
 30
0.0
 11
402.0101436644218
 21
161.9912536460778
 31
0.0
  0
CIRCLE
  5
17AC21874A3823
330
17AC21874A37FA
100
AcDbEntity
  8
COSTRUZIONE
100
AcDbCircle
 10
238.2284785658266
 20
22.80074080563236
 30
0.0
 40
15.0
  0
LINE
  5
17AC21874A3824
330
17AC21874A37FA
100
AcDbEntity
  8
ASSE
100
AcDbLine
 10
222.2907024320556
 20
27.07125504982377
 30
0.0
 11
254.1662546995957
 21
18.53022656144003
 31
0.0
  0
CIRCLE
  5
17AC21874A3825
330
17AC21874A37FA
100
AcDbEntity
  8
0
100
AcDbCircle
 10
325.1618029318415
 20
-0.4929732535947551
 30
0.0
 40
35.80822238947904
  0
CIRCLE
  5
17AC21874A3826
330
17AC21874A37FA
100
AcDbEntity
  8
0
100
AcDbCircle
 10
177.5493517181967
 20
177.2629219826849
 30
0.0
 40
15.0
  0
LINE
  5
17AC21874A3827
330
17AC21874A37FA
100
AcDbEntity
  8
0
100
AcDbLine
 10
402.0101436644218
 20
161.9912536460778
 30
0.0
 11
458.1461850375635
 21
105.8955091106618
 31
0.0
  0
LINE
  5
17AC21874A3828
330
17AC21874A37FA
100
AcDbEntity
  8
0
100
AcDbLine
 10
1365.0
 20
59.99999999999954
 30
0.0
 11
808.9810280954562
 21
59.99999999999954
 31
0.0
  0
LINE
  5
17AC21874A3829
330
17AC21874A37FA
100
AcDbEntity
  8
0
100
AcDbLine
 10
808.9810280954562
 20
-106.8814556178513
 30
0.0
 11
1103.13000687351
 21
-106.8814556178513
 31
0.0
  0
LINE
  5
17AC21874A382A
330
17AC21874A37FA
100
AcDbEntity
  8
0
100
AcDbLine
 10
808.9810280954562
 20
-60.00000000000046
 30
0.0
 11
1365.0
 21
-60.00000000000046
 31
0.0
  0
LINE
  5
17AC21874A382B
330
17AC21874A37FA
100
AcDbEntity
  8
0
100
AcDbLine
 10
808.9810280954562
 20
105.8955091106618
 30
0.0
 11
1103.13000687351
 21
105.8955091106618
 31
0.0
  0
LINE
  5
17AC21874A382C
330
17AC21874A37FA
100
AcDbEntity
  8
0
100
AcDbLine
 10
1365.0
 20
-60.00000000000046
 30
0.0
 11
1365.0
 21
59.99999999999954
 31
0.0
  0
LINE
  5
17AC21874A382D
330
17AC21874A37FA
100
AcDbEntity
  8
0
100
AcDbLine
 10
1103.13000687351
 20
-106.8814556178513
 30
0.0
 11
1103.13000687351
 21
-60.45739218635754
 31
0.0
  0
LINE
  5
17AC21874A382E
330
17AC21874A37FA
100
AcDbEntity
  8
0
100
AcDbLine
 10
1103.13000687351
 20
105.8955091106618
 30
0.0
 11
1103.13000687351
 21
59.47144567916803
 31
0.0
  0
ENDBLK
  5
17AC21874A3830
330
17AC21874A37FA
100
AcDbEntity
  8
0
100
AcDbBlockEnd
  0
ENDSEC
  0
SECTION
  2
ENTITIES
  0
INSERT
  5
151
330
17AC21874A2FC9
100
AcDbEntity
  8
LINEAFIN
100
AcDbBlockReference
  2
AVE_RENDER
 10
0.0
 20
0.0
 30
0.0
1001
AVE_RENDER
1002
{
1070
     2
1000
Pref
1070
    30
1070
    20
1070
     0
1070
     0
1000

1070
    10
1070
     0
1070
    30
1040
1.0
1070
     1
1040
0.3
1040
0.7
1040
0.0
1040
10.0
1010
-1.0
1020
-1.0
1030
-1.0
1040
0.3
1070
    49
1002
}
  0
INSERT
  5
152
330
17AC21874A2FC9
100
AcDbEntity
  8
LINEAFIN
100
AcDbBlockReference
  2
AVE_RENDER
 10
0.0
 20
0.0
 30
0.0
1001
AVE_RENDER
1002
{
1070
     0
1000
Full Opt
1070
     0
1070
     1
1070
     1
1070
     1
1070
     0
1070
     0
1070
     0
1070
     1
1070
     1
1040
0.0001
1040
0.0001
1002
}
  0
INSERT
  5
153
330
17AC21874A2FC9
100
AcDbEntity
  8
LINEAFIN
100
AcDbBlockReference
  2
AVE_RENDER
 10
0.0
 20
0.0
 30
0.0
1001
AVE_RENDER
1002
{
1070
     0
1000
Quick Opt
1070
     0
1070
     1
1070
     1
1070
     1
1070
     0
1070
     0
1070
     1
1002
}
  0
INSERT
  5
D132099FA66
330
17AC21874A2FC9
100
AcDbEntity
  8
BOLLINI
100
AcDbBlockReference
  2
SCALA1
 10
228.4815022492327
 20
131.7646532168282
 30
0.0
  0
LINE
  5
17AC21874A3035
330
17AC21874A2FC9
100
AcDbEntity
  8
ASSE
 62
     1
100
AcDbLine
 39
0.1234
 10
4253.439274950788
 20
2147.354816333261
 30
0.0
 11
2856.675700384739
 21
2147.354816333261
 31
0.0
  0
LINE
  5
17AC21874A3036
330
17AC21874A2FC9
100
AcDbEntity
  8
ASSE
 62
     1
100
AcDbLine
 39
0.1234
 10
3535.249883631691
 20
1453.221023784224
 30
0.0
 11
3535.249883631692
 21
2839.058130643385
 31
0.0
  0
CIRCLE
  5
17AC21874A3037
330
17AC21874A2FC9
100
AcDbEntity
  8
ASSE
100
AcDbCircle
 10
3535.249883631691
 20
2147.354816333261
 30
0.0
 40
588.0
  0
LINE
  5
17AC21874A303A
330
17AC21874A2FC9
100
AcDbEntity
  8
ASSE
100
AcDbLine
 10
4086.19234635402
 20
2412.674722803648
 30
0.0
 11
4042.945840694704
 21
2391.848303326006
 31
0.0
  0
CIRCLE
  5
17AC21874A303B
330
17AC21874A2FC9
100
AcDbEntity
  8
COSTRUZIONE
100
AcDbCircle
 10
4065.019577958313
 20
2402.478454934386
 30
0.0
 40
22.5
  0
LINE
  5
17AC21874A303E
330
17AC21874A2FC9
100
AcDbEntity
  8
ASSE
100
AcDbLine
 10
3671.321434745976
 20
2743.523234632446
 30
0.0
 11
3660.640429916074
 21
2696.726694847719
 31
0.0
  0
CIRCLE
  5
17AC21874A303F
330
17AC21874A2FC9
100
AcDbEntity
  8
COSTRUZIONE
100
AcDbCircle
 10
3666.092192798004
 20
2720.612428696174
 30
0.0
 40
22.5
  0
LINE
  5
17AC21874A3042
330
17AC21874A2FC9
100
AcDbEntity
  8
ASSE
100
AcDbLine
 10
3153.985869795075
 20
2625.444767862461
 30
0.0
 11
3183.913380284294
 21
2587.916856703996
 31
0.0
  0
CIRCLE
  5
17AC21874A3043
330
17AC21874A2FC9
100
AcDbEntity
  8
COSTRUZIONE
100
AcDbCircle
 10
3168.637880138755
 20
2607.071728024463
 30
0.0
 40
22.5
  0
LINE
  5
17AC21874A3046
330
17AC21874A2FC9
100
AcDbEntity
  8
ASSE
100
AcDbLine
 10
2923.749883631691
 20
2147.354816333261
 30
0.0
 11
2971.749883631691
 21
2147.354816333261
 31
0.0
  0
CIRCLE
  5
17AC21874A3047
330
17AC21874A2FC9
100
AcDbEntity
  8
COSTRUZIONE
100
AcDbCircle
 10
2947.249883631691
 20
2147.354816333261
 30
0.0
 40
22.5
  0
LINE
  5
17AC21874A304A
330
17AC21874A2FC9
100
AcDbEntity
  8
ASSE
100
AcDbLine
 10
3153.985869795075
 20
1669.264864804061
 30
0.0
 11
3183.913380284294
 21
1706.792775962526
 31
0.0
  0
CIRCLE
  5
17AC21874A304B
330
17AC21874A2FC9
100
AcDbEntity
  8
COSTRUZIONE
100
AcDbCircle
 10
3168.637880138756
 20
1687.63790464206
 30
0.0
 40
22.5
  0
LINE
  5
17AC21874A304E
330
17AC21874A2FC9
100
AcDbEntity
  8
ASSE
100
AcDbLine
 10
3671.321434745976
 20
1551.186398034077
 30
0.0
 11
3660.640429916074
 21
1597.982937818804
 31
0.0
  0
CIRCLE
  5
17AC21874A304F
330
17AC21874A2FC9
100
AcDbEntity
  8
COSTRUZIONE
100
AcDbCircle
 10
3666.092192798004
 20
1574.09720397035
 30
0.0
 40
22.5
  0
LINE
  5
17AC21874A3052
330
17AC21874A2FC9
100
AcDbEntity
  8
ASSE
100
AcDbLine
 10
4086.19234635402
 20
1882.034909862874
 30
0.0
 11
4042.945840694704
 21
1902.861329340518
 31
0.0
  0
CIRCLE
  5
17AC21874A3053
330
17AC21874A2FC9
100
AcDbEntity
  8
COSTRUZIONE
100
AcDbCircle
 10
4065.019577958312
 20
1892.231177732137
 30
0.0
 40
22.5
  0
CIRCLE
  5
17AC21874A3054
330
17AC21874A2FC9
100
AcDbEntity
  8
0
100
AcDbCircle
 10
3535.249883631691
 20
2147.354816333261
 30
0.0
 40
50.0
  0
CIRCLE
  5
17AC21874A3055
330
17AC21874A2FC9
100
AcDbEntity
  8
0
100
AcDbCircle
 10
3535.249883631691
 20
2147.354816333261
 30
0.0
 40
633.8035138103236
  0
CIRCLE
  5
17AC21874A3057
330
17AC21874A2FC9
100
AcDbEntity
  8
0
100
AcDbCircle
 10
3535.249883631691
 20
2147.354816333261
 30
0.0
 40
655.379805029726
  0
CIRCLE
  5
17AC21874A3058
330
17AC21874A2FC9
100
AcDbEntity
  8
0
100
AcDbCircle
 10
3535.249883631691
 20
2147.354816333261
 30
0.0
 40
94.39626764915601
  0
LINE
  5
17AC21874A30A8
330
17AC21874A2FC9
100
AcDbEntity
  8
0
100
AcDbLine
 10
3956.24988363169
 20
1028.337531343033
 30
0.0
 11
3554.638190939808
 21
1028.337531343033
 31
0.0
  0
LINE
  5
17AC21874A30AC
330
17AC21874A2FC9
100
AcDbEntity
  8
ASSE
100
AcDbLine
 10
3114.55825733923
 20
1719.293226392351
 30
0.0
 11
3114.55825733923
 21
1121.293226392351
 31
0.0
  0
LINE
  5
17AC21874A30AD
330
17AC21874A2FC9
100
AcDbEntity
  8
ASSE
100
AcDbLine
 10
2815.558257339231
 20
1420.293226392351
 30
0.0
 11
3413.55825733923
 21
1420.293226392351
 31
0.0
  0
CIRCLE
  5
17AC21874A30AE
330
17AC21874A2FC9
100
AcDbEntity
  8
0
100
AcDbCircle
 10
3114.55825733923
 20
1420.293226392351
 30
0.0
 40
40.0
  0
LINE
  5
17AC21874A30C2
330
17AC21874A2FC9
100
AcDbEntity
  8
0
100
AcDbLine
 10
3114.55825733923
 20
1128.293226392351
 30
0.0
 11
3114.55825733923
 21
1028.337531343033
 31
0.0
  0
LINE
  5
17AC21874A30C3
330
17AC21874A2FC9
100
AcDbEntity
  8
0
100
AcDbLine
 10
3114.55825733923
 20
1028.337531343033
 30
0.0
 11
3554.981452757597
 21
1028.337531343033
 31
0.0
  0
LWPOLYLINE
  5
17AC21874A30C4
330
17AC21874A2FC9
100
AcDbEntity
  8
SQUADRATURA
100
AcDbPolyline
 90
        4
 70
     1
 43
0.0
 10
50.0
 20
50.0
 10
5890.0
 20
50.0
 10
5890.0
 20
4150.0
 10
50.0
 20
4150.0
  0
LWPOLYLINE
  5
17AC21874A30CA
330
17AC21874A2FC9
100
AcDbEntity
  8
SQUADRATURA
100
AcDbPolyline
 90
        4
 70
     1
 43
0.0
 10
100.0
 20
100.0
 10
5840.0
 20
100.0
 10
5840.0
 20
4100.0
 10
100.0
 20
4100.0
  0
LINE
  5
17AC21874A30D9
330
17AC21874A2FC9
100
AcDbEntity
  8
0
100
AcDbLine
 10
2927.387072298645
 20
1236.960339297583
 30
0.0
 11
2031.604258014031
 21
1236.960339297583
 31
0.0
  0
LINE
  5
17AC21874A30DA
330
17AC21874A2FC9
100
AcDbEntity
  8
0
100
AcDbLine
 10
3114.792282395114
 20
1115.886941377047
 30
0.0
 11
3103.040824127924
 21
1115.886941377047
 31
0.0
  0
LINE
  5
17AC21874A30DB
330
17AC21874A2FC9
100
AcDbEntity
  8
0
100
AcDbLine
 10
4144.947553181542
 20
1235.501622717443
 30
0.0
 11
5049.377096783377
 21
1235.501622717443
 31
0.0
  0
LINE
  5
17AC21874A30DC
330
17AC21874A2FC9
100
AcDbEntity
  8
0
100
AcDbLine
 10
3956.24988363169
 20
1115.886941377047
 30
0.0
 11
5049.377096783377
 21
1115.886941377047
 31
0.0
  0
LINE
  5
17AC21874A30E0
330
17AC21874A2FC9
100
AcDbEntity
  8
ASSE
 62
     1
100
AcDbLine
 39
0.1234
 10
3961.667889136165
 20
1176.48695595849
 30
0.0
 11
3817.960484623526
 21
1176.48695595849
 31
0.0
  0
LINE
  5
17AC21874A30E1
330
17AC21874A2FC9
100
AcDbEntity
  8
ASSE
 62
     1
100
AcDbLine
 39
0.1234
 10
3290.987023297928
 20
1176.48695595849
 30
0.0
 11
3148.509528255216
 21
1176.48695595849
 31
0.0
  0
LINE
  5
17AC21874A30E2
330
17AC21874A2FC9
100
AcDbEntity
  8
ASSE
 62
     1
100
AcDbLine
 39
0.1234
 10
3032.288050488403
 20
1176.48695595849
 30
0.0
 11
2051.164196231042
 21
1176.486955958491
 31
0.0
  0
LINE
  5
17AC21874A30E3
330
17AC21874A2FC9
100
AcDbEntity
  8
ASSE
 62
     1
100
AcDbLine
 39
0.1234
 10
5598.173334499481
 20
1176.48695595849
 30
0.0
 11
5074.377096783376
 21
1176.48695595849
 31
0.0
  0
LINE
  5
17AC21874A30E4
330
17AC21874A2FC9
100
AcDbEntity
  8
0
100
AcDbLine
 10
3612.268950497643
 20
2602.664065327461
 30
0.0
 11
3612.268950497643
 21
2360.385809309582
 31
0.0
  0
ARC
  5
17AC21874A30E5
330
17AC21874A2FC9
100
AcDbEntity
  8
0
100
AcDbCircle
 10
3534.905224369156
 20
2148.223805193068
 30
0.0
 40
484.7533164988026
100
AcDbArc
 50
16.34722318858987
 51
77.90721138562045
  0
ARC
  5
17AC21874A30E6
330
17AC21874A2FC9
100
AcDbEntity
  8
0
100
AcDbCircle
 10
3540.162322450514
 20
2152.680264869202
 30
0.0
 40
207.2118485499551
100
AcDbArc
 50
33.78633874142196
 51
66.08519890694831
  0
LINE
  5
17AC21874A30E8
330
17AC21874A2FC9
100
AcDbEntity
  8
0
100
AcDbLine
 10
3980.870256199807
 20
2259.032197817261
 30
0.0
 11
3729.001971787659
 21
2259.032197817261
 31
0.0
  0
ARC
  5
17AC21874A30E9
330
17AC21874A2FC9
100
AcDbEntity
  8
0
100
AcDbCircle
 10
3980.870256199806
 20
2279.032197817261
 30
0.0
 40
20.0
100
AcDbArc
 50
270.0000000000013
 51
16.34722318858941
  0
ARC
  5
17AC21874A30EA
330
17AC21874A2FC9
100
AcDbEntity
  8
0
100
AcDbCircle
 10
3632.268950497642
 20
2602.664065327461
 30
0.0
 40
20.0
100
AcDbArc
 50
77.90721138562064
 51
180.0
  0
ARC
  5
17AC21874A30EB
330
17AC21874A2FC9
100
AcDbEntity
  8
0
100
AcDbCircle
 10
3632.268950497642
 20
2360.385809309582
 30
0.0
 40
20.0
100
AcDbArc
 50
180.0
 51
246.0851989069477
  0
ARC
  5
17AC21874A30EC
330
17AC21874A2FC9
100
AcDbEntity
  8
0
100
AcDbCircle
 10
3729.001971787659
 20
2279.032197817261
 30
0.0
 40
20.0
100
AcDbArc
 50
213.7863387414216
 51
270.0
  0
LINE
  5
17AC21874A30F4
330
17AC21874A2FC9
100
AcDbEntity
  8
0
100
AcDbLine
 10
3612.268950497643
 20
1691.56205573144
 30
0.0
 11
3612.268950497643
 21
1933.84031174932
 31
0.0
  0
ARC
  5
17AC21874A30F5
330
17AC21874A2FC9
100
AcDbEntity
  8
0
100
AcDbCircle
 10
3729.001971787659
 20
2015.19392324164
 30
0.0
 40
20.0
100
AcDbArc
 50
90.0
 51
146.2136612585784
  0
ARC
  5
17AC21874A30F6
330
17AC21874A2FC9
100
AcDbEntity
  8
0
100
AcDbCircle
 10
3540.162322450514
 20
2141.545856189699
 30
0.0
 40
207.2118485499551
100
AcDbArc
 50
293.9148010930517
 51
326.213661258578
  0
ARC
  5
17AC21874A30F7
330
17AC21874A2FC9
100
AcDbEntity
  8
0
100
AcDbCircle
 10
3632.268950497642
 20
1933.84031174932
 30
0.0
 40
20.0
100
AcDbArc
 50
113.9148010930522
 51
180.0
  0
ARC
  5
17AC21874A30F8
330
17AC21874A2FC9
100
AcDbEntity
  8
0
100
AcDbCircle
 10
3632.268950497642
 20
1691.56205573144
 30
0.0
 40
20.0
100
AcDbArc
 50
180.0
 51
282.0927886143793
  0
ARC
  5
17AC21874A30F9
330
17AC21874A2FC9
100
AcDbEntity
  8
0
100
AcDbCircle
 10
3534.905224369156
 20
2146.002315865833
 30
0.0
 40
484.7533164988026
100
AcDbArc
 50
282.0927886143795
 51
343.6527768114101
  0
LINE
  5
17AC21874A30FA
330
17AC21874A2FC9
100
AcDbEntity
  8
0
100
AcDbLine
 10
3980.870256199807
 20
2035.19392324164
 30
0.0
 11
3729.001971787659
 21
2035.19392324164
 31
0.0
  0
ARC
  5
17AC21874A30FB
330
17AC21874A2FC9
100
AcDbEntity
  8
0
100
AcDbCircle
 10
3980.870256199806
 20
2015.19392324164
 30
0.0
 40
20.0
100
AcDbArc
 50
343.6527768114105
 51
89.99999999999868
  0
ARC
  5
17AC21874A3103
330
17AC21874A2FC9
100
AcDbEntity
  8
0
100
AcDbCircle
 10
3533.531025109545
 20
2146.002315865833
 30
0.0
 40
484.7533164988026
100
AcDbArc
 50
196.3472231885898
 51
257.9072113856204
  0
LINE
  5
17AC21874A3104
330
17AC21874A2FC9
100
AcDbEntity
  8
0
100
AcDbLine
 10
3456.167298981059
 20
1691.56205573144
 30
0.0
 11
3456.167298981059
 21
1933.84031174932
 31
0.0
  0
ARC
  5
17AC21874A3105
330
17AC21874A2FC9
100
AcDbEntity
  8
0
100
AcDbCircle
 10
3436.16729898106
 20
1691.56205573144
 30
0.0
 40
20.0
100
AcDbArc
 50
257.9072113856206
 51
0.0
  0
ARC
  5
17AC21874A3106
330
17AC21874A2FC9
100
AcDbEntity
  8
0
100
AcDbCircle
 10
3528.273927028187
 20
2141.545856189699
 30
0.0
 40
207.2118485499551
100
AcDbArc
 50
213.7863387414219
 51
246.0851989069483
  0
ARC
  5
17AC21874A3107
330
17AC21874A2FC9
100
AcDbEntity
  8
0
100
AcDbCircle
 10
3436.167298981059
 20
1933.84031174932
 30
0.0
 40
20.0
100
AcDbArc
 50
0.0
 51
66.08519890694774
  0
LINE
  5
17AC21874A3108
330
17AC21874A2FC9
100
AcDbEntity
  8
0
100
AcDbLine
 10
3087.565993278895
 20
2035.19392324164
 30
0.0
 11
3339.434277691042
 21
2035.19392324164
 31
0.0
  0
ARC
  5
17AC21874A3109
330
17AC21874A2FC9
100
AcDbEntity
  8
0
100
AcDbCircle
 10
3339.434277691042
 20
2015.19392324164
 30
0.0
 40
20.0
100
AcDbArc
 50
33.78633874142158
 51
90.0
  0
ARC
  5
17AC21874A310A
330
17AC21874A2FC9
100
AcDbEntity
  8
0
100
AcDbCircle
 10
3087.565993278896
 20
2015.19392324164
 30
0.0
 40
20.0
100
AcDbArc
 50
90.00000000000133
 51
196.3472231885894
  0
LINE
  5
17AC21874A310B
330
17AC21874A2FC9
100
AcDbEntity
  8
0
100
AcDbLine
 10
3087.565993278895
 20
2259.032197817261
 30
0.0
 11
3339.434277691042
 21
2259.032197817261
 31
0.0
  0
ARC
  5
17AC21874A310C
330
17AC21874A2FC9
100
AcDbEntity
  8
0
100
AcDbCircle
 10
3339.434277691042
 20
2279.032197817261
 30
0.0
 40
20.0
100
AcDbArc
 50
270.0
 51
326.2136612585783
  0
ARC
  5
17AC21874A310D
330
17AC21874A2FC9
100
AcDbEntity
  8
0
100
AcDbCircle
 10
3528.273927028187
 20
2152.680264869202
 30
0.0
 40
207.2118485499551
100
AcDbArc
 50
113.9148010930517
 51
146.213661258578
  0
ARC
  5
17AC21874A310E
330
17AC21874A2FC9
100
AcDbEntity
  8
0
100
AcDbCircle
 10
3436.167298981059
 20
2360.385809309582
 30
0.0
 40
20.0
100
AcDbArc
 50
293.9148010930522
 51
0.0
  0
ARC
  5
17AC21874A310F
330
17AC21874A2FC9
100
AcDbEntity
  8
0
100
AcDbCircle
 10
3087.565993278896
 20
2279.032197817261
 30
0.0
 40
20.0
100
AcDbArc
 50
163.6527768114105
 51
269.9999999999986
  0
LINE
  5
17AC21874A3110
330
17AC21874A2FC9
100
AcDbEntity
  8
0
100
AcDbLine
 10
3456.167298981059
 20
2602.664065327461
 30
0.0
 11
3456.167298981059
 21
2360.385809309582
 31
0.0
  0
ARC
  5
17AC21874A3111
330
17AC21874A2FC9
100
AcDbEntity
  8
0
100
AcDbCircle
 10
3436.16729898106
 20
2602.664065327461
 30
0.0
 40
20.0
100
AcDbArc
 50
0.0
 51
102.0927886143793
  0
ARC
  5
17AC21874A3112
330
17AC21874A2FC9
100
AcDbEntity
  8
0
100
AcDbCircle
 10
3533.531025109545
 20
2148.223805193068
 30
0.0
 40
484.7533164988026
100
AcDbArc
 50
102.0927886143795
 51
163.6527768114101
  0
LINE
  5
17AC21874A317B
330
17AC21874A2FC9
100
AcDbEntity
  8
ASSE
 62
     1
100
AcDbLine
 39
0.1234
 10
2400.962076706185
 20
2282.788331697497
 30
0.0
 11
2400.962076706185
 21
2131.469677138579
 31
0.0
  0
LINE
  5
17AC21874A317C
330
17AC21874A2FC9
100
AcDbEntity
  8
ASSE
 62
     1
100
AcDbLine
 39
0.1234
 10
2319.14219389505
 20
2205.01763513779
 30
0.0
 11
2485.675472986497
 21
2205.01763513779
 31
0.0
  0
LINE
  5
17AC21874A317D
330
17AC21874A2FC9
100
AcDbEntity
  8
ASSE
 62
     1
100
AcDbLine
 39
0.1234
 10
1339.700771639354
 20
1995.616371553029
 30
0.0
 11
2010.249094087017
 21
1995.616371553029
 31
0.0
  0
LINE
  5
17AC21874A317E
330
17AC21874A2FC9
100
AcDbEntity
  8
ASSE
 62
     1
100
AcDbLine
 39
0.1234
 10
2726.511041600058
 20
2194.103389972917
 30
0.0
 11
2726.511041600059
 21
1795.480261180065
 31
0.0
  0
LINE
  5
17AC21874A317F
330
17AC21874A2FC9
100
AcDbEntity
  8
0
100
AcDbLine
 39
0.1234
 10
2765.131658425284
 20
1947.228559834531
 30
0.0
 11
2566.697363366108
 21
1795.140352279468
 31
0.0
  0
LINE
  5
17AC21874A3180
330
17AC21874A2FC9
100
AcDbEntity
  8
0
100
AcDbLine
 39
0.1234
 10
2680.389399051351
 20
2036.873046156832
 30
0.0
 11
2525.440246536132
 21
1835.673520460253
 31
0.0
  0
LINE
  5
17AC21874A3181
330
17AC21874A2FC9
100
AcDbEntity
  8
ASSE
 62
     1
100
AcDbLine
 39
0.1234
 10
2775.400521673041
 20
2044.6647726754
 30
0.0
 11
2525.113368122097
 21
1794.377619124454
 31
0.0
  0
LINE
  5
17AC21874A3182
330
17AC21874A2FC9
100
AcDbEntity
  8
0
100
AcDbLine
 10
2268.364856562495
 20
2102.49782717088
 30
0.0
 11
2031.604258014031
 21
2102.49782717088
 31
0.0
  0
LINE
  5
17AC21874A3183
330
17AC21874A2FC9
100
AcDbEntity
  8
0
100
AcDbLine
 10
2268.364856562495
 20
1889.720862442367
 30
0.0
 11
2031.604258014031
 21
1889.720862442367
 31
0.0
  0
LINE
  5
17AC21874A3184
330
17AC21874A2FC9
100
AcDbEntity
  8
0
100
AcDbLine
 10
1361.511041600059
 20
1935.616371553029
 30
0.0
 11
2010.249094087017
 21
1935.616371553029
 31
0.0
  0
LINE
  5
17AC21874A3185
330
17AC21874A2FC9
100
AcDbEntity
  8
0
100
AcDbLine
 10
2261.511041600059
 20
2055.616371553029
 30
0.0
 11
2031.604258014031
 21
2055.616371553029
 31
0.0
  0
ARC
  5
17AC21874A3186
330
17AC21874A2FC9
100
AcDbEntity
  8
0
100
AcDbCircle
 10
2726.551178152933
 20
1996.109344806624
 30
0.0
 40
161.6331052863097
100
AcDbArc
 50
59.97446483740418
 51
210.0582145941302
  0
ARC
  5
17AC21874A3187
330
17AC21874A2FC9
100
AcDbEntity
  8
0
100
AcDbCircle
 10
2726.511041600058
 20
1995.616371553029
 30
0.0
 40
186.0
100
AcDbArc
 50
236.8503233720965
 51
348.8391676946632
  0
ARC
  5
17AC21874A3188
330
17AC21874A2FC9
100
AcDbEntity
  8
0
100
AcDbCircle
 10
2726.790279812743
 20
1996.351241988875
 30
0.0
 40
142.9468437121174
100
AcDbArc
 50
318.6440926842829
 51
41.17913119919541
  0
CIRCLE
  5
17AC21874A3189
330
17AC21874A2FC9
100
AcDbEntity
  8
COSTRUZIONE
100
AcDbCircle
 10
2378.055524608992
 20
2083.042669172641
 30
0.0
 40
15.0
  0
LINE
  5
17AC21874A318A
330
17AC21874A2FC9
100
AcDbEntity
  8
ASSE
100
AcDbLine
 10
2373.785010364799
 20
2098.980445306408
 30
0.0
 11
2382.326038853181
 21
2067.104893038869
 31
0.0
  0
LINE
  5
17AC21874A318B
330
17AC21874A2FC9
100
AcDbEntity
  8
ASSE
100
AcDbLine
 10
2401.349238668217
 20
1901.109344806624
 30
0.0
 11
2401.349238668217
 21
2091.109344806624
 31
0.0
  0
CIRCLE
  5
17AC21874A318C
330
17AC21874A2FC9
100
AcDbEntity
  8
ASSE
100
AcDbCircle
 10
2401.349238668217
 20
1996.109344806624
 30
0.0
 40
90.0
  0
CIRCLE
  5
17AC21874A318D
330
17AC21874A2FC9
100
AcDbEntity
  8
0
100
AcDbCircle
 10
2401.349238668217
 20
1996.109344806624
 30
0.0
 40
116.8980749594031
  0
CIRCLE
  5
17AC21874A318E
330
17AC21874A2FC9
100
AcDbEntity
  8
0
100
AcDbCircle
 10
2401.011041600058
 20
1995.616371553029
 30
0.0
 40
139.5
  0
ARC
  5
17AC21874A318F
330
17AC21874A2FC9
100
AcDbEntity
  8
0
100
AcDbCircle
 10
2775.439885592917
 20
2094.736906491066
 30
0.0
 40
52.11101924722871
100
AcDbArc
 50
29.72427821850144
 51
56.94179859049682
  0
ARC
  5
17AC21874A3190
330
17AC21874A2FC9
100
AcDbEntity
  8
0
100
AcDbCircle
 10
2860.983772808748
 20
2120.7537630441
 30
0.0
 40
40.28176604498389
100
AcDbArc
 50
180.5145732990397
 51
228.112818551529
  0
LINE
  5
17AC21874A3191
330
17AC21874A2FC9
100
AcDbEntity
  8
0
100
AcDbLine
 10
2267.784154068476
 20
2102.49782717088
 30
0.0
 11
2337.470281646687
 21
2172.133917428677
 31
0.0
  0
LINE
  5
17AC21874A3192
330
17AC21874A2FC9
100
AcDbEntity
  8
0
100
AcDbLine
 10
2678.73872256297
 20
2176.002591826023
 30
0.0
 11
2454.194524711178
 21
2249.507356481168
 31
0.0
  0
CIRCLE
  5
17AC21874A3193
330
17AC21874A2FC9
100
AcDbEntity
  8
0
100
AcDbCircle
 10
2400.962076706185
 20
2205.01763513779
 30
0.0
 40
48.34995042717719
  0
CIRCLE
  5
17AC21874A3194
330
17AC21874A2FC9
100
AcDbEntity
  8
0
100
AcDbCircle
 10
2400.962076706184
 20
2205.01763513779
 30
0.0
 40
70.0
  0
CIRCLE
  5
17AC21874A3195
330
17AC21874A2FC9
100
AcDbEntity
  8
0
100
AcDbCircle
 10
2400.605170620662
 20
2205.481584654637
 30
0.0
 40
16.05716579480576
  0
ARC
  5
17AC21874A3196
330
17AC21874A2FC9
100
AcDbEntity
  8
0
100
AcDbCircle
 10
2726.551178152933
 20
1996.109344806624
 30
0.0
 40
161.6331052863097
100
AcDbArc
 50
240.0850931705768
 51
299.1145251798485
  0
ARC
  5
17AC21874A3197
330
17AC21874A2FC9
100
AcDbEntity
  8
0
100
AcDbCircle
 10
2726.511041600058
 20
1995.616371553029
 30
0.0
 40
61.89870434778459
100
AcDbArc
 50
308.3108794202771
 51
138.3229295753838
  0
ARC
  5
17AC21874A3198
330
17AC21874A2FC9
100
AcDbEntity
  8
0
100
AcDbCircle
 10
2775.439885592917
 20
1897.929998409774
 30
0.0
 40
52.11101924722871
100
AcDbArc
 50
303.0582014095031
 51
330.2757217814985
  0
ARC
  5
17AC21874A3199
330
17AC21874A2FC9
100
AcDbEntity
  8
0
100
AcDbCircle
 10
2860.983772808748
 20
1871.913141856741
 30
0.0
 40
40.28176604498389
100
AcDbArc
 50
131.8871814484709
 51
179.4854267009602
  0
LINE
  5
17AC21874A319A
330
17AC21874A2FC9
100
AcDbEntity
  8
0
100
AcDbLine
 10
2324.500897935636
 20
1833.625117906951
 30
0.0
 11
2268.364856562495
 21
1889.720862442367
 31
0.0
  0
ARC
  5
17AC21874A319B
330
17AC21874A2FC9
100
AcDbEntity
  8
0
100
AcDbCircle
 10
2548.931528813386
 20
1818.340930666603
 30
0.0
 40
29.21735143405257
100
AcDbArc
 50
139.2033285450384
 51
309.5407265357674
  0
CIRCLE
  5
17AC21874A319C
330
17AC21874A2FC9
100
AcDbEntity
  8
0
100
AcDbCircle
 10
2726.511041600058
 20
1995.616371553029
 30
0.0
 40
22.5
  0
LINE
  5
17AC21874A319D
330
17AC21874A2FC9
100
AcDbEntity
  8
0
100
AcDbLine
 10
2635.977153874237
 20
1833.077118855971
 30
0.0
 11
2616.106895866066
 21
1833.112077804924
 31
0.0
  0
CIRCLE
  5
17AC21874A319E
330
17AC21874A2FC9
100
AcDbEntity
  8
0
100
AcDbCircle
 10
2548.961689881862
 20
1818.353449570344
 30
0.0
 40
15.0
  0
LINE
  5
17AC21874A319F
330
17AC21874A2FC9
100
AcDbEntity
  8
ASSE
100
AcDbLine
 10
2326.04236647185
 20
1920.802472610256
 30
0.0
 11
2349.376890251006
 21
1944.136996389412
 31
0.0
  0
CIRCLE
  5
17AC21874A31A0
330
17AC21874A2FC9
100
AcDbEntity
  8
COSTRUZIONE
100
AcDbCircle
 10
2337.709628361428
 20
1932.469734499834
 30
0.0
 40
15.0
  0
LINE
  5
17AC21874A31A1
330
17AC21874A2FC9
100
AcDbEntity
  8
ASSE
100
AcDbLine
 10
2306.349238668217
 20
1996.109344806624
 30
0.0
 11
2496.349238668217
 21
1996.109344806624
 31
0.0
  0
CIRCLE
  5
17AC21874A31A2
330
17AC21874A2FC9
100
AcDbEntity
  8
0
100
AcDbCircle
 10
2401.349238668217
 20
1996.109344806624
 30
0.0
 40
35.80822238947904
  0
CIRCLE
  5
17AC21874A31A3
330
17AC21874A2FC9
100
AcDbEntity
  8
COSTRUZIONE
100
AcDbCircle
 10
2488.282563034232
 20
1972.815630747397
 30
0.0
 40
15.0
  0
LINE
  5
17AC21874A31A4
330
17AC21874A2FC9
100
AcDbEntity
  8
ASSE
100
AcDbLine
 10
2504.220339168003
 20
1968.545116503205
 30
0.0
 11
2472.344786900463
 21
1977.086144991589
 31
0.0
  0
LINE
  5
17AC21874A31A5
330
17AC21874A2FC9
100
AcDbEntity
  8
0
100
AcDbLine
 10
2523.451251326108
 20
1833.275092494833
 30
0.0
 11
2324.500897935636
 21
1833.625117906951
 31
0.0
  0
LINE
  5
17AC21874A31A6
330
17AC21874A2FC9
100
AcDbEntity
  8
0
100
AcDbLine
 10
2261.511041600059
 20
1935.616371553029
 30
0.0
 11
2261.511041600059
 21
2055.616371553029
 31
0.0
  0
LINE
  5
17AC21874A31A7
330
17AC21874A2FC9
100
AcDbEntity
  8
0
100
AcDbLine
 10
1623.381034726548
 20
2102.49782717088
 30
0.0
 11
1623.381034726548
 21
2056.073763739386
 31
0.0
  0
LINE
  5
17AC21874A31A8
330
17AC21874A2FC9
100
AcDbEntity
  8
0
100
AcDbLine
 10
1623.381034726548
 20
1889.720862442367
 30
0.0
 11
1623.381034726548
 21
1936.144925873861
 31
0.0
  0
LINE
  5
17AC21874A31A9
330
17AC21874A2FC9
100
AcDbEntity
  8
0
100
AcDbLine
 10
1361.511041600059
 20
2055.616371553029
 30
0.0
 11
1361.511041600059
 21
1935.616371553029
 31
0.0
  0
ARC
  5
17AC21874A31AA
330
17AC21874A2FC9
100
AcDbEntity
  8
0
100
AcDbCircle
 10
2726.511041600058
 20
1995.616371553029
 30
0.0
 40
186.0
100
AcDbArc
 50
32.71578682332381
 51
213.224192823054
  0
LINE
  5
17AC21874A31B2
330
17AC21874A2FC9
100
AcDbEntity
  8
0
100
AcDbLine
 10
2297.573908139302
 20
894.0177523475304
 30
0.0
 11
4624.660574996696
 21
894.0177523475304
 31
0.0
  0
LINE
  5
17AC21874A31B4
330
17AC21874A2FC9
100
AcDbEntity
  8
0
100
AcDbLine
 10
2297.573908139301
 20
2990.879772036223
 30
0.0
 11
4679.405874916733
 21
2990.879772036224
 31
0.0
  0
LINE
  5
17AC21874A31B5
330
17AC21874A2FC9
100
AcDbEntity
  8
0
100
AcDbLine
 10
4769.405874916733
 20
2900.879772036224
 30
0.0
 11
4769.405874916733
 21
2585.586092793928
 31
0.0
  0
LINE
  5
17AC21874A31B7
330
17AC21874A2FC9
100
AcDbEntity
  8
0
100
AcDbLine
 10
2297.573908139302
 20
894.0177523475304
 30
0.0
 11
2207.573908139302
 21
984.0177523475304
 31
0.0
  0
LINE
  5
17AC21874A31BC
330
17AC21874A2FC9
100
AcDbEntity
  8
0
100
AcDbLine
 10
2207.573908139301
 20
2900.879772036223
 30
0.0
 11
2297.573908139301
 21
2990.879772036223
 31
0.0
  0
LINE
  5
17AC21874A31BD
330
17AC21874A2FC9
100
AcDbEntity
  8
0
100
AcDbLine
 10
4769.405874916733
 20
2900.879772036224
 30
0.0
 11
4679.405874916733
 21
2990.879772036224
 31
0.0
  0
LINE
  5
17AC21874A31BF
330
17AC21874A2FC9
100
AcDbEntity
  8
0
100
AcDbLine
 10
4769.405874916733
 20
2585.586092793928
 30
0.0
 11
4769.405874916732
 21
1235.501622717443
 31
0.0
  0
LINE
  5
17AC21874A31C0
330
17AC21874A2FC9
100
AcDbEntity
  8
0
100
AcDbLine
 10
2207.573908139301
 20
2103.192881125205
 30
0.0
 11
2207.573908139301
 21
2900.879772036223
 31
0.0
  0
LINE
  5
17AC21874A31C2
330
17AC21874A2FC9
100
AcDbEntity
  8
0
100
AcDbLine
 10
3103.040824127924
 20
1128.567556687309
 30
0.0
 11
3103.029886709463
 21
1128.567556687309
 31
0.0
  0
LINE
  5
17AC21874A31C3
330
17AC21874A2FC9
100
AcDbEntity
  8
0
100
AcDbLine
 10
2303.040824127924
 20
1128.567556687309
 30
0.0
 11
2303.040824127924
 21
1028.567556687309
 31
0.0
  0
LINE
  5
17AC21874A31C4
330
17AC21874A2FC9
100
AcDbEntity
  8
0
100
AcDbLine
 10
2303.040824127924
 20
1028.567556687309
 30
0.0
 11
2303.478111242554
 21
1028.567556687309
 31
0.0
  0
LINE
  5
17AC21874A31C5
330
17AC21874A2FC9
100
AcDbEntity
  8
0
100
AcDbLine
 10
3103.040824127924
 20
1028.567556687309
 30
0.0
 11
3103.040824127924
 21
1128.567556687309
 31
0.0
  0
LINE
  5
17AC21874A31C8
330
17AC21874A2FC9
100
AcDbEntity
  8
0
100
AcDbLine
 10
2302.677511626802
 20
1121.148363982546
 30
0.0
 11
2203.188925016588
 21
1121.148363982546
 31
0.0
  0
LINE
  5
17AC21874A31C9
330
17AC21874A2FC9
100
AcDbEntity
  8
0
100
AcDbLine
 10
2203.188925016588
 20
1121.148363982546
 30
0.0
 11
2203.188925016588
 21
1014.312037928401
 31
0.0
  0
LINE
  5
17AC21874A31CA
330
17AC21874A2FC9
100
AcDbEntity
  8
0
100
AcDbLine
 10
2203.188925016588
 20
1014.312037928401
 30
0.0
 11
2302.677511626802
 21
1014.312037928401
 31
0.0
  0
LINE
  5
17AC21874A31CB
330
17AC21874A2FC9
100
AcDbEntity
  8
0
100
AcDbLine
 10
2302.677511626802
 20
1014.312037928401
 30
0.0
 11
2302.677511626802
 21
1027.666575018086
 31
0.0
  0
LINE
  5
17AC21874A31CE
330
17AC21874A2FC9
100
AcDbEntity
  8
0
100
AcDbLine
 10
2203.032613774363
 20
1115.886941377047
 30
0.0
 11
2031.604258014031
 21
1115.886941377047
 31
0.0
  0
ARC
  5
17AC21874A31DB
330
17AC21874A2FC9
100
AcDbEntity
  8
0
100
AcDbCircle
 10
3062.180702409495
 20
1198.535883562213
 30
0.0
 40
80.98386102288651
100
AcDbArc
 50
240.2649456459253
 51
300.4834705088576
  0
ARC
  5
17AC21874A31DC
330
17AC21874A2FC9
100
AcDbEntity
  8
0
100
AcDbCircle
 10
2902.336965255118
 20
1198.535883562213
 30
0.0
 40
80.98386102288651
100
AcDbArc
 50
240.2649456459253
 51
300.4834705088576
  0
ARC
  5
17AC21874A31DD
330
17AC21874A2FC9
100
AcDbEntity
  8
0
100
AcDbCircle
 10
2741.431149757571
 20
1198.535883562213
 30
0.0
 40
80.98386102288651
100
AcDbArc
 50
240.2649456459253
 51
300.4834705088576
  0
ARC
  5
17AC21874A31DE
330
17AC21874A2FC9
100
AcDbEntity
  8
0
100
AcDbCircle
 10
2582.118459864587
 20
1198.535883562213
 30
0.0
 40
80.98386102288651
100
AcDbArc
 50
240.2649456459253
 51
300.4834705088576
  0
ARC
  5
17AC21874A31DF
330
17AC21874A2FC9
100
AcDbEntity
  8
0
100
AcDbCircle
 10
2422.274738889826
 20
1198.535883562213
 30
0.0
 40
80.98386102288651
100
AcDbArc
 50
240.2649456459253
 51
300.4834705088576
  0
ARC
  5
17AC21874A31E0
330
17AC21874A2FC9
100
AcDbEntity
  8
0
100
AcDbCircle
 10
2983.586435806172
 20
959.1917775611966
 30
0.0
 40
80.98386102288651
100
AcDbArc
 50
59.51652949114238
 51
119.7350543540746
  0
ARC
  5
17AC21874A31E1
330
17AC21874A2FC9
100
AcDbEntity
  8
0
100
AcDbCircle
 10
2823.742698651795
 20
959.1917775611966
 30
0.0
 40
80.98386102288651
100
AcDbArc
 50
59.51652949114238
 51
119.7350543540746
  0
ARC
  5
17AC21874A31E2
330
17AC21874A2FC9
100
AcDbEntity
  8
0
100
AcDbCircle
 10
2662.836883154248
 20
959.1917775611966
 30
0.0
 40
80.98386102288651
100
AcDbArc
 50
59.51652949114238
 51
119.7350543540746
  0
ARC
  5
17AC21874A31E3
330
17AC21874A2FC9
100
AcDbEntity
  8
0
100
AcDbCircle
 10
2503.524193261265
 20
959.1917775611966
 30
0.0
 40
80.98386102288651
100
AcDbArc
 50
59.51652949114238
 51
119.7350543540746
  0
ARC
  5
17AC21874A31E4
330
17AC21874A2FC9
100
AcDbEntity
  8
0
100
AcDbCircle
 10
2343.680472286504
 20
959.1917775611966
 30
0.0
 40
80.98386102288651
100
AcDbArc
 50
59.51652949114238
 51
119.7350543540746
  0
LINE
  5
17AC21874A31E5
330
17AC21874A2FC9
100
AcDbEntity
  8
0
100
AcDbLine
 10
3103.316136424548
 20
1127.684650312897
 30
0.0
 11
3022.597696955274
 21
1028.981698420894
 31
0.0
  0
LINE
  5
17AC21874A31E6
330
17AC21874A2FC9
100
AcDbEntity
  8
0
100
AcDbLine
 10
3022.597696955274
 20
1128.7459724814
 30
0.0
 11
2941.879273665612
 21
1030.043020589398
 31
0.0
  0
LINE
  5
17AC21874A31E7
330
17AC21874A2FC9
100
AcDbEntity
  8
0
100
AcDbLine
 10
2941.879273665612
 20
1128.7459724814
 30
0.0
 11
2862.22292871912
 21
1028.981698420894
 31
0.0
  0
LINE
  5
17AC21874A31E8
330
17AC21874A2FC9
100
AcDbEntity
  8
0
100
AcDbLine
 10
2862.22292871912
 20
1128.7459724814
 30
0.0
 11
2782.566583772628
 21
1028.981698420894
 31
0.0
  0
LINE
  5
17AC21874A31E9
330
17AC21874A2FC9
100
AcDbEntity
  8
0
100
AcDbLine
 10
2782.566583772628
 20
1128.7459724814
 30
0.0
 11
2701.848160482967
 21
1030.043020589398
 31
0.0
  0
LINE
  5
17AC21874A31EA
330
17AC21874A2FC9
100
AcDbEntity
  8
0
100
AcDbLine
 10
2701.848160482967
 20
1128.7459724814
 30
0.0
 11
2622.191815536475
 21
1030.043020589398
 31
0.0
  0
LINE
  5
17AC21874A31EB
330
17AC21874A2FC9
100
AcDbEntity
  8
0
100
AcDbLine
 10
2622.191815536475
 20
1128.7459724814
 30
0.0
 11
2542.535470589979
 21
1028.981698420894
 31
0.0
  0
LINE
  5
17AC21874A31EC
330
17AC21874A2FC9
100
AcDbEntity
  8
0
100
AcDbLine
 10
2542.535470589979
 20
1128.7459724814
 30
0.0
 11
2461.817031120705
 21
1028.981698420894
 31
0.0
  0
LINE
  5
17AC21874A31ED
330
17AC21874A2FC9
100
AcDbEntity
  8
0
100
AcDbLine
 10
2461.817031120705
 20
1127.684650312897
 30
0.0
 11
2382.160686174213
 21
1030.043020589398
 31
0.0
  0
LINE
  5
17AC21874A31EE
330
17AC21874A2FC9
100
AcDbEntity
  8
0
100
AcDbLine
 10
2381.098607831043
 20
1127.684650312897
 30
0.0
 11
2303.566435750503
 21
1030.043020589398
 31
0.0
  0
LINE
  5
17AC21874A31EF
330
17AC21874A2FC9
100
AcDbEntity
  8
0
100
AcDbLine
 10
3021.721619444381
 20
1128.567556687309
 30
0.0
 11
2941.74781430912
 21
1128.567556687309
 31
0.0
  0
LINE
  5
17AC21874A31F1
330
17AC21874A2FC9
100
AcDbEntity
  8
0
100
AcDbLine
 10
3022.962967900772
 20
1028.567556687309
 30
0.0
 11
3103.040824127924
 21
1028.567556687309
 31
0.0
  0
LINE
  5
17AC21874A31F3
330
17AC21874A2FC9
100
AcDbEntity
  8
0
100
AcDbLine
 10
2862.611902797823
 20
1028.567556687309
 30
0.0
 11
2941.344359476689
 21
1028.567556687309
 31
0.0
  0
LINE
  5
17AC21874A31F6
330
17AC21874A2FC9
100
AcDbEntity
  8
0
100
AcDbLine
 10
2861.680895500429
 20
1128.567556687309
 30
0.0
 11
2782.04846402211
 21
1128.567556687309
 31
0.0
  0
LINE
  5
17AC21874A31F7
330
17AC21874A2FC9
100
AcDbEntity
  8
0
100
AcDbLine
 10
2701.67122023403
 20
1028.567556687309
 30
0.0
 11
2782.234659009743
 21
1028.567556687309
 31
0.0
  0
LINE
  5
17AC21874A31F9
330
17AC21874A2FC9
100
AcDbEntity
  8
0
100
AcDbLine
 10
2701.36089525464
 20
1128.567556687309
 30
0.0
 11
2623.000844730652
 21
1128.567556687309
 31
0.0
  0
LINE
  5
17AC21874A31FB
330
17AC21874A2FC9
100
AcDbEntity
  8
0
100
AcDbLine
 10
2543.244283260576
 20
1028.567556687309
 30
0.0
 11
2621.914674943566
 21
1028.567556687309
 31
0.0
  0
LINE
  5
17AC21874A31FD
330
17AC21874A2FC9
100
AcDbEntity
  8
0
100
AcDbLine
 10
2542.002934804185
 20
1128.567556687309
 30
0.0
 11
2461.749869546698
 21
1128.567556687309
 31
0.0
  0
LINE
  5
17AC21874A31FF
330
17AC21874A2FC9
100
AcDbEntity
  8
0
100
AcDbLine
 10
2381.993324256236
 20
1028.567556687309
 30
0.0
 11
2461.936048354719
 21
1028.567556687309
 31
0.0
  0
LINE
  5
17AC21874A3202
330
17AC21874A2FC9
100
AcDbEntity
  8
0
100
AcDbLine
 10
2381.062300779231
 20
1128.567556687309
 30
0.0
 11
2303.040824127924
 21
1128.567556687309
 31
0.0
  0
LINE
  5
17AC21874A3203
330
17AC21874A2FC9
100
AcDbEntity
  8
0
100
AcDbLine
 10
4769.405874916732
 20
1115.886941377047
 30
0.0
 11
4769.405874916732
 21
984.0177523475304
 31
0.0
  0
LINE
  5
17AC21874A3204
330
17AC21874A2FC9
100
AcDbEntity
  8
0
100
AcDbLine
 10
2207.573908139302
 20
1236.960339297583
 30
0.0
 11
2207.573908139301
 21
1891.039085752367
 31
0.0
  0
LINE
  5
17AC21874A3208
330
17AC21874A2FC9
100
AcDbEntity
  8
0
100
AcDbLine
 10
2010.249094087017
 20
3061.574729961879
 30
0.0
 11
5074.490434215352
 21
3061.574729961879
 31
0.0
  0
LINE
  5
17AC21874A3209
330
17AC21874A2FC9
100
AcDbEntity
  8
0
100
AcDbLine
 10
2010.578527189485
 20
3036.108249180121
 30
0.0
 11
5074.490434215352
 21
3036.108249180121
 31
0.0
  0
LINE
  5
17AC21874A320D
330
17AC21874A2FC9
100
AcDbEntity
  8
0
100
AcDbLine
 10
2010.249094087017
 20
3061.663453804016
 30
0.0
 11
2010.249094087017
 21
743.9260078071856
 31
0.0
  0
LINE
  5
17AC21874A320E
330
17AC21874A2FC9
100
AcDbEntity
  8
0
100
AcDbLine
 10
2031.604258014031
 20
3061.663453804016
 30
0.0
 11
2031.604258014031
 21
743.9260078071856
 31
0.0
  0
LINE
  5
17AC21874A3212
330
17AC21874A2FC9
100
AcDbEntity
  8
0
100
AcDbLine
 10
2010.641838015572
 20
769.0256238626552
 30
0.0
 11
5074.28439647316
 21
769.0256238626552
 31
0.0
  0
LINE
  5
17AC21874A3213
330
17AC21874A2FC9
100
AcDbEntity
  8
0
100
AcDbLine
 10
2010.641838015572
 20
743.9260078071856
 30
0.0
 11
5074.28439647316
 21
743.9260078071856
 31
0.0
  0
LINE
  5
17AC21874A3218
330
17AC21874A2FC9
100
AcDbEntity
  8
0
100
AcDbLine
 10
1459.71650193927
 20
1236.960339297583
 30
0.0
 11
1459.71650193927
 21
1116.371895943263
 31
0.0
  0
LINE
  5
17AC21874A3219
330
17AC21874A2FC9
100
AcDbEntity
  8
0
100
AcDbLine
 10
5460.306658305684
 20
1236.310522474718
 30
0.0
 11
5460.306658305684
 21
1115.750193420645
 31
0.0
  0
LINE
  5
17AC21874A3226
330
17AC21874A2FC9
100
AcDbEntity
  8
ASSE
100
AcDbLine
 10
4678.388710874323
 20
981.7447735990809
 30
0.0
 11
4860.814480428833
 21
799.4499776740085
 31
0.0
  0
LINE
  5
17AC21874A322F
330
17AC21874A2FC9
100
AcDbEntity
  8
0
100
AcDbLine
 10
5024.377096783378
 20
935.2705816178483
 30
0.0
 11
5024.377096783378
 21
735.2705816178484
 31
0.0
  0
LINE
  5
17AC21874A3230
330
17AC21874A2FC9
100
AcDbEntity
  8
0
100
AcDbLine
 10
5024.377096783378
 20
735.2705816178484
 30
0.0
 11
4624.377096783378
 21
735.2705816178484
 31
0.0
  0
LINE
  5
17AC21874A3231
330
17AC21874A2FC9
100
AcDbEntity
  8
0
100
AcDbLine
 10
4624.377096783378
 20
735.2705816178484
 30
0.0
 11
4624.377096783378
 21
935.2705816178483
 31
0.0
  0
LINE
  5
17AC21874A3232
330
17AC21874A2FC9
100
AcDbEntity
  8
0
100
AcDbLine
 10
4624.377096783378
 20
935.2705816178483
 30
0.0
 11
5024.377096783378
 21
935.2705816178483
 31
0.0
  0
LINE
  5
17AC21874A3234
330
17AC21874A2FC9
100
AcDbEntity
  8
ASSE
 62
     1
100
AcDbLine
 39
0.1234
 10
5043.240249983342
 20
835.2705816178486
 30
0.0
 11
4605.918200546881
 21
835.2705816178486
 31
0.0
  0
LINE
  5
17AC21874A3236
330
17AC21874A2FC9
100
AcDbEntity
  8
ASSE
 62
     1
100
AcDbLine
 39
0.1234
 10
4824.377096783379
 20
720.7885350992801
 30
0.0
 11
4824.377096783379
 21
973.0046143736727
 31
0.0
  0
LINE
  5
17AC21874A3238
330
17AC21874A2FC9
100
AcDbEntity
  8
0
100
AcDbLine
 10
4719.654122430256
 20
934.2659998610542
 30
0.0
 11
4769.405874916732
 21
984.0177523475304
 31
0.0
  0
LINE
  5
17AC21874A3239
330
17AC21874A2FC9
100
AcDbEntity
  8
0
100
AcDbLine
 10
2010.249094087017
 20
2102.49782717088
 30
0.0
 11
1623.381034726548
 21
2102.49782717088
 31
0.0
  0
LINE
  5
17AC21874A323A
330
17AC21874A2FC9
100
AcDbEntity
  8
0
100
AcDbLine
 10
2010.249094087017
 20
2055.616371553029
 30
0.0
 11
1361.511041600059
 21
2055.616371553029
 31
0.0
  0
LINE
  5
17AC21874A323B
330
17AC21874A2FC9
100
AcDbEntity
  8
ASSE
 62
     1
100
AcDbLine
 39
0.1234
 10
2031.604258014031
 20
1995.616371553029
 30
0.0
 11
2924.901553161604
 21
1995.616371553029
 31
0.0
  0
LINE
  5
17AC21874A323C
330
17AC21874A2FC9
100
AcDbEntity
  8
0
100
AcDbLine
 10
2031.604258014031
 20
1935.616371553029
 30
0.0
 11
2261.511041600059
 21
1935.616371553029
 31
0.0
  0
LINE
  5
17AC21874A323D
330
17AC21874A2FC9
100
AcDbEntity
  8
0
100
AcDbLine
 10
2010.249094087017
 20
1889.720862442367
 30
0.0
 11
1623.381034726548
 21
1889.720862442367
 31
0.0
  0
LINE
  5
17AC21874A323E
330
17AC21874A2FC9
100
AcDbEntity
  8
0
100
AcDbLine
 10
2010.249094087017
 20
1236.960339297583
 30
0.0
 11
1459.720124083476
 21
1236.960339297583
 31
0.0
  0
LINE
  5
17AC21874A323F
330
17AC21874A2FC9
100
AcDbEntity
  8
ASSE
 62
     1
100
AcDbLine
 39
0.1234
 10
2010.249094087017
 20
1176.486955958491
 30
0.0
 11
1453.494789692527
 21
1176.486955958491
 31
0.0
  0
LINE
  5
17AC21874A3240
330
17AC21874A2FC9
100
AcDbEntity
  8
0
100
AcDbLine
 10
2010.249094087017
 20
1115.886941377047
 30
0.0
 11
1459.720124083476
 21
1115.886941377047
 31
0.0
  0
LINE
  5
17AC21874A3244
330
17AC21874A2FC9
100
AcDbEntity
  8
0
100
AcDbLine
 10
5049.377096783377
 20
743.9260078071856
 30
0.0
 11
5049.377096783377
 21
3061.553111753012
 31
0.0
  0
LINE
  5
17AC21874A3245
330
17AC21874A2FC9
100
AcDbEntity
  8
0
100
AcDbLine
 10
5074.377096783376
 20
743.9260078071856
 30
0.0
 11
5074.377096783376
 21
3061.553111753012
 31
0.0
  0
LINE
  5
17AC21874A324A
330
17AC21874A2FC9
100
AcDbEntity
  8
0
100
AcDbLine
 10
5074.377096783376
 20
1115.886941377047
 30
0.0
 11
5461.200943052276
 21
1115.886941377047
 31
0.0
  0
LINE
  5
17AC21874A324B
330
17AC21874A2FC9
100
AcDbEntity
  8
ASSE
 62
     1
100
AcDbLine
 39
0.1234
 10
5068.937035000388
 20
1176.48695595849
 30
0.0
 11
4079.25819453104
 21
1176.48695595849
 31
0.0
  0
LINE
  5
17AC21874A324C
330
17AC21874A2FC9
100
AcDbEntity
  8
0
100
AcDbLine
 10
5074.377096783376
 20
1235.501622717443
 30
0.0
 11
5461.200943052276
 21
1235.501622717443
 31
0.0
  0
DIMENSION
  5
17AC21874A325A
330
17AC21874A2FC9
100
AcDbEntity
  8
QUOTA
100
AcDbDimension
  2
*D4
 10
5461.200943052276
 20
374.5716764626558
 30
0.0
 11
3460.460533567876
 21
414.5716764626558
 31
0.0
 70
    32
  1
4000 
  3
BASE
100
AcDbAlignedDimension
 13
1459.720124083476
 23
1115.886941377047
 33
0.0
 14
5461.200943052276
 24
1115.886941377047
 34
0.0
100
AcDbRotatedDimension
1001
ACAD
1000
DSTYLE
1002
{
1070
    40
1040
10.0
1002
}
  0
DIMENSION
  5
17AC21874A3272
330
17AC21874A2FC9
100
AcDbEntity
  8
QUOTA
100
AcDbDimension
  2
*D5
 10
5072.333521517046
 20
3951.493841365278
 30
0.0
 11
3543.04958189571
 21
3991.493841365278
 31
0.0
 70
    32
  1
3060
  3
BASE
100
AcDbAlignedDimension
 13
2013.765642274373
 23
3031.9519172953
 33
0.0
 14
5072.333521517046
 24
3031.9519172953
 34
0.0
100
AcDbRotatedDimension
1001
ACAD
1000
DSTYLE
1002
{
1070
    40
1040
10.0
1002
}
  0
LINE
  5
17AC21874A32F7
330
17AC21874A2FC9
100
AcDbEntity
  8
0
100
AcDbLine
 10
172.4564384805105
 20
3285.220389548793
 30
0.0
 11
1303.40032225109
 21
3285.220389548793
 31
0.0
  0
LINE
  5
17AC21874A32F8
330
17AC21874A2FC9
100
AcDbEntity
  8
0
100
AcDbLine
 10
172.4564384805105
 20
3308.858033680336
 30
0.0
 11
1295.745872538799
 21
3308.858033680336
 31
0.0
  0
LINE
  5
17AC21874A32F9
330
17AC21874A2FC9
100
AcDbEntity
  8
0
100
AcDbLine
 10
173.2029904132443
 20
3673.265852483188
 30
0.0
 11
1568.22512395276
 21
3673.265852483188
 31
0.0
  0
LINE
  5
17AC21874A32FA
330
17AC21874A2FC9
100
AcDbEntity
  8
0
100
AcDbLine
 10
173.2029904132443
 20
3694.904922118331
 30
0.0
 11
1568.22512395276
 21
3694.904922118331
 31
0.0
  0
LINE
  5
17AC21874A32FB
330
17AC21874A2FC9
100
AcDbEntity
  8
0
100
AcDbLine
 10
173.2029904132443
 20
3799.646192220467
 30
0.0
 11
1558.306218262754
 21
3799.646192220467
 31
0.0
  0
LINE
  5
17AC21874A32FC
330
17AC21874A2FC9
100
AcDbEntity
  8
0
100
AcDbLine
 10
173.2029904132443
 20
3823.283836352008
 30
0.0
 11
1560.306257989723
 21
3823.283836352008
 31
0.0
  0
LINE
  5
17AC21874A32FD
330
17AC21874A2FC9
100
AcDbEntity
  8
0
100
AcDbLine
 10
173.2029904132443
 20
3933.58909131542
 30
0.0
 11
1568.22512395276
 21
3933.58909131542
 31
0.0
  0
LINE
  5
17AC21874A32FE
330
17AC21874A2FC9
100
AcDbEntity
  8
0
100
AcDbLine
 10
173.2029904132443
 20
3955.228160950563
 30
0.0
 11
1568.22512395276
 21
3955.228160950563
 31
0.0
  0
TEXT
  5
17AC21874A32FF
330
17AC21874A2FC9
100
AcDbEntity
  8
TESTO
100
AcDbText
 10
164.8873672614722
 20
3317.955968065048
 30
0.0
 40
70.0
  1
Larghezza 120 mm
  7
ROMANC
100
AcDbText
  0
TEXT
  5
17AC21874A3300
330
17AC21874A2FC9
100
AcDbEntity
  8
TESTO
100
AcDbText
 10
165.6339191942061
 20
3963.058484794103
 30
0.0
 40
112.0
  1
ETICAP SYSTEM
  7
ROMANC
100
AcDbText
  0
LINE
  5
17AC21874A3301
330
17AC21874A2FC9
100
AcDbEntity
  8
0
100
AcDbLine
 10
173.2029904132443
 20
3416.680768089619
 30
0.0
 11
1139.57635460369
 21
3416.680768089619
 31
0.0
  0
LINE
  5
17AC21874A3302
330
17AC21874A2FC9
100
AcDbEntity
  8
0
100
AcDbLine
 10
173.2029904132443
 20
3436.321238393947
 30
0.0
 11
1135.749129747544
 21
3436.321238393947
 31
0.0
  0
LINE
  5
17AC21874A3303
330
17AC21874A2FC9
100
AcDbEntity
  8
0
100
AcDbLine
 10
173.2029904132443
 20
3548.71140764994
 30
0.0
 11
1034.327770549101
 21
3548.71140764994
 31
0.0
  0
LINE
  5
17AC21874A3304
330
17AC21874A2FC9
100
AcDbEntity
  8
0
100
AcDbLine
 10
173.2029904132443
 20
3568.351902788683
 30
0.0
 11
1034.327770549101
 21
3568.351902788683
 31
0.0
  0
TEXT
  5
17AC21874A3305
330
17AC21874A2FC9
100
AcDbEntity
  8
TESTO
100
AcDbText
 10
165.6339191942061
 20
3451.667252659885
 30
0.0
 40
70.0
  1
Altezza 100 mm
  7
ROMANC
100
AcDbText
  0
TEXT
  5
17AC21874A3306
330
17AC21874A2FC9
100
AcDbEntity
  8
TESTO
100
AcDbText
 10
165.6339191942061
 20
3582.297048113159
 30
0.0
 40
70.0
  1
Sezione nastro
  7
ROMANC
100
AcDbText
  0
TEXT
  5
17AC21874A3307
330
17AC21874A2FC9
100
AcDbEntity
  8
TESTO
100
AcDbText
 10
165.6339191942061
 20
3836.339488515611
 30
0.0
 40
70.0
  1
Modello PF4 7T 2S CA
  7
ROMANC
100
AcDbText
  0
TEXT
  5
17AC21874A3308
330
17AC21874A2FC9
100
AcDbEntity
  8
TESTO
100
AcDbText
 10
165.6339191942061
 20
3707.449208523176
 30
0.0
 40
70.0
  1
Lunghezza nastro 4000 mm
  7
ROMANC
100
AcDbText
  0
LINE
  5
17AC21874A3309
330
17AC21874A2FC9
100
AcDbEntity
  8
0
100
AcDbLine
 10
1568.22512395276
 20
3673.265852483185
 30
0.0
 11
1832.303390303266
 21
3673.265852483185
 31
0.0
  0
LINE
  5
17AC21874A330A
330
17AC21874A2FC9
100
AcDbEntity
  8
0
100
AcDbLine
 10
1568.22512395276
 20
3694.904922118331
 30
0.0
 11
1830.389777875193
 21
3694.904922118331
 31
0.0
  0
INSERT
  5
17AC21874A330B
330
17AC21874A2FC9
100
AcDbEntity
  8
0
100
AcDbBlockReference
  2
A$C6
 10
169.4521280154821
 20
154.9149642373781
 30
0.0
 41
2.0
 42
2.0
 43
2.0
  0
DIMENSION
  5
17AC21874A335E
330
17AC21874A2FC9
100
AcDbEntity
  8
QUOTA
100
AcDbDimension
  2
*D9
 10
778.7418893307403
 20
743.926007807186
 30
0.0
 11
738.7418893307404
 21
1902.667798236739
 31
0.0
 70
    32
  1
2320
  3
BASE
100
AcDbAlignedDimension
 13
2153.640570406838
 23
3061.409588666291
 33
0.0
 14
2010.249094087017
 24
743.9260078071856
 34
0.0
 50
90.0
100
AcDbRotatedDimension
1001
ACAD
1000
DSTYLE
1002
{
1070
    40
1040
10.0
1002
}
  0
DIMENSION
  5
17AC21874A33A4
330
17AC21874A2FC9
100
AcDbEntity
  8
QUOTA
100
AcDbDimension
  2
*D10
 10
1106.907010682865
 20
743.926007807186
 30
0.0
 11
1066.907010682865
 21
1368.368875978736
 31
0.0
 70
    32
  1
1255
  3
BASE
100
AcDbAlignedDimension
 13
1423.756077781938
 23
1992.811744150287
 33
0.0
 14
1459.720124083476
 24
743.9260078071859
 34
0.0
 50
90.0
100
AcDbRotatedDimension
1001
ACAD
1000
DSTYLE
1002
{
1070
    40
1040
10.0
1002
}
  0
TEXT
  5
17AC21874A33DF
330
17AC21874A2FC9
100
AcDbEntity
  8
0
100
AcDbText
 10
4468.716459682637
 20
628.4692763649254
 30
0.0
 40
60.0
  1
QUADRO ELETTRICO
 41
0.8
  7
ROMANS
100
AcDbText
  0
LINE
  5
17AC21874A33E0
330
17AC21874A2FC9
100
AcDbEntity
  8
0
100
AcDbLine
 10
4466.909824114067
 20
616.2746327002187
 30
0.0
 11
5174.000160647614
 21
616.2746327002187
 31
0.0
  0
LINE
  5
17AC21874A33E1
330
17AC21874A2FC9
100
AcDbEntity
  8
0
100
AcDbLine
 10
4466.909824114067
 20
595.9525597322554
 30
0.0
 11
5174.000160647614
 21
595.9525597322554
 31
0.0
  0
DIMENSION
  5
17AC21874A36B1
330
17AC21874A2FC9
100
AcDbEntity
  8
QUOTA
100
AcDbDimension
  2
*D11
 10
1106.907010682866
 20
3061.409588666291
 30
0.0
 11
1066.907010682865
 21
2527.110666408289
 31
0.0
 70
    32
  3
BASE
100
AcDbAlignedDimension
 13
1403.756077781938
 23
1992.811744150287
 33
0.0
 14
1360.225501321885
 24
3061.409588666291
 34
0.0
 50
90.0
100
AcDbRotatedDimension
1001
ACAD
1000
DSTYLE
1002
{
1070
    40
1040
10.0
1002
}
  0
CIRCLE
  5
17AC21874A3731
330
17AC21874A2FC9
100
AcDbEntity
  8
ASSE
100
AcDbCircle
 10
3114.55825733923
 20
1420.293226392351
 30
0.0
 40
252.0
  0
ARC
  5
17AC21874A375A
330
17AC21874A2FC9
100
AcDbEntity
  8
0
100
AcDbCircle
 10
3114.55825733923
 20
1420.293226392351
 30
0.0
 40
262.0
100
AcDbArc
 50
278.6442898156114
 51
21.35571018438864
  0
ARC
  5
17AC21874A375B
330
17AC21874A2FC9
100
AcDbEntity
  8
0
100
AcDbCircle
 10
3114.55825733923
 20
1168.293226392351
 30
0.0
 40
40.0
100
AcDbArc
 50
349.8867008615012
 51
190.1132991384987
  0
LINE
  5
17AC21874A375C
330
17AC21874A2FC9
100
AcDbEntity
  8
ASSE
100
AcDbLine
 10
3114.558257339229
 20
1420.29322639235
 30
0.0
 11
3373.499853070777
 21
1569.793226392351
 31
0.0
  0
LINE
  5
17AC21874A375D
330
17AC21874A2FC9
100
AcDbEntity
  8
ASSE
100
AcDbLine
 10
3114.558257339229
 20
1420.29322639235
 30
0.0
 11
2855.616661607682
 21
1569.79322639235
 31
0.0
  0
ARC
  5
17AC21874A375E
330
17AC21874A2FC9
100
AcDbEntity
  8
0
100
AcDbCircle
 10
2896.319855585552
 20
1546.29322639235
 30
0.0
 40
40.0
100
AcDbArc
 50
229.8867008615011
 51
70.11329913849931
  0
ARC
  5
17AC21874A375F
330
17AC21874A2FC9
100
AcDbEntity
  8
0
100
AcDbCircle
 10
3114.55825733923
 20
1420.293226392351
 30
0.0
 40
262.0
100
AcDbArc
 50
158.6442898156115
 51
261.3557101843885
  0
ARC
  5
17AC21874A3760
330
17AC21874A2FC9
100
AcDbEntity
  8
0
100
AcDbCircle
 10
3332.796659092909
 20
1546.293226392351
 30
0.0
 40
40.0
100
AcDbArc
 50
191.7648868329668
 51
310.1132991384988
  0
ARC
  5
17AC21874A3761
330
17AC21874A2FC9
100
AcDbEntity
  8
0
100
AcDbCircle
 10
3114.55825733923
 20
1420.293226392351
 30
0.0
 40
262.0
100
AcDbArc
 50
98.39351862888538
 51
141.3557101843887
  0
ARC
  5
17AC21874A376C
330
17AC21874A2FC9
100
AcDbEntity
  8
0
100
AcDbCircle
 10
3114.558257339228
 20
1420.293226392351
 30
0.0
 40
292.0
100
AcDbArc
 50
270.0000000000004
 51
17.38720376885431
  0
LINE
  5
17AC21874A377F
330
17AC21874A2FC9
100
AcDbEntity
  8
ASSE
100
AcDbLine
 10
3956.24988363169
 20
1420.293226392351
 30
0.0
 11
3697.308287900142
 21
1569.793226392351
 31
0.0
  0
LINE
  5
17AC21874A3780
330
17AC21874A2FC9
100
AcDbEntity
  8
ASSE
100
AcDbLine
 10
3657.249883631691
 20
1420.293226392352
 30
0.0
 11
4255.24988363169
 21
1420.293226392352
 31
0.0
  0
LINE
  5
17AC21874A3781
330
17AC21874A2FC9
100
AcDbEntity
  8
ASSE
100
AcDbLine
 10
3956.24988363169
 20
1420.293226392351
 30
0.0
 11
4215.191479363237
 21
1569.793226392352
 31
0.0
  0
LINE
  5
17AC21874A3782
330
17AC21874A2FC9
100
AcDbEntity
  8
ASSE
100
AcDbLine
 10
3956.249883631691
 20
1719.293226392352
 30
0.0
 11
3956.249883631691
 21
1121.293226392352
 31
0.0
  0
CIRCLE
  5
17AC21874A3783
330
17AC21874A2FC9
100
AcDbEntity
  8
0
100
AcDbCircle
 10
3956.249883631691
 20
1420.293226392352
 30
0.0
 40
40.0
  0
CIRCLE
  5
17AC21874A3784
330
17AC21874A2FC9
100
AcDbEntity
  8
ASSE
100
AcDbCircle
 10
3956.249883631691
 20
1420.293226392352
 30
0.0
 40
252.0
  0
ARC
  5
17AC21874A3785
330
17AC21874A2FC9
100
AcDbEntity
  8
0
100
AcDbCircle
 10
3956.249883631691
 20
1420.293226392352
 30
0.0
 40
262.0
100
AcDbArc
 50
38.64428981561145
 51
81.66575932055204
  0
ARC
  5
17AC21874A3786
330
17AC21874A2FC9
100
AcDbEntity
  8
0
100
AcDbCircle
 10
3956.249883631691
 20
1420.293226392352
 30
0.0
 40
262.0
100
AcDbArc
 50
158.6442898156115
 51
261.3557101843885
  0
ARC
  5
17AC21874A3787
330
17AC21874A2FC9
100
AcDbEntity
  8
0
100
AcDbCircle
 10
3738.011481878012
 20
1546.293226392351
 30
0.0
 40
40.0
100
AcDbArc
 50
229.8867008615011
 51
348.4301172895022
  0
ARC
  5
17AC21874A3788
330
17AC21874A2FC9
100
AcDbEntity
  8
0
100
AcDbCircle
 10
3956.249883631691
 20
1168.293226392352
 30
0.0
 40
40.0
100
AcDbArc
 50
349.8867008615012
 51
190.1132991384987
  0
ARC
  5
17AC21874A3789
330
17AC21874A2FC9
100
AcDbEntity
  8
0
100
AcDbCircle
 10
3956.249883631691
 20
1420.293226392352
 30
0.0
 40
262.0
100
AcDbArc
 50
278.6442898156114
 51
21.35571018438864
  0
ARC
  5
17AC21874A378A
330
17AC21874A2FC9
100
AcDbEntity
  8
0
100
AcDbCircle
 10
4174.488285385368
 20
1546.293226392352
 30
0.0
 40
40.0
100
AcDbArc
 50
109.8867008615014
 51
310.1132991384988
  0
ARC
  5
17AC21874A3795
330
17AC21874A2FC9
100
AcDbEntity
  8
0
100
AcDbCircle
 10
3956.249883631688
 20
1420.293226392352
 30
0.0
 40
292.0
100
AcDbArc
 50
162.5976477508311
 51
270.0000000000002
  0
LINE
  5
17AC21874A3796
330
17AC21874A2FC9
100
AcDbEntity
  8
0
100
AcDbLine
 10
3956.24988363169
 20
1128.293226392352
 30
0.0
 11
3956.24988363169
 21
1028.337531343033
 31
0.0
  0
LINE
  5
17AC21874A37B2
330
17AC21874A2FC9
100
AcDbEntity
  8
0
100
AcDbLine
 10
2207.573908139302
 20
1014.312037928401
 30
0.0
 11
2207.573908139302
 21
984.0177523475304
 31
0.0
  0
LINE
  5
17AC21874A3833
330
17AC21874A2FC9
100
AcDbEntity
  8
0
100
AcDbLine
 39
0.1234
 10
2849.857919309993
 20
2588.607043486786
 30
0.0
 11
2695.019776000117
 21
2789.892011584413
 31
0.0
  0
LINE
  5
17AC21874A3834
330
17AC21874A2FC9
100
AcDbEntity
  8
0
100
AcDbLine
 39
0.1234
 10
2741.509650514244
 20
2529.632158147752
 30
0.0
 11
2645.276979157378
 21
2760.383680995306
 31
0.0
  0
LINE
  5
17AC21874A3835
330
17AC21874A2FC9
100
AcDbEntity
  8
0
100
AcDbLine
 10
3018.754791340276
 20
2970.110231041856
 30
0.0
 11
3024.253953123558
 21
2990.879772036223
 31
0.0
  0
LINE
  5
17AC21874A3836
330
17AC21874A2FC9
100
AcDbEntity
  8
0
100
AcDbLine
 10
2975.189207979581
 20
2988.7350963254
 30
0.0
 11
2975.757054842913
 21
2990.879772036223
 31
0.0
  0
LINE
  5
17AC21874A3837
330
17AC21874A2FC9
100
AcDbEntity
  8
0
100
AcDbLine
 10
2822.863052552474
 20
3061.574729961879
 30
0.0
 11
2902.8619819699
 21
3363.719149333574
 31
0.0
  0
LINE
  5
17AC21874A3838
330
17AC21874A2FC9
100
AcDbEntity
  8
0
100
AcDbLine
 10
2947.228701280047
 20
3351.972150815594
 30
0.0
 11
2870.340030550374
 21
3061.574729961879
 31
0.0
  0
LINE
  5
17AC21874A3839
330
17AC21874A2FC9
100
AcDbEntity
  8
ASSE
 62
     1
100
AcDbLine
 39
0.1234
 10
3153.126023034566
 20
3895.196713633664
 30
0.0
 11
2747.392399155522
 21
2362.799329078102
 31
0.0
  0
ARC
  5
17AC21874A383A
330
17AC21874A2FC9
100
AcDbEntity
  8
0
100
AcDbCircle
 10
2672.251923008888
 20
2771.619521820991
 30
0.0
 40
29.21735143405257
100
AcDbArc
 50
34.37338866719619
 51
204.7107866578777
  0
LINE
  5
17AC21874A383B
330
17AC21874A2FC9
100
AcDbEntity
  8
0
100
AcDbLine
 10
2984.775520502429
 20
2554.592398119476
 30
0.0
 11
3113.304122431128
 21
2752.843364579078
 31
0.0
  0
ARC
  5
17AC21874A383C
330
17AC21874A2FC9
100
AcDbEntity
  8
0
100
AcDbCircle
 10
2798.636915510411
 20
2554.416431217402
 30
0.0
 40
161.6331052863097
100
AcDbArc
 50
315.1445249595361
 51
105.2282747162562
  0
LINE
  5
17AC21874A383D
330
17AC21874A2FC9
100
AcDbEntity
  8
ASSE
 62
     1
100
AcDbLine
 39
0.1234
 10
2833.071915882505
 20
2494.766463176845
 30
0.0
 11
2655.183115324422
 21
2800.777726206942
 31
0.0
  0
ARC
  5
17AC21874A383F
330
17AC21874A2FC9
100
AcDbEntity
  8
0
100
AcDbCircle
 10
2798.809556749107
 20
2554.123380277792
 30
0.0
 40
142.9468437121174
100
AcDbArc
 50
213.8141528064283
 51
296.349191321328
  0
ARC
  5
17AC21874A3840
330
17AC21874A2FC9
100
AcDbEntity
  8
0
100
AcDbCircle
 10
2798.170636295795
 20
2554.581407778323
 30
0.0
 40
61.89870434778459
100
AcDbArc
 50
203.4809395423988
 51
33.49298969753062
  0
LINE
  5
17AC21874A3841
330
17AC21874A2FC9
100
AcDbEntity
  8
ASSE
 62
     1
100
AcDbLine
 39
0.1234
 10
2990.046007189055
 20
2503.778469617321
 30
0.0
 11
2604.701105075817
 21
2605.80643256837
 31
0.0
  0
ARC
  5
17AC21874A3842
330
17AC21874A2FC9
100
AcDbEntity
  8
0
100
AcDbCircle
 10
2881.466060350889
 20
2481.912400957242
 30
0.0
 40
52.11101924722871
100
AcDbArc
 50
284.8943383406629
 51
312.1118587126247
  0
ARC
  5
17AC21874A3843
330
17AC21874A2FC9
100
AcDbEntity
  8
0
100
AcDbCircle
 10
2884.721251513797
 20
2392.558961205945
 30
0.0
 40
40.28176604498389
100
AcDbArc
 50
75.68463342119838
 51
123.2828786736836
  0
ARC
  5
17AC21874A3844
330
17AC21874A2FC9
100
AcDbEntity
  8
0
100
AcDbCircle
 10
2798.636915510411
 20
2554.416431217402
 30
0.0
 40
161.6331052863097
100
AcDbArc
 50
135.2551532927361
 51
194.2845853019969
  0
ARC
  5
17AC21874A3846
330
17AC21874A2FC9
100
AcDbEntity
  8
0
100
AcDbCircle
 10
2644.169567762727
 20
2456.249951129446
 30
0.0
 40
40.28176604498389
100
AcDbArc
 50
27.05724157061075
 51
74.65548682310296
  0
ARC
  5
17AC21874A3847
330
17AC21874A2FC9
100
AcDbEntity
  8
0
100
AcDbCircle
 10
2691.214834940421
 20
2532.285313304392
 30
0.0
 40
52.11101924722871
100
AcDbArc
 50
198.2282615316519
 51
225.4457819036318
  0
CIRCLE
  5
17AC21874A3848
330
17AC21874A2FC9
100
AcDbEntity
  8
0
100
AcDbCircle
 10
2798.170636295795
 20
2554.581407778323
 30
0.0
 40
22.5
  0
LINE
  5
17AC21874A3849
330
17AC21874A2FC9
100
AcDbEntity
  8
0
100
AcDbLine
 10
2664.217836218432
 20
2683.701665079428
 30
0.0
 11
2669.337441813891
 21
2702.901092518452
 31
0.0
  0
LINE
  5
17AC21874A384A
330
17AC21874A2FC9
100
AcDbEntity
  8
0
100
AcDbLine
 10
2967.089077114004
 20
2990.879772036223
 30
0.0
 11
2975.189207979581
 21
2988.7350963254
 31
0.0
  0
ARC
  5
17AC21874A384B
330
17AC21874A2FC9
100
AcDbEntity
  8
0
100
AcDbCircle
 10
2881.48266598443
 20
2869.238929075941
 30
0.0
 40
139.5
100
AcDbArc
 50
119.3107580569523
 51
60.68924194304763
  0
CIRCLE
  5
17AC21874A384C
330
17AC21874A2FC9
100
AcDbEntity
  8
0
100
AcDbCircle
 10
2881.872656331156
 20
2868.785820462987
 30
0.0
 40
116.8980749594031
  0
CIRCLE
  5
17AC21874A384D
330
17AC21874A2FC9
100
AcDbEntity
  8
ASSE
100
AcDbCircle
 10
2881.872656331156
 20
2868.785820462987
 30
0.0
 40
90.0
  0
LINE
  5
17AC21874A384E
330
17AC21874A2FC9
100
AcDbEntity
  8
ASSE
100
AcDbLine
 10
2790.037127841836
 20
2893.10115938901
 30
0.0
 11
2973.708184820475
 21
2844.470481536965
 31
0.0
  0
LINE
  5
17AC21874A384F
330
17AC21874A2FC9
100
AcDbEntity
  8
0
100
AcDbLine
 10
3018.903422687195
 20
2970.671590204312
 30
0.0
 11
3068.383689426652
 21
2885.483300829358
 31
0.0
  0
CIRCLE
  5
17AC21874A3850
330
17AC21874A2FC9
100
AcDbEntity
  8
0
100
AcDbCircle
 10
3083.92125867525
 20
2815.689813510735
 30
0.0
 40
70.0
  0
LINE
  5
17AC21874A3851
330
17AC21874A2FC9
100
AcDbEntity
  8
ASSE
 62
     1
100
AcDbLine
 39
0.1234
 10
3104.863134269357
 20
2894.784257499101
 30
0.0
 11
3062.238785600195
 21
2733.798239642023
 31
0.0
  0
LINE
  5
17AC21874A3852
330
17AC21874A2FC9
100
AcDbEntity
  8
ASSE
 62
     1
100
AcDbLine
 39
0.1234
 10
3159.101395723072
 20
2795.784330927975
 30
0.0
 11
3012.823199810325
 21
2834.514482206184
 31
0.0
  0
CIRCLE
  5
17AC21874A3853
330
17AC21874A2FC9
100
AcDbEntity
  8
0
100
AcDbCircle
 10
3083.92125867525
 20
2815.689813510734
 30
0.0
 40
48.34995042717719
  0
CIRCLE
  5
17AC21874A3854
330
17AC21874A2FC9
100
AcDbEntity
  8
0
100
AcDbCircle
 10
3084.461104375316
 20
2815.916082660612
 30
0.0
 40
16.05716579480576
  0
CIRCLE
  5
17AC21874A3855
330
17AC21874A2FC9
100
AcDbEntity
  8
COSTRUZIONE
100
AcDbCircle
 10
2971.872259896235
 20
2869.052949885961
 30
0.0
 40
15.0
  0
LINE
  5
17AC21874A3856
330
17AC21874A2FC9
100
AcDbEntity
  8
ASSE
100
AcDbLine
 10
2988.372187216497
 20
2869.101923613509
 30
0.0
 11
2955.372332575968
 21
2869.003976158418
 31
0.0
  0
CIRCLE
  5
17AC21874A3857
330
17AC21874A2FC9
100
AcDbEntity
  8
COSTRUZIONE
100
AcDbCircle
 10
2836.641513682221
 20
2946.594198769386
 30
0.0
 40
15.0
  0
LINE
  5
17AC21874A3858
330
17AC21874A2FC9
100
AcDbEntity
  8
ASSE
100
AcDbLine
 10
2828.349137529916
 20
2960.85906812556
 30
0.0
 11
2844.933889834525
 21
2932.329329413213
 31
0.0
  0
LINE
  5
17AC21874A3859
330
17AC21874A2FC9
100
AcDbEntity
  8
ASSE
100
AcDbLine
 10
2906.187995257178
 20
2960.621348952307
 30
0.0
 11
2857.557317405133
 21
2776.950291973668
 31
0.0
  0
LINE
  5
17AC21874A385A
330
17AC21874A2FC9
100
AcDbEntity
  8
0
100
AcDbLine
 10
2693.210325399127
 20
2792.428632796457
 30
0.0
 11
2744.470220565947
 21
2984.662315535641
 31
0.0
  0
CIRCLE
  5
17AC21874A385B
330
17AC21874A2FC9
100
AcDbEntity
  8
COSTRUZIONE
100
AcDbCircle
 10
2837.104195415011
 20
2790.710312733614
 30
0.0
 40
15.0
  0
LINE
  5
17AC21874A385C
330
17AC21874A2FC9
100
AcDbEntity
  8
ASSE
100
AcDbLine
 10
2828.896644247051
 20
2776.396469649894
 30
0.0
 11
2845.311746582971
 21
2805.024155817332
 31
0.0
  0
CIRCLE
  5
17AC21874A385D
330
17AC21874A2FC9
100
AcDbEntity
  8
0
100
AcDbCircle
 10
2881.872656331156
 20
2868.785820462987
 30
0.0
 40
35.80822238947904
  0
CIRCLE
  5
17AC21874A385E
330
17AC21874A2FC9
100
AcDbEntity
  8
0
100
AcDbCircle
 10
2672.256305151401
 20
2771.587161199405
 30
0.0
 40
15.0
  0
LINE
  5
17AC21874A385F
330
17AC21874A2FC9
100
AcDbEntity
  8
0
100
AcDbLine
 10
2744.470220565947
 20
2984.662315535641
 30
0.0
 11
2755.156899063553
 21
2990.879772036223
 31
0.0
  0
LINE
  5
17AC21874A3860
330
17AC21874A2FC9
100
AcDbEntity
  8
0
100
AcDbLine
 10
3089.542277608021
 20
3889.470004867615
 30
0.0
 11
2947.228701280047
 21
3351.972150815594
 31
0.0
  0
LINE
  5
17AC21874A3861
330
17AC21874A2FC9
100
AcDbEntity
  8
0
100
AcDbLine
 10
3108.551297824598
 20
3309.258686038583
 30
0.0
 11
3183.839004284933
 21
3593.609495729914
 31
0.0
  0
LINE
  5
17AC21874A3862
330
17AC21874A2FC9
100
AcDbEntity
  8
0
100
AcDbLine
 10
3063.231474108662
 20
3321.258038487988
 30
0.0
 11
3205.545050436636
 21
3858.755892540008
 31
0.0
  0
LINE
  5
17AC21874A3863
330
17AC21874A2FC9
100
AcDbEntity
  8
0
100
AcDbLine
 10
2902.8619819699
 20
3363.719149333574
 30
0.0
 11
2978.149688430234
 21
3648.069959024904
 31
0.0
  0
LINE
  5
17AC21874A3864
330
17AC21874A2FC9
100
AcDbEntity
  8
0
100
AcDbLine
 10
3205.545050436636
 20
3858.755892540008
 30
0.0
 11
3089.542277608021
 21
3889.470004867615
 31
0.0
  0
LINE
  5
17AC21874A3865
330
17AC21874A2FC9
100
AcDbEntity
  8
0
100
AcDbLine
 10
3183.839004284933
 20
3593.609495729914
 30
0.0
 11
3138.961336918059
 21
3605.491778221071
 31
0.0
  0
LINE
  5
17AC21874A3866
330
17AC21874A2FC9
100
AcDbEntity
  8
0
100
AcDbLine
 10
2978.149688430234
 20
3648.069959024904
 30
0.0
 11
3023.027355797107
 21
3636.187676533747
 31
0.0
  0
ARC
  5
17AC21874A3867
330
17AC21874A2FC9
100
AcDbEntity
  8
0
100
AcDbCircle
 10
2798.809556749107
 20
2554.123380277792
 30
0.0
 40
186.0
100
AcDbArc
 50
132.2113250506355
 51
108.2654744412531
  0
LINE
  5
17AC21874A3868
330
17AC21874A2FC9
100
AcDbEntity
  8
0
100
AcDbLine
 10
3042.971892581196
 20
3061.574729961879
 30
0.0
 11
3108.551297824598
 21
3309.258686038583
 31
0.0
  0
LINE
  5
17AC21874A3869
330
17AC21874A2FC9
100
AcDbEntity
  8
0
100
AcDbLine
 10
2994.47499430055
 20
3061.574729961879
 30
0.0
 11
3063.231474108662
 21
3321.258038487988
 31
0.0
  0
ENDSEC
  0
SECTION
  2
OBJECTS
  0
DICTIONARY
  5
17AC21874A2FBD
330
0
100
AcDbDictionary
  3
ACAD_GROUP
350
17AC21874A2FBE
  3
ACAD_LAYOUT
350
17AC21874A364D
  3
ACAD_MLINESTYLE
350
17AC21874A2FBF
  3
ACAD_PLOTSETTINGS
350
17AC21874A364E
  3
ACAD_PLOTSTYLENAME
350
17AC21874A364B
  3
ACDBHEADERROUNDTRIPXREC
350
17AC21874A3880
  0
DICTIONARY
  5
17AC21874A38A3
330
17AC21874A2FC9
100
AcDbDictionary
280
     1
  3
ACAD_LAYOUTSELFREF
360
17AC21874A38A4
  0
DICTIONARY
  5
17AC21874A38A1
330
17AC21874A2FC6
100
AcDbDictionary
280
     1
  3
ACAD_LAYOUTSELFREF
360
17AC21874A38A2
  0
DICTIONARY
  5
17AC21874A2FBE
102
{ACAD_REACTORS
330
17AC21874A2FBD
102
}
330
17AC21874A2FBD
100
AcDbDictionary
  0
DICTIONARY
  5
17AC21874A364D
102
{ACAD_REACTORS
330
17AC21874A2FBD
102
}
330
17AC21874A2FBD
100
AcDbDictionary
  0
DICTIONARY
  5
17AC21874A2FBF
102
{ACAD_REACTORS
330
17AC21874A2FBD
102
}
330
17AC21874A2FBD
100
AcDbDictionary
  3
STANDARD
350
17AC21874A2FCC
  0
DICTIONARY
  5
17AC21874A364E
102
{ACAD_REACTORS
330
17AC21874A2FBD
102
}
330
17AC21874A2FBD
100
AcDbDictionary
  0
ACDBDICTIONARYWDFLT
  5
17AC21874A364B
102
{ACAD_REACTORS
330
17AC21874A2FBD
102
}
330
17AC21874A2FBD
100
AcDbDictionary
281
     1
  3
Normal
350
17AC21874A364C
100
AcDbDictionaryWithDefault
340
17AC21874A364C
  0
DICTIONARY
  5
17AC21874A3880
102
{ACAD_REACTORS
330
17AC21874A2FBD
102
}
330
17AC21874A2FBD
100
AcDbDictionary
  3
TSTACKALIGN
350
17AC21874A3881
  3
TSTACKSIZE
350
17AC21874A3882
  3
HYPERLINKBASE
350
17AC21874A3883
  3
STYLESHEET
350
17AC21874A3884
  3
LAYOUTDICT
350
17AC21874A3885
  3
PLOTSETDICT
350
17AC21874A3886
  3
PLOTSTYLNAMDICT
350
17AC21874A3887
  3
LWETCUNION
350
17AC21874A3888
  3
INSUNITS
350
17AC21874A3889
  3
CEPSNTYPE
350
17AC21874A388A
  3
FINGERPRINTGUID
350
17AC21874A388B
  3
VERSIONGUID
350
17AC21874A388C
  3
PSVPSCALE
350
17AC21874A388D
  3
DIMSTYLEDATA
350
17AC21874A388E
  3
PUCSORTHOREF
350
17AC21874A388F
  3
PUCSORTHOVIEW
350
17AC21874A3890
  3
PUCSBASE
350
17AC21874A3891
  3
PUCSORGTOP
350
17AC21874A3892
  3
PUCSORGBOTTOM
350
17AC21874A3893
  3
PUCSORGLEFT
350
17AC21874A3894
  3
PUCSORGRIGHT
350
17AC21874A3895
  3
PUCSORGFRONT
350
17AC21874A3896
  3
PUCSORGBACK
350
17AC21874A3897
  3
UCSORTHOREF
350
17AC21874A3898
  3
UCSORTHOVIEW
350
17AC21874A3899
  3
UCSBASE
350
17AC21874A389A
  3
UCSORGTOP
350
17AC21874A389B
  3
UCSORGBOTTOM
350
17AC21874A389C
  3
UCSORGLEFT
350
17AC21874A389D
  3
UCSORGRIGHT
350
17AC21874A389E
  3
UCSORGFRONT
350
17AC21874A389F
  3
UCSORGBACK
350
17AC21874A38A0
  0
XRECORD
  5
17AC21874A38A4
102
{ACAD_REACTORS
330
17AC21874A38A3
102
}
330
17AC21874A38A3
100
AcDbXrecord
340
17AC21874A2FC9
  0
XRECORD
  5
17AC21874A38A2
102
{ACAD_REACTORS
330
17AC21874A38A1
102
}
330
17AC21874A38A1
100
AcDbXrecord
340
17AC21874A2FC6
  0
MLINESTYLE
  5
17AC21874A2FCC
102
{ACAD_REACTORS
330
17AC21874A2FBF
102
}
330
17AC21874A2FBF
100
AcDbMlineStyle
  2
STANDARD
 70
     0
  3

 62
     0
 51
90.0
 52
90.0
 71
     2
 49
0.5
 62
   256
  6
BYLAYER
 49
-0.5
 62
   256
  6
BYLAYER
  0
ACDBPLACEHOLDER
  5
17AC21874A364C
102
{ACAD_REACTORS
330
17AC21874A364B
102
}
330
17AC21874A364B
100
AcDbPlaceHolder
280
     0
  0
XRECORD
  5
17AC21874A3881
102
{ACAD_REACTORS
330
17AC21874A3880
102
}
330
17AC21874A3880
100
AcDbXrecord
 90
        1
  0
XRECORD
  5
17AC21874A3882
102
{ACAD_REACTORS
330
17AC21874A3880
102
}
330
17AC21874A3880
100
AcDbXrecord
 90
       70
  0
XRECORD
  5
17AC21874A3883
102
{ACAD_REACTORS
330
17AC21874A3880
102
}
330
17AC21874A3880
100
AcDbXrecord
  1

  0
XRECORD
  5
17AC21874A3884
102
{ACAD_REACTORS
330
17AC21874A3880
102
}
330
17AC21874A3880
100
AcDbXrecord
  1
monochrome.ctb
  0
XRECORD
  5
17AC21874A3885
102
{ACAD_REACTORS
330
17AC21874A3880
102
}
330
17AC21874A3880
100
AcDbXrecord
340
17AC21874A364D
  0
XRECORD
  5
17AC21874A3886
102
{ACAD_REACTORS
330
17AC21874A3880
102
}
330
17AC21874A3880
100
AcDbXrecord
340
17AC21874A364E
  0
XRECORD
  5
17AC21874A3887
102
{ACAD_REACTORS
330
17AC21874A3880
102
}
330
17AC21874A3880
100
AcDbXrecord
340
17AC21874A364B
  0
XRECORD
  5
17AC21874A3888
102
{ACAD_REACTORS
330
17AC21874A3880
102
}
330
17AC21874A3880
100
AcDbXrecord
 90
    10781
  0
XRECORD
  5
17AC21874A3889
102
{ACAD_REACTORS
330
17AC21874A3880
102
}
330
17AC21874A3880
100
AcDbXrecord
 90
        0
  0
XRECORD
  5
17AC21874A388A
102
{ACAD_REACTORS
330
17AC21874A3880
102
}
330
17AC21874A3880
100
AcDbXrecord
 90
        0
  0
XRECORD
  5
17AC21874A388B
102
{ACAD_REACTORS
330
17AC21874A3880
102
}
330
17AC21874A3880
100
AcDbXrecord
  1
{20C1D933-CDDD-40D6-A7C0-214109E76863}
  0
XRECORD
  5
17AC21874A388C
102
{ACAD_REACTORS
330
17AC21874A3880
102
}
330
17AC21874A3880
100
AcDbXrecord
  1
{898277FA-1AB2-4C28-A5A0-82016B81D357}
  0
XRECORD
  5
17AC21874A388D
102
{ACAD_REACTORS
330
17AC21874A3880
102
}
330
17AC21874A3880
100
AcDbXrecord
 40
0.0
  0
XRECORD
  5
17AC21874A388E
102
{ACAD_REACTORS
330
17AC21874A3880
102
}
330
17AC21874A3880
100
AcDbXrecord
1000
DSTYLE
1002
{
1070
   279
 70
     2
1002
}
  0
XRECORD
  5
17AC21874A388F
102
{ACAD_REACTORS
330
17AC21874A3880
102
}
330
17AC21874A3880
100
AcDbXrecord
340
0
  0
XRECORD
  5
17AC21874A3890
102
{ACAD_REACTORS
330
17AC21874A3880
102
}
330
17AC21874A3880
100
AcDbXrecord
 70
     0
  0
XRECORD
  5
17AC21874A3891
102
{ACAD_REACTORS
330
17AC21874A3880
102
}
330
17AC21874A3880
100
AcDbXrecord
340
0
  0
XRECORD
  5
17AC21874A3892
102
{ACAD_REACTORS
330
17AC21874A3880
102
}
330
17AC21874A3880
100
AcDbXrecord
 10
0.0
 20
0.0
 30
0.0
  0
XRECORD
  5
17AC21874A3893
102
{ACAD_REACTORS
330
17AC21874A3880
102
}
330
17AC21874A3880
100
AcDbXrecord
 10
0.0
 20
0.0
 30
0.0
  0
XRECORD
  5
17AC21874A3894
102
{ACAD_REACTORS
330
17AC21874A3880
102
}
330
17AC21874A3880
100
AcDbXrecord
 10
0.0
 20
0.0
 30
0.0
  0
XRECORD
  5
17AC21874A3895
102
{ACAD_REACTORS
330
17AC21874A3880
102
}
330
17AC21874A3880
100
AcDbXrecord
 10
0.0
 20
0.0
 30
0.0
  0
XRECORD
  5
17AC21874A3896
102
{ACAD_REACTORS
330
17AC21874A3880
102
}
330
17AC21874A3880
100
AcDbXrecord
 10
0.0
 20
0.0
 30
0.0
  0
XRECORD
  5
17AC21874A3897
102
{ACAD_REACTORS
330
17AC21874A3880
102
}
330
17AC21874A3880
100
AcDbXrecord
 10
0.0
 20
0.0
 30
0.0
  0
XRECORD
  5
17AC21874A3898
102
{ACAD_REACTORS
330
17AC21874A3880
102
}
330
17AC21874A3880
100
AcDbXrecord
340
0
  0
XRECORD
  5
17AC21874A3899
102
{ACAD_REACTORS
330
17AC21874A3880
102
}
330
17AC21874A3880
100
AcDbXrecord
 70
     0
  0
XRECORD
  5
17AC21874A389A
102
{ACAD_REACTORS
330
17AC21874A3880
102
}
330
17AC21874A3880
100
AcDbXrecord
340
0
  0
XRECORD
  5
17AC21874A389B
102
{ACAD_REACTORS
330
17AC21874A3880
102
}
330
17AC21874A3880
100
AcDbXrecord
 10
0.0
 20
0.0
 30
0.0
  0
XRECORD
  5
17AC21874A389C
102
{ACAD_REACTORS
330
17AC21874A3880
102
}
330
17AC21874A3880
100
AcDbXrecord
 10
0.0
 20
0.0
 30
0.0
  0
XRECORD
  5
17AC21874A389D
102
{ACAD_REACTORS
330
17AC21874A3880
102
}
330
17AC21874A3880
100
AcDbXrecord
 10
0.0
 20
0.0
 30
0.0
  0
XRECORD
  5
17AC21874A389E
102
{ACAD_REACTORS
330
17AC21874A3880
102
}
330
17AC21874A3880
100
AcDbXrecord
 10
0.0
 20
0.0
 30
0.0
  0
XRECORD
  5
17AC21874A389F
102
{ACAD_REACTORS
330
17AC21874A3880
102
}
330
17AC21874A3880
100
AcDbXrecord
 10
0.0
 20
0.0
 30
0.0
  0
XRECORD
  5
17AC21874A38A0
102
{ACAD_REACTORS
330
17AC21874A3880
102
}
330
17AC21874A3880
100
AcDbXrecord
 10
0.0
 20
0.0
 30
0.0
  0
ENDSEC
  0
EOF
