  0
SECTION
  2
HEADER
  9
$ACADVER
  1
AC1014
  9
$ACADMAINTVER
 70
     9
  9
$DWGCODEPAGE
  3
ANSI_1252
  9
$INSBASE
 10
0.0
 20
0.0
 30
0.0
  9
$EXTMIN
 10
-170.1267147205089
 20
-68.58439386690498
 30
0.0
  9
$EXTMAX
 10
3929.873285279491
 20
2801.415606133095
 30
0.0
  9
$LIMMIN
 10
0.0
 20
0.0
  9
$LIMMAX
 10
4200.0
 20
2970.0
  9
$ORTHOMODE
 70
     0
  9
$REGENMODE
 70
     1
  9
$FILLMODE
 70
     1
  9
$QTEXTMODE
 70
     0
  9
$MIRRTEXT
 70
     1
  9
$DRAGMODE
 70
     2
  9
$LTSCALE
 40
10.0
  9
$OSMODE
 70
    37
  9
$ATTMODE
 70
     1
  9
$TEXTSIZE
 40
50.0
  9
$TRACEWID
 40
0.05
  9
$TEXTSTYLE
  7
STANDARD
  9
$CLAYER
  8
0
  9
$CELTYPE
  6
BYLAYER
  9
$CECOLOR
 62
   256
  9
$CELTSCALE
 40
1.0
  9
$DELOBJ
 70
     1
  9
$DISPSILH
 70
     0
  9
$DIMSCALE
 40
150.0
  9
$DIMASZ
 40
0.18
  9
$DIMEXO
 40
0.06
  9
$DIMDLI
 40
0.38
  9
$DIMRND
 40
0.0
  9
$DIMDLE
 40
0.0
  9
$DIMEXE
 40
0.18
  9
$DIMTP
 40
0.0
  9
$DIMTM
 40
0.0
  9
$DIMTXT
 40
0.18
  9
$DIMCEN
 40
0.09
  9
$DIMTSZ
 40
0.0
  9
$DIMTOL
 70
     0
  9
$DIMLIM
 70
     0
  9
$DIMTIH
 70
     0
  9
$DIMTOH
 70
     0
  9
$DIMSE1
 70
     0
  9
$DIMSE2
 70
     0
  9
$DIMTAD
 70
     1
  9
$DIMZIN
 70
     0
  9
$DIMBLK
  1

  9
$DIMASO
 70
     1
  9
$DIMSHO
 70
     1
  9
$DIMPOST
  1

  9
$DIMAPOST
  1

  9
$DIMALT
 70
     0
  9
$DIMALTD
 70
     2
  9
$DIMALTF
 40
25.4
  9
$DIMLFAC
 40
1.0
  9
$DIMTOFL
 70
     0
  9
$DIMTVP
 40
0.0
  9
$DIMTIX
 70
     0
  9
$DIMSOXD
 70
     0
  9
$DIMSAH
 70
     0
  9
$DIMBLK1
  1

  9
$DIMBLK2
  1

  9
$DIMSTYLE
  2
BASE
  9
$DIMCLRD
 70
     0
  9
$DIMCLRE
 70
     0
  9
$DIMCLRT
 70
     0
  9
$DIMTFAC
 40
1.0
  9
$DIMGAP
 40
0.09
  9
$DIMJUST
 70
     0
  9
$DIMSD1
 70
     0
  9
$DIMSD2
 70
     0
  9
$DIMTOLJ
 70
     1
  9
$DIMTZIN
 70
     0
  9
$DIMALTZ
 70
     0
  9
$DIMALTTZ
 70
     0
  9
$DIMFIT
 70
     3
  9
$DIMUPT
 70
     0
  9
$DIMUNIT
 70
     2
  9
$DIMDEC
 70
     0
  9
$DIMTDEC
 70
     0
  9
$DIMALTU
 70
     2
  9
$DIMALTTD
 70
     2
  9
$DIMTXSTY
  7
STANDARD
  9
$DIMAUNIT
 70
     0
  9
$LUNITS
 70
     2
  9
$LUPREC
 70
     2
  9
$SKETCHINC
 40
0.1
  9
$FILLETRAD
 40
0.0
  9
$AUNITS
 70
     0
  9
$AUPREC
 70
     0
  9
$MENU
  1
C:\promecad\acad
  9
$ELEVATION
 40
0.0
  9
$PELEVATION
 40
0.0
  9
$THICKNESS
 40
0.0
  9
$LIMCHECK
 70
     0
  9
$BLIPMODE
 70
     0
  9
$CHAMFERA
 40
95.0
  9
$CHAMFERB
 40
95.0
  9
$CHAMFERC
 40
0.0
  9
$CHAMFERD
 40
0.0
  9
$SKPOLY
 70
     0
  9
$TDCREATE
 40
2450589.694948854
  9
$TDUPDATE
 40
2453469.713859282
  9
$TDINDWG
 40
2.3899210532
  9
$TDUSRTIMER
 40
2.3899210532
  9
$USRTIMER
 70
     1
  9
$ANGBASE
 50
0.0
  9
$ANGDIR
 70
     0
  9
$PDMODE
 70
     0
  9
$PDSIZE
 40
0.0
  9
$PLINEWID
 40
0.0
  9
$COORDS
 70
     1
  9
$SPLFRAME
 70
     0
  9
$SPLINETYPE
 70
     6
  9
$SPLINESEGS
 70
     8
  9
$ATTDIA
 70
     0
  9
$ATTREQ
 70
     1
  9
$HANDLING
 70
 10241
  9
$HANDSEED
  5
165C
  9
$SURFTAB1
 70
     6
  9
$SURFTAB2
 70
     6
  9
$SURFTYPE
 70
     6
  9
$SURFU
 70
     6
  9
$SURFV
 70
     6
  9
$UCSNAME
  2

  9
$UCSORG
 10
0.0
 20
0.0
 30
0.0
  9
$UCSXDIR
 10
1.0
 20
0.0
 30
0.0
  9
$UCSYDIR
 10
0.0
 20
1.0
 30
0.0
  9
$PUCSNAME
  2

  9
$PUCSORG
 10
0.0
 20
0.0
 30
0.0
  9
$PUCSXDIR
 10
1.0
 20
0.0
 30
0.0
  9
$PUCSYDIR
 10
0.0
 20
1.0
 30
0.0
  9
$USERI1
 70
    10
  9
$USERI2
 70
     1
  9
$USERI3
 70
     0
  9
$USERI4
 70
     2
  9
$USERI5
 70
     0
  9
$USERR1
 40
0.0
  9
$USERR2
 40
0.0
  9
$USERR3
 40
0.0
  9
$USERR4
 40
0.0
  9
$USERR5
 40
0.0
  9
$WORLDVIEW
 70
     1
  9
$SHADEDGE
 70
     3
  9
$SHADEDIF
 70
    70
  9
$TILEMODE
 70
     1
  9
$MAXACTVP
 70
    16
  9
$PINSBASE
 10
0.0
 20
0.0
 30
0.0
  9
$PLIMCHECK
 70
     0
  9
$PEXTMIN
 10
1.000000000000000E+20
 20
1.000000000000000E+20
 30
1.000000000000000E+20
  9
$PEXTMAX
 10
-1.000000000000000E+20
 20
-1.000000000000000E+20
 30
-1.000000000000000E+20
  9
$PLIMMIN
 10
0.0
 20
0.0
  9
$PLIMMAX
 10
12.0
 20
9.0
  9
$UNITMODE
 70
     0
  9
$VISRETAIN
 70
     0
  9
$PLINEGEN
 70
     0
  9
$PSLTSCALE
 70
     1
  9
$TREEDEPTH
 70
  3020
  9
$PICKSTYLE
 70
     1
  9
$CMLSTYLE
  2
STANDARD
  9
$CMLJUST
 70
     0
  9
$CMLSCALE
 40
1.0
  9
$PROXYGRAPHICS
 70
     1
  9
$MEASUREMENT
 70
     0
  0
ENDSEC
  0
SECTION
  2
CLASSES
  0
CLASS
  1
ACDBDICTIONARYWDFLT
  2
AcDbDictionaryWithDefault
  3
AutoCAD 2000
 90
        0
280
     0
281
     0
  0
CLASS
  1
ACDBPLACEHOLDER
  2
AcDbPlaceHolder
  3
AutoCAD 2000
 90
        0
280
     0
281
     0
  0
CLASS
  1
LAYOUT
  2
AcDbLayout
  3
AutoCAD 2000
 90
        0
280
     0
281
     0
  0
CLASS
  1
LONG_TRANSACTION
  2
AcDbLongTransaction
  3
AutoCAD 2000
 90
        0
280
     0
281
     0
  0
CLASS
  1
LWPOLYLINE
  2
AcDbPolyline
  3
AutoCAD 2000
 90
        0
280
     0
281
     1
  0
CLASS
  1
HATCH
  2
AcDbHatch
  3
AutoCAD 2000
 90
        0
280
     0
281
     1
  0
CLASS
  1
XRECORD
  2
AcDbXrecord
  3
AutoCAD 2000
 90
        0
280
     0
281
     0
  0
ENDSEC
  0
SECTION
  2
TABLES
  0
TABLE
  2
VPORT
  5
8
330
0
100
AcDbSymbolTable
 70
     2
  0
VPORT
  5
1637
330
8
100
AcDbSymbolTableRecord
100
AcDbViewportTableRecord
  2
*ACTIVE
 70
     0
 10
0.0
 20
0.0
 11
1.0
 21
1.0
 12
1879.833099869765
 22
1366.39027444814
 13
0.0
 23
0.0
 14
1.0
 24
1.0
 15
0.0
 25
0.0
 16
0.0
 26
0.0
 36
1.0
 17
0.0
 27
0.0
 37
0.0
 40
2903.439314570847
 41
1.828516377649325
 42
50.0
 43
0.0
 44
0.0
 50
0.0
 51
0.0
 71
     0
 72
   100
 73
     1
 74
     0
 75
     0
 76
     0
 77
     0
 78
     0
  0
ENDTAB
  0
TABLE
  2
LTYPE
  5
5
330
0
100
AcDbSymbolTable
 70
     7
  0
LTYPE
  5
14
330
5
100
AcDbSymbolTableRecord
100
AcDbLinetypeTableRecord
  2
BYBLOCK
 70
     0
  3

 72
    65
 73
     0
 40
0.0
  0
LTYPE
  5
15
330
5
100
AcDbSymbolTableRecord
100
AcDbLinetypeTableRecord
  2
BYLAYER
 70
     0
  3

 72
    65
 73
     0
 40
0.0
  0
LTYPE
  5
16
330
5
100
AcDbSymbolTableRecord
100
AcDbLinetypeTableRecord
  2
CONTINUOUS
 70
     0
  3
Solid line
 72
    65
 73
     0
 40
0.0
  0
LTYPE
  5
32
330
5
100
AcDbSymbolTableRecord
100
AcDbLinetypeTableRecord
  2
LIRIF
 70
     0
  3
. . . . . . . . . . . . . . . . . .
 72
    65
 73
     4
 40
0.1
 49
0.0
 74
     0
 49
-0.05
 74
     0
 49
0.0
 74
     0
 49
-0.05
 74
     0
  0
LTYPE
  5
33
330
5
100
AcDbSymbolTableRecord
100
AcDbLinetypeTableRecord
  2
ASSI5
 70
     0
  3
- . - . - . -
 72
    65
 73
     4
 40
10.0
 49
5.0
 74
     0
 49
-2.5
 74
     0
 49
0.0
 74
     0
 49
-2.5
 74
     0
  0
LTYPE
  5
34
330
5
100
AcDbSymbolTableRecord
100
AcDbLinetypeTableRecord
  2
ASSI10
 70
     0
  3
- . - . - . -
 72
    65
 73
     4
 40
20.0
 49
10.0
 74
     0
 49
-5.0
 74
     0
 49
0.0
 74
     0
 49
-5.0
 74
     0
  0
LTYPE
  5
35
330
5
100
AcDbSymbolTableRecord
100
AcDbLinetypeTableRecord
  2
TRATTO
 70
     0
  3
- - - - - - - - -
 72
    65
 73
     2
 40
5.0
 49
2.5
 74
     0
 49
-2.5
 74
     0
  0
LTYPE
  5
36
330
5
100
AcDbSymbolTableRecord
100
AcDbLinetypeTableRecord
  2
TRATTINO
 70
     0
  3
- - - - - - - - -
 72
    65
 73
     2
 40
3.0
 49
2.0
 74
     0
 49
-1.0
 74
     0
  0
LTYPE
  5
130A
330
5
100
AcDbSymbolTableRecord
100
AcDbLinetypeTableRecord
  2
LINEA-LINEETTA
 70
     0
  3
linea-lineetta ____ _ ____ _ ____ _ ____ _ ____
 72
    65
 73
     4
 40
50.8
 49
31.75
 74
     0
 49
-6.349999999999999
 74
     0
 49
6.349999999999999
 74
     0
 49
-6.349999999999999
 74
     0
  0
ENDTAB
  0
TABLE
  2
LAYER
  5
2
330
0
100
AcDbSymbolTable
 70
    20
  0
LAYER
  5
F
330
2
100
AcDbSymbolTableRecord
100
AcDbLayerTableRecord
  2
0
 70
     0
 62
     7
  6
CONTINUOUS
  0
LAYER
  5
37
330
2
100
AcDbSymbolTableRecord
100
AcDbLayerTableRecord
  2
VITE
 70
     0
 62
    30
  6
CONTINUOUS
  0
LAYER
  5
38
330
2
100
AcDbSymbolTableRecord
100
AcDbLayerTableRecord
  2
FILETTO
 70
     0
 62
     3
  6
CONTINUOUS
  0
LAYER
  5
39
330
2
100
AcDbSymbolTableRecord
100
AcDbLayerTableRecord
  2
ASSE
 70
     0
 62
     1
  6
ASSI5
  0
LAYER
  5
3A
330
2
100
AcDbSymbolTableRecord
100
AcDbLayerTableRecord
  2
NASCOSTO
 70
     0
 62
     6
  6
TRATTINO
  0
LAYER
  5
3B
330
2
100
AcDbSymbolTableRecord
100
AcDbLayerTableRecord
  2
COSTRUZIONE
 70
     0
 62
     7
  6
CONTINUOUS
  0
LAYER
  5
3C
330
2
100
AcDbSymbolTableRecord
100
AcDbLayerTableRecord
  2
CUSCINETTO
 70
     0
 62
   240
  6
CONTINUOUS
  0
LAYER
  5
3D
330
2
100
AcDbSymbolTableRecord
100
AcDbLayerTableRecord
  2
SEZIONE
 70
     0
 62
     4
  6
CONTINUOUS
  0
LAYER
  5
3E
330
2
100
AcDbSymbolTableRecord
100
AcDbLayerTableRecord
  2
SPINA
 70
     0
 62
     7
  6
CONTINUOUS
  0
LAYER
  5
3F
330
2
100
AcDbSymbolTableRecord
100
AcDbLayerTableRecord
  2
SALDATURA
 70
     0
 62
     2
  6
CONTINUOUS
  0
LAYER
  5
40
330
2
100
AcDbSymbolTableRecord
100
AcDbLayerTableRecord
  2
SIMBOLO
 70
     0
 62
     4
  6
CONTINUOUS
  0
LAYER
  5
41
330
2
100
AcDbSymbolTableRecord
100
AcDbLayerTableRecord
  2
BOLLINI
 70
     0
 62
     4
  6
CONTINUOUS
  0
LAYER
  5
42
330
2
100
AcDbSymbolTableRecord
100
AcDbLayerTableRecord
  2
DISTINTA
 70
     0
 62
     7
  6
CONTINUOUS
  0
LAYER
  5
43
330
2
100
AcDbSymbolTableRecord
100
AcDbLayerTableRecord
  2
TESTO
 70
     0
 62
   254
  6
CONTINUOUS
  0
LAYER
  5
44
330
2
100
AcDbSymbolTableRecord
100
AcDbLayerTableRecord
  2
LINEAFIN
 70
     0
 62
     3
  6
CONTINUOUS
  0
LAYER
  5
45
330
2
100
AcDbSymbolTableRecord
100
AcDbLayerTableRecord
  2
SQUADRATURA
 70
     0
 62
     9
  6
CONTINUOUS
  0
LAYER
  5
46
330
2
100
AcDbSymbolTableRecord
100
AcDbLayerTableRecord
  2
CARTIGLIO
 70
     0
 62
     9
  6
CONTINUOUS
  0
LAYER
  5
47
330
2
100
AcDbSymbolTableRecord
100
AcDbLayerTableRecord
  2
QUOTA
 70
     0
 62
     3
  6
CONTINUOUS
  0
LAYER
  5
119
330
2
100
AcDbSymbolTableRecord
100
AcDbLayerTableRecord
  2
DEFPOINTS
 70
     0
 62
     7
  6
CONTINUOUS
  0
LAYER
  5
130B
330
2
100
AcDbSymbolTableRecord
100
AcDbLayerTableRecord
  2
ASSE1
 70
     0
 62
     1
  6
LINEA-LINEETTA
  0
ENDTAB
  0
TABLE
  2
STYLE
  5
3
330
0
100
AcDbSymbolTable
 70
     3
  0
STYLE
  5
10
330
3
100
AcDbSymbolTableRecord
100
AcDbTextStyleTableRecord
  2
STANDARD
 70
     0
 40
0.0
 41
1.0
 50
0.0
 71
     0
 42
50.0
  3
txt
  4

  0
STYLE
  5
11FC
330
3
100
AcDbSymbolTableRecord
100
AcDbTextStyleTableRecord
  2
ROMANC
 70
     0
 40
50.0
 41
1.0
 50
0.0
 71
     0
 42
50.0
  3
romanc
  4

  0
STYLE
  5
130C
330
3
100
AcDbSymbolTableRecord
100
AcDbTextStyleTableRecord
  2
ROMANS
 70
     0
 40
50.0
 41
1.0
 50
0.0
 71
     0
 42
50.0
  3
romans
  4

  0
ENDTAB
  0
TABLE
  2
VIEW
  5
6
330
0
100
AcDbSymbolTable
 70
     0
  0
ENDTAB
  0
TABLE
  2
UCS
  5
7
330
0
100
AcDbSymbolTable
 70
     0
  0
ENDTAB
  0
TABLE
  2
APPID
  5
9
330
0
100
AcDbSymbolTable
 70
     1
  0
APPID
  5
11
330
9
100
AcDbSymbolTableRecord
100
AcDbRegAppTableRecord
  2
ACAD
 70
     0
  0
ENDTAB
  0
TABLE
  2
DIMSTYLE
  5
A
330
0
100
AcDbSymbolTable
 70
     2
  0
DIMSTYLE
105
1D
330
A
100
AcDbSymbolTableRecord
100
AcDbDimStyleTableRecord
  2
STANDARD
 70
     0
  3

  4

  5

  6

  7

 40
50.0
 41
0.18
 42
0.06
 43
0.38
 44
0.18
 45
0.0
 46
0.0
 47
0.0
 48
0.0
140
0.18
141
0.09
142
0.0
143
25.4
144
1.0
145
0.0
146
1.0
147
0.09
 71
     0
 72
     0
 73
     0
 74
     0
 75
     0
 76
     0
 77
     2
 78
     0
170
     0
171
     2
172
     0
173
     0
174
     0
175
     0
176
     0
177
     0
178
     0
270
     2
271
     4
272
     4
273
     2
274
     2
340
10
275
     0
280
     0
281
     0
282
     0
283
     1
284
     0
285
     0
286
     0
287
     3
288
     0
  0
DIMSTYLE
105
10F
102
{ACAD_REACTORS
330
1585
330
1560
330
15E3
102
}
330
A
100
AcDbSymbolTableRecord
100
AcDbDimStyleTableRecord
  2
BASE
 70
     0
  3

  4

  5

  6

  7

 40
150.0
 41
0.18
 42
0.06
 43
0.38
 44
0.18
 45
0.0
 46
0.0
 47
0.0
 48
0.0
140
0.18
141
0.09
142
0.0
143
25.4
144
1.0
145
0.0
146
1.0
147
0.09
 71
     0
 72
     0
 73
     0
 74
     0
 75
     0
 76
     0
 77
     1
 78
     0
170
     0
171
     2
172
     0
173
     0
174
     0
175
     0
176
     0
177
     0
178
     0
270
     2
271
     0
272
     0
273
     2
274
     2
340
10
275
     0
280
     0
281
     0
282
     0
283
     1
284
     0
285
     0
286
     0
287
     3
288
     0
  0
ENDTAB
  0
TABLE
  2
BLOCK_RECORD
  5
1
330
0
100
AcDbSymbolTable
 70
     9
  0
BLOCK_RECORD
  5
1A
102
{ACAD_XDICTIONARY
360
165A
102
}
330
1
100
AcDbSymbolTableRecord
100
AcDbBlockTableRecord
  2
*MODEL_SPACE
  0
BLOCK_RECORD
  5
17
102
{ACAD_XDICTIONARY
360
1658
102
}
330
1
100
AcDbSymbolTableRecord
100
AcDbBlockTableRecord
  2
*PAPER_SPACE
  0
BLOCK_RECORD
  5
28
330
1
100
AcDbSymbolTableRecord
100
AcDbBlockTableRecord
  2
FR0
  0
BLOCK_RECORD
  5
2D
330
1
100
AcDbSymbolTableRecord
100
AcDbBlockTableRecord
  2
FR1
  0
BLOCK_RECORD
  5
11FD
330
1
100
AcDbSymbolTableRecord
100
AcDbBlockTableRecord
  2
A$C1
  0
BLOCK_RECORD
  5
121E
330
1
100
AcDbSymbolTableRecord
100
AcDbBlockTableRecord
  2
A$C6
  0
BLOCK_RECORD
  5
12BA
330
1
100
AcDbSymbolTableRecord
100
AcDbBlockTableRecord
  2
A$C15
  0
BLOCK_RECORD
  5
12DE
330
1
100
AcDbSymbolTableRecord
100
AcDbBlockTableRecord
  2
A$C18
  0
BLOCK_RECORD
  5
1561
330
1
100
AcDbSymbolTableRecord
100
AcDbBlockTableRecord
  2
*D6
  0
BLOCK_RECORD
  5
1586
330
1
100
AcDbSymbolTableRecord
100
AcDbBlockTableRecord
  2
*D7
  0
BLOCK_RECORD
  5
15E4
330
1
100
AcDbSymbolTableRecord
100
AcDbBlockTableRecord
  2
*D8
  0
ENDTAB
  0
ENDSEC
  0
SECTION
  2
BLOCKS
  0
BLOCK
  5
1B
330
1A
100
AcDbEntity
  8
0
100
AcDbBlockBegin
  2
*MODEL_SPACE
 70
     0
 10
0.0
 20
0.0
 30
0.0
  3
*MODEL_SPACE
  1

  0
ENDBLK
  5
1C
330
1A
100
AcDbEntity
  8
0
100
AcDbBlockEnd
  0
BLOCK
  5
18
330
17
100
AcDbEntity
 67
     1
  8
0
100
AcDbBlockBegin
  2
*PAPER_SPACE
 70
     0
 10
0.0
 20
0.0
 30
0.0
  3
*PAPER_SPACE
  1

  0
ENDBLK
  5
19
330
17
100
AcDbEntity
 67
     1
  8
0
100
AcDbBlockEnd
  0
BLOCK
  5
2A
330
28
100
AcDbEntity
  8
0
100
AcDbBlockBegin
  2
FR0
 70
     0
 10
0.0
 20
0.0
 30
0.0
  3
FR0
  1

  0
LINE
  5
29
330
28
100
AcDbEntity
  8
0
 62
     0
100
AcDbLine
 10
-1.0
 20
0.0
 30
0.0
 11
0.0
 21
0.0
 31
0.0
  0
ENDBLK
  5
2B
330
28
100
AcDbEntity
  8
0
100
AcDbBlockEnd
  0
BLOCK
  5
2F
330
2D
100
AcDbEntity
  8
0
100
AcDbBlockBegin
  2
FR1
 70
     0
 10
0.0
 20
0.0
 30
0.0
  3
FR1
  1

  0
SOLID
  5
2E
330
2D
100
AcDbEntity
  8
0
  6
BYBLOCK
 62
     0
100
AcDbTrace
 10
-1.0
 20
0.1666666666666572
 30
0.0
 11
-1.0
 21
-0.1666666666666572
 31
0.0
 12
0.0
 22
0.0
 32
0.0
 13
0.0
 23
0.0
 33
0.0
  0
ENDBLK
  5
30
330
2D
100
AcDbEntity
  8
0
100
AcDbBlockEnd
  0
BLOCK
  5
1205
330
11FD
100
AcDbEntity
  8
0
100
AcDbBlockBegin
  2
A$C1
 70
     0
 10
0.0
 20
0.0
 30
0.0
  3
A$C1
  1

  0
TEXT
  5
11FE
330
11FD
100
AcDbEntity
  8
TESTO
100
AcDbText
 10
1.470729106713406
 20
2464.795582031344
 30
0.0
 40
80.0
  1
ETICAP SYSTEM
  7
ROMANC
100
AcDbText
  0
TEXT
  5
11FF
330
11FD
100
AcDbEntity
  8
TESTO
100
AcDbText
 10
1.470729106713406
 20
2374.282013260996
 30
0.0
 40
50.0
  1
Modello PF3 8T P 2S
  7
ROMANC
100
AcDbText
  0
TEXT
  5
1200
330
11FD
100
AcDbEntity
  8
TESTO
100
AcDbText
 10
1.470729106713406
 20
2286.500222664991
 30
0.0
 40
50.0
  1
Lunghezza nastro 2500 mm
  7
ROMANC
100
AcDbText
  0
TEXT
  5
1201
330
11FD
100
AcDbEntity
  8
TESTO
100
AcDbText
 10
1.470729106713406
 20
2202.816070696714
 30
0.0
 40
50.0
  1
Sezione nastro
  7
ROMANC
100
AcDbText
  0
TEXT
  5
1202
330
11FD
100
AcDbEntity
  8
TESTO
100
AcDbText
 10
1.470729106713406
 20
2110.936627156089
 30
0.0
 40
50.0
  1
Altezza 100 mm
  7
ROMANC
100
AcDbText
  0
TEXT
  5
1203
330
11FD
100
AcDbEntity
  8
TESTO
100
AcDbText
 10
1.470729106713406
 20
2009.495995797495
 30
0.0
 40
50.0
  1
Larghezza 120 mm
  7
ROMANC
100
AcDbText
  0
TEXT
  5
1204
330
11FD
100
AcDbEntity
  8
TESTO
100
AcDbText
 10
3120.846323050742
 20
16.3293464585476
 30
0.0
 40
50.0
  1
Quadro Elettrico
  7
ROMANC
100
AcDbText
  0
ENDBLK
  5
1206
330
11FD
100
AcDbEntity
  8
0
100
AcDbBlockEnd
  0
BLOCK
  5
1222
330
121E
100
AcDbEntity
  8
0
100
AcDbBlockBegin
  2
A$C6
 70
     0
 10
0.0
 20
0.0
 30
0.0
  3
A$C6
  1

  0
LINE
  5
121F
330
121E
100
AcDbEntity
  8
0
100
AcDbLine
 10
1.900637218473519
 20
0.8165157741112096
 30
0.0
 11
1700.64860396784
 21
0.8165157741112096
 31
0.0
  0
LINE
  5
1220
330
121E
100
AcDbEntity
  8
0
100
AcDbLine
 10
1.900637218473519
 20
14.30680798376833
 30
0.0
 11
1700.64860396784
 21
14.30680798376833
 31
0.0
  0
TEXT
  5
1221
330
121E
100
AcDbEntity
  8
TESTO
100
AcDbText
 10
8.733529025279011
 20
25.88597534847285
 30
0.0
 40
25.0
  1
DATI NON INPEGNATIVI con la possibilità di modifica da parte del costruttore
  7
ROMANC
100
AcDbText
  0
ENDBLK
  5
1223
330
121E
100
AcDbEntity
  8
0
100
AcDbBlockEnd
  0
BLOCK
  5
12DC
330
12BA
100
AcDbEntity
  8
0
100
AcDbBlockBegin
  2
A$C15
 70
     0
 10
0.0
 20
0.0
 30
0.0
  3
A$C15
  1

  0
LINE
  5
12BB
330
12BA
100
AcDbEntity
  8
0
100
AcDbLine
 10
554.1948823955801
 20
75.82640707325322
 30
0.0
 11
684.1172065458615
 21
75.826407073253
 31
0.0
  0
ARC
  5
12BC
330
12BA
100
AcDbEntity
  8
0
100
AcDbCircle
 10
554.1948823955801
 20
55.826407073253
 30
0.0
 40
20.0
100
AcDbArc
 50
90.0
 51
160.7538645252642
  0
ARC
  5
12BD
330
12BA
100
AcDbEntity
  8
0
100
AcDbCircle
 10
684.1172065458615
 20
55.826407073253
 30
0.0
 40
20.0
100
AcDbArc
 50
347.9928048051886
 51
90.0
  0
ARC
  5
12BE
330
12BA
100
AcDbEntity
  8
0
100
AcDbCircle
 10
351.6850847053422
 20
126.5306699492593
 30
0.0
 40
359.867927907635
100
AcDbArc
 50
281.6408242915126
 51
347.9928048051887
  0
ARC
  5
12BF
330
12BA
100
AcDbEntity
  8
0
100
AcDbCircle
 10
351.6850847053422
 20
126.5306699492593
 30
0.0
 40
194.4978110596494
100
AcDbArc
 50
289.6072112466733
 51
340.7538645252641
  0
LINE
  5
12C0
330
12BA
100
AcDbEntity
  8
0
100
AcDbLine
 10
402.3893350060327
 20
-75.97913213152333
 30
0.0
 11
402.389335006033
 21
-205.901454565876
 31
0.0
  0
ARC
  5
12C1
330
12BA
100
AcDbEntity
  8
0
100
AcDbCircle
 10
422.3893350060329
 20
-205.901454565876
 30
0.0
 40
20.0
100
AcDbArc
 50
180.0
 51
282.0071930274138
  0
ARC
  5
12C2
330
12BA
100
AcDbEntity
  8
0
100
AcDbCircle
 10
422.3893350060327
 20
-75.97913213152333
 30
0.0
 40
20.0
100
AcDbArc
 50
109.2461319168215
 51
180.0
  0
CIRCLE
  5
12C3
330
12BA
100
AcDbEntity
  8
0
100
AcDbCircle
 10
351.6850847053422
 20
125.8057836077987
 30
0.0
 40
40.0
  0
LINE
  5
12C4
330
12BA
100
AcDbEntity
  8
0
100
AcDbLine
 10
301.5116215512437
 20
-75.97913213152333
 30
0.0
 11
301.5116215512434
 21
-205.901454565876
 31
0.0
  0
ARC
  5
12C5
330
12BA
100
AcDbEntity
  8
0
100
AcDbCircle
 10
281.5116215512434
 20
-205.901454565876
 30
0.0
 40
20.0
100
AcDbArc
 50
257.9928069725862
 51
0.0
  0
ARC
  5
12C6
330
12BA
100
AcDbEntity
  8
0
100
AcDbCircle
 10
281.5116215512436
 20
-75.97913213152333
 30
0.0
 40
20.0
100
AcDbArc
 50
0.0
 51
70.75386808317843
  0
ARC
  5
12C7
330
12BA
100
AcDbEntity
  8
0
100
AcDbCircle
 10
352.2158718519342
 20
126.5306699492593
 30
0.0
 40
359.867927907635
100
AcDbArc
 50
192.0071951948112
 51
258.3591757084874
  0
ARC
  5
12C8
330
12BA
100
AcDbEntity
  8
0
100
AcDbCircle
 10
352.2158718519342
 20
126.5306699492593
 30
0.0
 40
194.4978110596494
100
AcDbArc
 50
199.2461354747359
 51
250.3927887533266
  0
LINE
  5
12C9
330
12BA
100
AcDbEntity
  8
0
100
AcDbLine
 10
149.7060741616962
 20
75.82640707325322
 30
0.0
 11
19.78375001141489
 21
75.826407073253
 31
0.0
  0
ARC
  5
12CA
330
12BA
100
AcDbEntity
  8
0
100
AcDbCircle
 10
149.7060741616962
 20
55.826407073253
 30
0.0
 40
20.0
100
AcDbArc
 50
19.24613547473572
 51
90.0
  0
ARC
  5
12CB
330
12BA
100
AcDbEntity
  8
0
100
AcDbCircle
 10
19.78375001141489
 20
55.826407073253
 30
0.0
 40
20.0
100
AcDbArc
 50
90.0
 51
192.0071951948113
  0
LINE
  5
12CC
330
12BA
100
AcDbEntity
  8
0
100
AcDbLine
 10
402.3893350060327
 20
328.3155856885814
 30
0.0
 11
402.389335006033
 21
458.2379081229341
 31
0.0
  0
ARC
  5
12CD
330
12BA
100
AcDbEntity
  8
0
100
AcDbCircle
 10
422.3893350060327
 20
328.3155856885814
 30
0.0
 40
20.0
100
AcDbArc
 50
180.0
 51
250.7538680831784
  0
ARC
  5
12CE
330
12BA
100
AcDbEntity
  8
0
100
AcDbCircle
 10
422.3893350060329
 20
458.2379081229341
 30
0.0
 40
20.0
100
AcDbArc
 50
77.99280697258622
 51
180.0
  0
ARC
  5
12CF
330
12BA
100
AcDbEntity
  8
0
100
AcDbCircle
 10
351.6850847053422
 20
125.8057836077987
 30
0.0
 40
194.4978110596494
100
AcDbArc
 50
19.24613547473588
 51
70.39278875332661
  0
ARC
  5
12D0
330
12BA
100
AcDbEntity
  8
0
100
AcDbCircle
 10
351.6850847053422
 20
125.8057836077987
 30
0.0
 40
359.867927907635
100
AcDbArc
 50
12.00719519481122
 51
78.35917570848737
  0
LINE
  5
12D1
330
12BA
100
AcDbEntity
  8
0
100
AcDbLine
 10
554.1948823955801
 20
176.5100464838049
 30
0.0
 11
684.1172065458615
 21
176.5100464838051
 31
0.0
  0
ARC
  5
12D2
330
12BA
100
AcDbEntity
  8
0
100
AcDbCircle
 10
554.1948823955801
 20
196.5100464838051
 30
0.0
 40
20.0
100
AcDbArc
 50
199.2461354747357
 51
270.0
  0
ARC
  5
12D3
330
12BA
100
AcDbEntity
  8
0
100
AcDbCircle
 10
684.1172065458615
 20
196.5100464838051
 30
0.0
 40
20.0
100
AcDbArc
 50
270.0
 51
12.0071951948114
  0
LINE
  5
12D4
330
12BA
100
AcDbEntity
  8
0
100
AcDbLine
 10
301.5116215512437
 20
328.3155856885814
 30
0.0
 11
301.5116215512434
 21
458.2379081229341
 31
0.0
  0
ARC
  5
12D5
330
12BA
100
AcDbEntity
  8
0
100
AcDbCircle
 10
281.5116215512436
 20
328.3155856885814
 30
0.0
 40
20.0
100
AcDbArc
 50
289.2461319168215
 51
0.0
  0
ARC
  5
12D6
330
12BA
100
AcDbEntity
  8
0
100
AcDbCircle
 10
281.5116215512434
 20
458.2379081229341
 30
0.0
 40
20.0
100
AcDbArc
 50
0.0
 51
102.0071930274137
  0
ARC
  5
12D7
330
12BA
100
AcDbEntity
  8
0
100
AcDbCircle
 10
352.2158718519342
 20
125.8057836077987
 30
0.0
 40
194.4978110596494
100
AcDbArc
 50
109.6072112466733
 51
160.7538645252641
  0
ARC
  5
12D8
330
12BA
100
AcDbEntity
  8
0
100
AcDbCircle
 10
352.2158718519342
 20
125.8057836077987
 30
0.0
 40
359.867927907635
100
AcDbArc
 50
101.6408242915126
 51
167.9928048051887
  0
LINE
  5
12D9
330
12BA
100
AcDbEntity
  8
0
100
AcDbLine
 10
149.7060741616962
 20
176.5100464838049
 30
0.0
 11
19.78375001141489
 21
176.5100464838051
 31
0.0
  0
ARC
  5
12DA
330
12BA
100
AcDbEntity
  8
0
100
AcDbCircle
 10
19.78375001141489
 20
196.5100464838051
 30
0.0
 40
20.0
100
AcDbArc
 50
167.9928048051886
 51
270.0
  0
ARC
  5
12DB
330
12BA
100
AcDbEntity
  8
0
100
AcDbCircle
 10
149.7060741616962
 20
196.5100464838051
 30
0.0
 40
20.0
100
AcDbArc
 50
270.0
 51
340.7538645252642
  0
ENDBLK
  5
12DD
330
12BA
100
AcDbEntity
  8
0
100
AcDbBlockEnd
  0
BLOCK
  5
12E4
330
12DE
100
AcDbEntity
  8
0
100
AcDbBlockBegin
  2
A$C18
 70
     0
 10
0.0
 20
0.0
 30
0.0
  3
A$C18
  1

  0
LINE
  5
12DF
330
12DE
100
AcDbEntity
  8
ASSE
100
AcDbLine
 39
0.1234
 10
163.4379881278923
 20
132.2538449780934
 30
0.0
 11
189.7709745327599
 21
265.9072573443886
 31
0.0
  0
LINE
  5
12E0
330
12DE
100
AcDbEntity
  8
ASSE
100
AcDbLine
 39
0.1234
 10
292.7080500392733
 20
20.1700765264427
 30
0.0
 11
163.8681767504976
 21
132.7461825582461
 31
0.0
  0
ARC
  5
12E1
330
12DE
100
AcDbEntity
  8
0
100
AcDbCircle
 10
283.3338269114735
 20
27.19885322169671
 30
0.0
 40
37.35884596452797
100
AcDbArc
 50
55.54292833930015
 51
224.9806279002979
  0
ARC
  5
12E2
330
12DE
100
AcDbEntity
  8
0
100
AcDbCircle
 10
7.920919788870151
 20
80.16046032873623
 30
0.0
 40
37.35884596452797
100
AcDbArc
 50
297.1968554600175
 51
102.1027007444285
  0
LINE
  5
12E3
330
12DE
100
AcDbEntity
  8
ASSE
100
AcDbLine
 39
0.1234
 10
2.50010731741213
 20
78.16474293571786
 30
0.0
 11
163.1724683171842
 21
133.0313973068748
 31
0.0
  0
ENDBLK
  5
12E5
330
12DE
100
AcDbEntity
  8
0
100
AcDbBlockEnd
  0
BLOCK
  5
156B
330
1561
100
AcDbEntity
  8
0
100
AcDbBlockBegin
  2
*D6
 70
     1
 10
0.0
 20
0.0
 30
0.0
  3
*D6
  1

  0
LINE
  5
15DA
330
1561
100
AcDbEntity
  8
QUOTA
 62
     0
100
AcDbLine
 10
1179.108439704781
 20
752.2963101470138
 30
0.0
 11
1179.108439704781
 21
412.4599474377491
 31
0.0
  0
LINE
  5
15DB
330
1561
100
AcDbEntity
  8
QUOTA
 62
     0
100
AcDbLine
 10
3128.964818300858
 20
752.2963101470129
 30
0.0
 11
3128.964818300858
 21
412.4599474377491
 31
0.0
  0
LINE
  5
15DC
330
1561
100
AcDbEntity
  8
QUOTA
 62
     0
100
AcDbLine
 10
1206.108439704781
 20
439.4599474377492
 30
0.0
 11
3101.964818300857
 21
439.4599474377492
 31
0.0
  0
SOLID
  5
15DD
330
1561
100
AcDbEntity
  8
QUOTA
 62
     0
100
AcDbTrace
 10
1206.108439704781
 20
443.9599474377492
 30
0.0
 11
1206.108439704781
 21
434.9599474377491
 31
0.0
 12
1179.108439704781
 22
439.4599474377492
 32
0.0
 13
1179.108439704781
 23
439.4599474377492
 33
0.0
  0
SOLID
  5
15DE
330
1561
100
AcDbEntity
  8
QUOTA
 62
     0
100
AcDbTrace
 10
3101.964818300857
 20
443.9599474377492
 30
0.0
 11
3101.964818300857
 21
434.9599474377491
 31
0.0
 12
3128.964818300858
 22
439.4599474377492
 32
0.0
 13
3128.964818300858
 23
439.4599474377492
 33
0.0
  0
MTEXT
  5
15DF
330
1561
100
AcDbEntity
  8
QUOTA
 62
     0
100
AcDbMText
 10
2154.036629002819
 20
466.4599474377491
 30
0.0
 40
27.0
 41
0.0
 71
     5
 72
     1
  1
\A1;1950
1001
ACAD
1000
MTEXTBEGIN
1070
    73
1070
     1
1070
    44
1040
1.0
1070
    74
1070
     0
1000
MTEXTEND
  0
POINT
  5
15E0
330
1561
100
AcDbEntity
  8
DEFPOINTS
 62
     0
100
AcDbPoint
 10
1179.108439704781
 20
761.2963101470138
 30
0.0
  0
POINT
  5
15E1
330
1561
100
AcDbEntity
  8
DEFPOINTS
 62
     0
100
AcDbPoint
 10
3128.964818300858
 20
761.2963101470129
 30
0.0
  0
POINT
  5
15E2
330
1561
100
AcDbEntity
  8
DEFPOINTS
 62
     0
100
AcDbPoint
 10
3128.964818300858
 20
439.4599474377492
 30
0.0
  0
ENDBLK
  5
156C
330
1561
100
AcDbEntity
  8
0
100
AcDbBlockEnd
  0
BLOCK
  5
1590
330
1586
100
AcDbEntity
  8
0
100
AcDbBlockBegin
  2
*D7
 70
     1
 10
0.0
 20
0.0
 30
0.0
  3
*D7
  1

  0
LINE
  5
15D1
330
1586
100
AcDbEntity
  8
QUOTA
 62
     0
100
AcDbLine
 10
654.1044500543812
 20
1066.983649016088
 30
0.0
 11
654.1044500543812
 21
147.8541191764479
 31
0.0
  0
LINE
  5
15D2
330
1586
100
AcDbEntity
  8
QUOTA
 62
     0
100
AcDbLine
 10
3654.103092739907
 20
1066.983649016088
 30
0.0
 11
3654.103092739907
 21
147.8541191764479
 31
0.0
  0
LINE
  5
15D3
330
1586
100
AcDbEntity
  8
QUOTA
 62
     0
100
AcDbLine
 10
681.1044500543812
 20
174.8541191764479
 30
0.0
 11
3627.103092739906
 21
174.8541191764479
 31
0.0
  0
SOLID
  5
15D4
330
1586
100
AcDbEntity
  8
QUOTA
 62
     0
100
AcDbTrace
 10
681.1044500543812
 20
179.3541191764479
 30
0.0
 11
681.1044500543812
 21
170.3541191764479
 31
0.0
 12
654.1044500543812
 22
174.8541191764479
 32
0.0
 13
654.1044500543812
 23
174.8541191764479
 33
0.0
  0
SOLID
  5
15D5
330
1586
100
AcDbEntity
  8
QUOTA
 62
     0
100
AcDbTrace
 10
3627.103092739906
 20
179.3541191764479
 30
0.0
 11
3627.103092739906
 21
170.3541191764479
 31
0.0
 12
3654.103092739907
 22
174.8541191764479
 32
0.0
 13
3654.103092739907
 23
174.8541191764479
 33
0.0
  0
MTEXT
  5
15D6
330
1586
100
AcDbEntity
  8
QUOTA
 62
     0
100
AcDbMText
 10
2154.103771397144
 20
201.8541191764479
 30
0.0
 40
27.0
 41
0.0
 71
     5
 72
     1
  1
\A1;3000
1001
ACAD
1000
MTEXTBEGIN
1070
    73
1070
     1
1070
    44
1040
1.0
1070
    74
1070
     0
1000
MTEXTEND
  0
POINT
  5
15D7
330
1586
100
AcDbEntity
  8
DEFPOINTS
 62
     0
100
AcDbPoint
 10
654.1044500543812
 20
1075.983649016088
 30
0.0
  0
POINT
  5
15D8
330
1586
100
AcDbEntity
  8
DEFPOINTS
 62
     0
100
AcDbPoint
 10
3654.103092739907
 20
1075.983649016088
 30
0.0
  0
POINT
  5
15D9
330
1586
100
AcDbEntity
  8
DEFPOINTS
 62
     0
100
AcDbPoint
 10
3654.103092739907
 20
174.8541191764479
 30
0.0
  0
ENDBLK
  5
1591
330
1586
100
AcDbEntity
  8
0
100
AcDbBlockEnd
  0
BLOCK
  5
15EE
330
15E4
100
AcDbEntity
  8
0
100
AcDbBlockBegin
  2
*D8
 70
     1
 10
0.0
 20
0.0
 30
0.0
  3
*D8
  1

  0
LINE
  5
15F0
330
15E4
100
AcDbEntity
  8
QUOTA
 62
     0
100
AcDbLine
 10
3138.15883688291
 20
761.4010684649708
 30
0.0
 11
3791.247582115116
 21
761.4010684649707
 31
0.0
  0
LINE
  5
15F1
330
15E4
100
AcDbEntity
  8
QUOTA
 62
     0
100
AcDbLine
 10
3138.124055668646
 20
2621.18722819437
 30
0.0
 11
3791.247582115117
 21
2621.18722819437
 31
0.0
  0
LINE
  5
15F2
330
15E4
100
AcDbEntity
  8
QUOTA
 62
     0
100
AcDbLine
 10
3764.247582115116
 20
788.4010684649707
 30
0.0
 11
3764.247582115116
 21
2594.18722819437
 31
0.0
  0
SOLID
  5
15F3
330
15E4
100
AcDbEntity
  8
QUOTA
 62
     0
100
AcDbTrace
 10
3759.747582115116
 20
788.4010684649707
 30
0.0
 11
3768.747582115116
 21
788.4010684649707
 31
0.0
 12
3764.247582115116
 22
761.4010684649707
 32
0.0
 13
3764.247582115116
 23
761.4010684649707
 33
0.0
  0
SOLID
  5
15F4
330
15E4
100
AcDbEntity
  8
QUOTA
 62
     0
100
AcDbTrace
 10
3759.747582115116
 20
2594.18722819437
 30
0.0
 11
3768.747582115116
 21
2594.18722819437
 31
0.0
 12
3764.247582115116
 22
2621.18722819437
 32
0.0
 13
3764.247582115116
 23
2621.18722819437
 33
0.0
  0
MTEXT
  5
15F5
330
15E4
100
AcDbEntity
  8
QUOTA
 62
     0
100
AcDbMText
 10
3737.247582115116
 20
1691.294148329671
 30
0.0
 40
27.0
 41
0.0
 71
     5
 72
     1
  1
\A1;1860
 11
0.0000000000000001
 21
1.0
 31
0.0
1001
ACAD
1000
MTEXTBEGIN
1070
    73
1070
     1
1070
    44
1040
1.0
1070
    74
1070
     0
1000
MTEXTEND
  0
POINT
  5
15F6
330
15E4
100
AcDbEntity
  8
DEFPOINTS
 62
     0
100
AcDbPoint
 10
3129.15883688291
 20
761.4010684649708
 30
0.0
  0
POINT
  5
15F7
330
15E4
100
AcDbEntity
  8
DEFPOINTS
 62
     0
100
AcDbPoint
 10
3129.124055668646
 20
2621.18722819437
 30
0.0
  0
POINT
  5
15F8
330
15E4
100
AcDbEntity
  8
DEFPOINTS
 62
     0
100
AcDbPoint
 10
3764.247582115116
 20
2621.18722819437
 30
0.0
  0
ENDBLK
  5
15EF
330
15E4
100
AcDbEntity
  8
0
100
AcDbBlockEnd
  0
ENDSEC
  0
SECTION
  2
ENTITIES
  0
LWPOLYLINE
  5
48
330
1A
100
AcDbEntity
  8
SQUADRATURA
100
AcDbPolyline
 90
        4
 70
     1
 43
0.0
 10
-170.1267147205089
 20
-68.58439386690498
 10
3929.873285279491
 20
-68.58439386690498
 10
3929.873285279491
 20
2801.415606133095
 10
-170.1267147205089
 20
2801.415606133095
  0
LWPOLYLINE
  5
4E
330
1A
100
AcDbEntity
  8
SQUADRATURA
100
AcDbPolyline
 90
        4
 70
     1
 43
0.0
 10
-120.1267147205089
 20
-18.58439386690497
 10
3879.873285279491
 20
-18.58439386690497
 10
3879.873285279491
 20
2751.415606133095
 10
-120.1267147205089
 20
2751.415606133095
  0
LINE
  5
5C
330
1A
100
AcDbEntity
  8
0
100
AcDbLine
 10
2915.102803448327
 20
1057.139112292472
 30
0.0
 11
2915.102803448327
 21
1075.983649016088
 31
0.0
  0
LINE
  5
77
330
1A
100
AcDbEntity
  8
ASSE
100
AcDbLine
 10
3560.07097594608
 20
1135.983649016088
 30
0.0
 11
3587.041347486209
 21
1135.983649016088
 31
0.0
  0
ARC
  5
D09
330
1A
100
AcDbEntity
  8
ASSE
100
AcDbCircle
 10
2364.520695688762
 20
1397.376726269665
 30
0.0
 40
150.0
100
AcDbArc
 50
138.7263605299421
 51
140.0149939222705
  0
LINE
  5
DBB
330
1A
100
AcDbEntity
  8
ASSE
100
AcDbLine
 10
2527.341017959223
 20
1748.273238945145
 30
0.0
 11
1917.341017959222
 21
1748.273238945145
 31
0.0
  0
LINE
  5
DBC
330
1A
100
AcDbEntity
  8
ASSE
100
AcDbLine
 10
2222.341017959223
 20
2053.273238945145
 30
0.0
 11
2222.341017959223
 21
1443.273238945145
 31
0.0
  0
LINE
  5
DBE
330
1A
100
AcDbEntity
  8
ASSE
100
AcDbLine
 10
2543.841017959223
 20
1748.273238945145
 30
0.0
 11
2500.841017959222
 21
1748.273238945145
 31
0.0
  0
LINE
  5
DC3
330
1A
100
AcDbEntity
  8
ASSE
100
AcDbLine
 10
1900.841017959223
 20
1748.273238945145
 30
0.0
 11
1943.841017959222
 21
1748.273238945145
 31
0.0
  0
CIRCLE
  5
DC9
330
1A
100
AcDbEntity
  8
0
100
AcDbCircle
 10
2222.341017959223
 20
1748.273238945145
 30
0.0
 40
334.4324881578186
  0
LINE
  5
DCB
330
1A
100
AcDbEntity
  8
ASSE
100
AcDbLine
 10
3654.102979569472
 20
1135.983649016088
 30
0.0
 11
3336.230450270665
 21
1135.983649016088
 31
0.0
  0
CIRCLE
  5
DD6
330
1A
100
AcDbEntity
  8
0
100
AcDbCircle
 10
2505.112408037601
 20
1336.461577635782
 30
0.0
 40
40.0
  0
LINE
  5
DD7
330
1A
100
AcDbEntity
  8
ASSE
100
AcDbLine
 10
2663.032294988514
 20
1474.15182722354
 30
0.0
 11
2344.30661555452
 21
1197.334844717016
 31
0.0
  0
LINE
  5
DD8
330
1A
100
AcDbEntity
  8
ASSE
100
AcDbLine
 10
2665.061134112047
 20
1151.952630342978
 30
0.0
 11
2363.250521722592
 21
1499.455849340574
 31
0.0
  0
ARC
  5
DDC
330
1A
100
AcDbEntity
  8
0
100
AcDbCircle
 10
2505.658483528942
 20
1341.347808310421
 30
0.0
 40
230.8274971807453
100
AcDbArc
 50
160.0212816726641
 51
269.8644535399108
  0
LINE
  5
DDD
330
1A
100
AcDbEntity
  8
0
100
AcDbLine
 10
2505.112408037601
 20
1041.515230279641
 30
0.0
 11
2222.613435260789
 21
1041.515230279641
 31
0.0
  0
LINE
  5
DDE
330
1A
100
AcDbEntity
  8
0
100
AcDbLine
 10
2505.112408037601
 20
1110.520957064114
 30
0.0
 11
2505.112408037601
 21
1041.515230279641
 31
0.0
  0
LINE
  5
DE0
330
1A
100
AcDbEntity
  8
ASSE
100
AcDbLine
 10
2031.769681203161
 20
1135.983649016088
 30
0.0
 11
1407.863492764819
 21
1135.983649016088
 31
0.0
  0
LINE
  5
DE3
330
1A
100
AcDbEntity
  8
0
100
AcDbLine
 10
2089.525032342165
 20
1195.983649016088
 30
0.0
 11
2059.391800189021
 21
1195.983649016088
 31
0.0
  0
ARC
  5
DF1
330
1A
100
AcDbEntity
  8
0
100
AcDbCircle
 10
1750.787986977179
 20
1746.978833536735
 30
0.0
 40
183.4383699856711
100
AcDbArc
 50
191.0883927076842
 51
275.1551222855386
  0
LINE
  5
DF4
330
1A
100
AcDbEntity
  8
0
100
AcDbLine
 10
1522.212714460298
 20
2254.860251800768
 30
0.0
 11
1480.158061711889
 21
2525.965937990927
 31
0.0
  0
LINE
  5
DF6
330
1A
100
AcDbEntity
  8
ASSE
100
AcDbLine
 10
1662.647075713047
 20
2001.909819111062
 30
0.0
 11
1574.548515530732
 21
2594.100218345011
 31
0.0
  0
LINE
  5
DF7
330
1A
100
AcDbEntity
  8
0
100
AcDbLine
 10
1747.134492985409
 20
2109.62184935465
 30
0.0
 11
1764.415318110196
 21
1983.970252460055
 31
0.0
  0
LINE
  5
DF8
330
1A
100
AcDbEntity
  8
ASSE
100
AcDbLine
 10
1700.066492349945
 20
1760.685222991538
 30
0.0
 11
1638.81241704776
 21
2155.560154335986
 31
0.0
  0
LINE
  5
DFA
330
1A
100
AcDbEntity
  8
0
100
AcDbLine
 10
1522.212714460298
 20
2254.860251800768
 30
0.0
 11
1551.64427588186
 21
2065.129434081851
 31
0.0
  0
LINE
  5
DFB
330
1A
100
AcDbEntity
  8
0
100
AcDbLine
 10
1757.996594108216
 20
2022.340856491561
 30
0.0
 11
1527.503565169141
 21
1992.426420282783
 31
0.0
  0
LINE
  5
DFC
330
1A
100
AcDbEntity
  8
ASSE
100
AcDbLine
 10
1656.265327316017
 20
1755.410140861987
 30
0.0
 11
1563.587129032947
 21
1725.68317160138
 31
0.0
  0
LINE
  5
DFD
330
1A
100
AcDbEntity
  8
ASSE
100
AcDbLine
 10
1807.923872305784
 20
1903.504181603436
 30
0.0
 11
1557.967708779471
 21
1864.730300438693
 31
0.0
  0
CIRCLE
  5
DFE
330
1A
100
AcDbEntity
  8
0
100
AcDbCircle
 10
1680.966997208853
 20
1883.810285207329
 30
0.0
 40
117.5
  0
CIRCLE
  5
DFF
330
1A
100
AcDbEntity
  8
0
100
AcDbCircle
 10
1609.147041471173
 20
1740.102616804291
 30
0.0
 40
45.0
  0
LINE
  5
E00
330
1A
100
AcDbEntity
  8
ASSE
100
AcDbLine
 10
1631.768776861341
 20
1673.574974523628
 30
0.0
 11
1590.763190415782
 21
1801.415920500958
 31
0.0
  0
LINE
  5
E01
330
1A
100
AcDbEntity
  8
0
100
AcDbLine
 10
1542.503966380908
 20
1895.726202878232
 30
0.0
 11
1567.411411543902
 21
1723.490961925051
 31
0.0
  0
LINE
  5
E02
330
1A
100
AcDbEntity
  8
0
100
AcDbLine
 10
1542.503966380908
 20
1895.726202878232
 30
0.0
 11
1522.423057285988
 21
2025.177958717701
 31
0.0
  0
LINE
  5
E04
330
1A
100
AcDbEntity
  8
0
100
AcDbLine
 10
1522.423057285988
 20
2025.177958717701
 30
0.0
 11
1551.64427588186
 21
2065.129434081851
 31
0.0
  0
LINE
  5
E05
330
1A
100
AcDbEntity
  8
0
100
AcDbLine
 10
1875.736444378292
 20
1761.653332193446
 30
0.0
 11
1846.461717990545
 21
1898.382201262564
 31
0.0
  0
LINE
  5
E06
330
1A
100
AcDbEntity
  8
ASSE
100
AcDbLine
 10
1858.065395441734
 20
1561.599010511298
 30
0.0
 11
1734.603720225171
 21
1785.964872502089
 31
0.0
  0
LINE
  5
E07
330
1A
100
AcDbEntity
  8
ASSE
100
AcDbLine
 10
1905.312370848207
 20
1737.225720878553
 30
0.0
 11
1684.513714649952
 21
1615.186485382659
 31
0.0
  0
LINE
  5
E08
330
1A
100
AcDbEntity
  8
0
100
AcDbLine
 10
1846.443504623442
 20
1898.385576098805
 30
0.0
 11
1765.799097634237
 21
1982.9277103399
 31
0.0
  0
LINE
  5
E09
330
1A
100
AcDbEntity
  8
0
100
AcDbLine
 10
1719.848982917502
 20
2285.518128281562
 30
0.0
 11
1747.134492985409
 21
2109.62184935465
 31
0.0
  0
LINE
  5
E0D
330
1A
100
AcDbEntity
  8
0
100
AcDbLine
 10
1693.681492442165
 20
2443.608994181908
 30
0.0
 11
2817.782291214911
 21
2443.608994181908
 31
0.0
  0
LINE
  5
E0E
330
1A
100
AcDbEntity
  8
0
100
AcDbLine
 10
1531.899733262238
 20
2192.412800500949
 30
0.0
 11
1531.899733262238
 21
2037.455019726913
 31
0.0
  0
LINE
  5
E0F
330
1A
100
AcDbEntity
  8
0
100
AcDbLine
 10
1531.899733262238
 20
1964.08648428054
 30
0.0
 11
1531.899733262238
 21
1195.27583903447
 31
0.0
  0
LINE
  5
E11
330
1A
100
AcDbEntity
  8
0
100
AcDbLine
 10
2912.782291214911
 20
2348.608994181908
 30
0.0
 11
2817.782291214911
 21
2443.608994181908
 31
0.0
  0
LINE
  5
E12
330
1A
100
AcDbEntity
  8
0
100
AcDbLine
 10
1626.899733262238
 20
947.3266575159996
 30
0.0
 11
1562.621969592923
 21
1011.604421185315
 31
0.0
  0
LINE
  5
E27
330
1A
100
AcDbEntity
  8
0
100
AcDbLine
 10
1480.235935036508
 20
2525.97801791323
 30
0.0
 11
1678.722453168531
 21
2547.420613104012
 31
0.0
  0
LINE
  5
E29
330
1A
100
AcDbEntity
  8
0
100
AcDbLine
 10
1679.235429235215
 20
2547.333756757395
 30
0.0
 11
1719.848982917502
 21
2285.518128281562
 31
0.0
  0
LINE
  5
E48
330
1A
100
AcDbEntity
  8
ASSE
100
AcDbLine
 10
3310.75791088165
 20
1135.983649016088
 30
0.0
 11
2417.223847628047
 21
1135.983649016088
 31
0.0
  0
LINE
  5
E74
330
1A
100
AcDbEntity
  8
0
100
AcDbLine
 10
2648.689166144038
 20
1196.061360953033
 30
0.0
 11
3089.501488498148
 21
1195.983649016088
 31
0.0
  0
LINE
  5
E75
330
1A
100
AcDbEntity
  8
0
100
AcDbLine
 10
2505.112419478899
 20
1075.983649016088
 30
0.0
 11
3089.501488498148
 21
1075.983649016088
 31
0.0
  0
ARC
  5
10E3
330
1A
100
AcDbEntity
  8
0
100
AcDbCircle
 10
1793.745168720608
 20
1678.673540496722
 30
0.0
 40
117.5
100
AcDbArc
 50
36.51143685777576
 51
343.1579175231303
  0
LINE
  5
10E5
330
1A
100
AcDbEntity
  8
ASSE
100
AcDbLine
 10
1383.467795223536
 20
1135.983649016088
 30
0.0
 11
1276.914700608365
 21
1135.983649016088
 31
0.0
  0
LINE
  5
10E7
330
1A
100
AcDbEntity
  8
0
100
AcDbLine
 10
1849.598282625535
 20
1195.983649016088
 30
0.0
 11
1219.108439704781
 21
1195.983649016088
 31
0.0
  0
LINE
  5
10E8
330
1A
100
AcDbEntity
  8
ASSE
100
AcDbLine
 10
1251.753478933571
 20
1135.983649016088
 30
0.0
 11
654.102978667398
 21
1135.983649016088
 31
0.0
  0
LINE
  5
10E9
330
1A
100
AcDbEntity
  8
0
100
AcDbLine
 10
1251.753478933571
 20
1075.983649016088
 30
0.0
 11
1219.108439704781
 21
1075.983649016088
 31
0.0
  0
LINE
  5
10EC
330
1A
100
AcDbEntity
  8
0
100
AcDbLine
 10
2560.74903031679
 20
947.3266602452726
 30
0.0
 11
1626.899733262238
 21
947.3266575159996
 31
0.0
  0
ARC
  5
10F2
330
1A
100
AcDbEntity
  8
0
100
AcDbCircle
 10
1940.114462483978
 20
1397.549304864019
 30
0.0
 40
150.0
100
AcDbArc
 50
45.76685429755898
 51
45.91241193087063
  0
LINE
  5
110E
330
1A
100
AcDbEntity
  8
0
100
AcDbLine
 10
3129.151894484424
 20
1195.983649016088
 30
0.0
 11
3654.10150818249
 21
1195.983649016088
 31
0.0
  0
LINE
  5
110F
330
1A
100
AcDbEntity
  8
0
100
AcDbLine
 10
3129.154837243969
 20
1075.983649016088
 30
0.0
 11
3654.103092739907
 21
1075.983649016088
 31
0.0
  0
LINE
  5
111B
330
1A
100
AcDbEntity
  8
0
100
AcDbLine
 10
1179.101507438277
 20
1195.983649016088
 30
0.0
 11
654.1015072804139
 21
1195.983649016088
 31
0.0
  0
LINE
  5
111C
330
1A
100
AcDbEntity
  8
0
100
AcDbLine
 10
1179.104450212244
 20
1075.983649016088
 30
0.0
 11
654.1044500543812
 21
1075.983649016088
 31
0.0
  0
TEXT
  5
1209
330
1A
100
AcDbEntity
  8
TESTO
100
AcDbText
 10
-82.92352169185141
 20
2630.164177722742
 30
0.0
 40
80.0
  1
ETICAP SYSTEM
  7
ROMANC
100
AcDbText
  0
TEXT
  5
120A
330
1A
100
AcDbEntity
  8
TESTO
100
AcDbText
 10
-82.92352169185141
 20
2539.650608952392
 30
0.0
 40
50.0
  1
Modello PF3 9T 2S
  7
ROMANC
100
AcDbText
  0
TEXT
  5
120B
330
1A
100
AcDbEntity
  8
TESTO
100
AcDbText
 10
-82.92352169185141
 20
2451.868818356388
 30
0.0
 40
50.0
  1
Lunghezza nastro 3000 mm
  7
ROMANC
100
AcDbText
  0
TEXT
  5
120C
330
1A
100
AcDbEntity
  8
TESTO
100
AcDbText
 10
-82.92352169185141
 20
2368.18466638811
 30
0.0
 40
50.0
  1
Sezione nastro
  7
ROMANC
100
AcDbText
  0
TEXT
  5
120D
330
1A
100
AcDbEntity
  8
TESTO
100
AcDbText
 10
-82.92352169185141
 20
2276.305222847486
 30
0.0
 40
50.0
  1
Altezza 100 mm
  7
ROMANC
100
AcDbText
  0
TEXT
  5
120E
330
1A
100
AcDbEntity
  8
TESTO
100
AcDbText
 10
-82.92352169185141
 20
2174.864591488892
 30
0.0
 40
50.0
  1
Larghezza 120 mm
  7
ROMANC
100
AcDbText
  0
LINE
  5
1210
330
1A
100
AcDbEntity
  8
0
100
AcDbLine
 10
-79.92529302382354
 20
2615.813020310744
 30
0.0
 11
921.6100594647105
 21
2615.813020310744
 31
0.0
  0
LINE
  5
1211
330
1A
100
AcDbEntity
  8
0
100
AcDbLine
 10
-83.39081335911942
 20
2525.774183835877
 30
0.0
 11
711.9460852822994
 21
2525.774183835877
 31
0.0
  0
LINE
  5
1212
330
1A
100
AcDbEntity
  8
0
100
AcDbLine
 10
-83.39081335911942
 20
2440.929900159
 30
0.0
 11
1107.015391300053
 21
2440.929900159
 31
0.0
  0
LINE
  5
1213
330
1A
100
AcDbEntity
  8
0
100
AcDbLine
 10
-83.39081335911942
 20
2356.085609104911
 30
0.0
 11
547.3338754587294
 21
2356.085609104911
 31
0.0
  0
LINE
  5
1214
330
1A
100
AcDbEntity
  8
0
100
AcDbLine
 10
-83.39081335911942
 20
2264.315259948856
 30
0.0
 11
632.2391175705015
 21
2264.315259948856
 31
0.0
  0
LINE
  5
1215
330
1A
100
AcDbEntity
  8
0
100
AcDbLine
 10
-83.39081335911942
 20
2162.155812574038
 30
0.0
 11
743.1357682999587
 21
2162.155812574038
 31
0.0
  0
INSERT
  5
1224
330
1A
100
AcDbEntity
  8
0
100
AcDbBlockReference
  2
A$C6
 10
-62.51334973434677
 20
-5.165668378456757
 30
0.0
  0
ARC
  5
1236
330
1A
100
AcDbEntity
  8
0
100
AcDbCircle
 10
2505.903742121312
 20
1335.828820198643
 30
0.0
 40
199.9531023032002
100
AcDbArc
 50
232.4970968847489
 51
300.2322924890501
  0
ARC
  5
1237
330
1A
100
AcDbEntity
  8
0
100
AcDbCircle
 10
2355.725004741187
 20
1206.784178917725
 30
0.0
 40
41.45769909668866
100
AcDbArc
 50
313.4278083203727
 51
127.0978825591378
  0
ARC
  5
1239
330
1A
100
AcDbEntity
  8
0
100
AcDbCircle
 10
2637.229195620462
 20
1190.984525408612
 30
0.0
 40
41.45769909668866
100
AcDbArc
 50
45.96248622478531
 51
219.6325604635505
  0
ARC
  5
123A
330
1A
100
AcDbEntity
  8
0
100
AcDbCircle
 10
2655.030121966072
 20
1466.047830780905
 30
0.0
 40
41.45769909668866
100
AcDbArc
 50
134.7032718011462
 51
308.3733460399114
  0
ARC
  5
123C
330
1A
100
AcDbEntity
  8
0
100
AcDbCircle
 10
2505.903742121312
 20
1335.828820198643
 30
0.0
 40
199.9531023032002
100
AcDbArc
 50
324.6013108243882
 51
29.38357061915621
  0
ARC
  5
123D
330
1A
100
AcDbEntity
  8
0
100
AcDbCircle
 10
2505.903742121312
 20
1335.828820198643
 30
0.0
 40
199.9531023032002
100
AcDbArc
 50
53.16515303829591
 51
97.90254860240173
  0
ARC
  5
1240
330
1A
100
AcDbEntity
  8
0
100
AcDbCircle
 10
2505.903742121312
 20
1335.828820198643
 30
0.0
 40
199.9531023032002
100
AcDbArc
 50
151.3540189690258
 51
208.8011011037188
  0
ARC
  5
1241
330
1A
100
AcDbEntity
  8
0
100
AcDbCircle
 10
1939.768547174217
 20
1335.828820198643
 30
0.0
 40
199.9531023032002
100
AcDbArc
 50
82.09745139759828
 51
126.834846961704
  0
ARC
  5
1242
330
1A
100
AcDbEntity
  8
0
100
AcDbCircle
 10
1790.642167329457
 20
1466.047830780905
 30
0.0
 40
41.45769909668866
100
AcDbArc
 50
231.6266539600886
 51
45.29672819885379
  0
LINE
  5
1243
330
1A
100
AcDbEntity
  8
ASSE
100
AcDbLine
 10
1782.639994307015
 20
1474.15182722354
 30
0.0
 11
2101.365673741009
 21
1197.334844717016
 31
0.0
  0
CIRCLE
  5
1244
330
1A
100
AcDbEntity
  8
0
100
AcDbCircle
 10
1940.559881257928
 20
1336.461577635782
 30
0.0
 40
40.0
  0
LINE
  5
1245
330
1A
100
AcDbEntity
  8
ASSE
100
AcDbLine
 10
1780.611155183482
 20
1151.952630342978
 30
0.0
 11
2082.421767572936
 21
1499.455849340574
 31
0.0
  0
ARC
  5
1246
330
1A
100
AcDbEntity
  8
0
100
AcDbCircle
 10
1808.443093675066
 20
1190.984525408612
 30
0.0
 40
41.45769909668866
100
AcDbArc
 50
320.3674395364495
 51
134.0375137752146
  0
ARC
  5
1247
330
1A
100
AcDbEntity
  8
0
100
AcDbCircle
 10
1939.768547174217
 20
1335.828820198643
 30
0.0
 40
199.9531023032002
100
AcDbArc
 50
150.6164293808437
 51
215.3986891756117
  0
ARC
  5
1248
330
1A
100
AcDbEntity
  8
0
100
AcDbCircle
 10
1939.768547174217
 20
1335.828820198643
 30
0.0
 40
199.9531023032002
100
AcDbArc
 50
239.7677075109498
 51
307.502903115251
  0
ARC
  5
1249
330
1A
100
AcDbEntity
  8
0
100
AcDbCircle
 10
2089.947284554342
 20
1206.784178917725
 30
0.0
 40
41.45769909668866
100
AcDbArc
 50
52.9021174408621
 51
226.5721916796272
  0
ARC
  5
124A
330
1A
100
AcDbEntity
  8
0
100
AcDbCircle
 10
1939.768547174217
 20
1335.828820198643
 30
0.0
 40
199.9531023032002
100
AcDbArc
 50
331.1988988962811
 51
28.6459810309741
  0
ARC
  5
124B
330
1A
100
AcDbEntity
  8
0
100
AcDbCircle
 10
1940.013805766587
 20
1341.347808310421
 30
0.0
 40
230.8274971807453
100
AcDbArc
 50
270.1355464600891
 51
19.97871832733584
  0
LINE
  5
124D
330
1A
100
AcDbEntity
  8
0
100
AcDbLine
 10
1940.559881257928
 20
1041.515230279641
 30
0.0
 11
2223.058854034739
 21
1041.515230279641
 31
0.0
  0
LINE
  5
124E
330
1A
100
AcDbEntity
  8
0
100
AcDbLine
 10
1940.559881257928
 20
1110.520957064114
 30
0.0
 11
1940.559881257928
 21
1041.515230279641
 31
0.0
  0
LINE
  5
124F
330
1A
100
AcDbEntity
  8
0
100
AcDbLine
 10
2912.782291214911
 20
2348.608994181908
 30
0.0
 11
2912.962998545719
 21
2198.189654305286
 31
0.0
  0
CIRCLE
  5
1252
330
1A
100
AcDbEntity
  8
ASSE
100
AcDbCircle
 10
2222.319856000707
 20
1746.268719849156
 30
0.0
 40
300.0
  0
CIRCLE
  5
1253
330
1A
100
AcDbEntity
  8
COSTRUZIONE
100
AcDbCircle
 10
2522.319856000708
 20
1746.268719849156
 30
0.0
 40
20.0
  0
LINE
  5
1254
330
1A
100
AcDbEntity
  8
ASSE
100
AcDbLine
 10
2543.819856000707
 20
1746.268719849156
 30
0.0
 11
2500.819856000707
 21
1746.268719849156
 31
0.0
  0
LINE
  5
1255
330
1A
100
AcDbEntity
  8
ASSE
100
AcDbLine
 10
2468.603144463459
 20
1952.924936363379
 30
0.0
 11
2435.663233409343
 21
1925.285069146858
 31
0.0
  0
CIRCLE
  5
1256
330
1A
100
AcDbEntity
  8
COSTRUZIONE
100
AcDbCircle
 10
2452.133188936401
 20
1939.105002755118
 30
0.0
 40
20.0
  0
LINE
  5
1257
330
1A
100
AcDbEntity
  8
ASSE
100
AcDbLine
 10
2278.147745120625
 20
2062.884412442581
 30
0.0
 11
2270.680873480947
 21
2020.537679063056
 31
0.0
  0
CIRCLE
  5
1258
330
1A
100
AcDbEntity
  8
COSTRUZIONE
100
AcDbCircle
 10
2274.414309300787
 20
2041.711045752819
 30
0.0
 40
20.0
  0
LINE
  5
1259
330
1A
100
AcDbEntity
  8
ASSE
100
AcDbLine
 10
2061.569856000707
 20
2024.695887165853
 30
0.0
 11
2083.069856000707
 21
1987.456794803122
 31
0.0
  0
CIRCLE
  5
125A
330
1A
100
AcDbEntity
  8
COSTRUZIONE
100
AcDbCircle
 10
2072.319856000707
 20
2006.076340984488
 30
0.0
 40
20.0
  0
LINE
  5
125B
330
1A
100
AcDbEntity
  8
ASSE
100
AcDbLine
 10
1920.208678418038
 20
1856.228195928359
 30
0.0
 11
1960.615461111832
 21
1841.521329765355
 31
0.0
  0
CIRCLE
  5
125C
330
1A
100
AcDbEntity
  8
COSTRUZIONE
100
AcDbCircle
 10
1940.412069764937
 20
1848.874762846857
 30
0.0
 40
20.0
  0
LINE
  5
125D
330
1A
100
AcDbEntity
  8
ASSE
100
AcDbLine
 10
1920.208678418038
 20
1636.309243769954
 30
0.0
 11
1960.615461111832
 21
1651.016109932958
 31
0.0
  0
CIRCLE
  5
125E
330
1A
100
AcDbEntity
  8
COSTRUZIONE
100
AcDbCircle
 10
1940.412069764937
 20
1643.662676851456
 30
0.0
 40
20.0
  0
LINE
  5
125F
330
1A
100
AcDbEntity
  8
ASSE
100
AcDbLine
 10
2061.569856000707
 20
1467.841552532459
 30
0.0
 11
2083.069856000707
 21
1505.08064489519
 31
0.0
  0
CIRCLE
  5
1260
330
1A
100
AcDbEntity
  8
COSTRUZIONE
100
AcDbCircle
 10
2072.319856000706
 20
1486.461098713824
 30
0.0
 40
20.0
  0
LINE
  5
1261
330
1A
100
AcDbEntity
  8
ASSE
100
AcDbLine
 10
2278.147745120625
 20
1429.653027255731
 30
0.0
 11
2270.680873480947
 21
1471.999760635256
 31
0.0
  0
CIRCLE
  5
1262
330
1A
100
AcDbEntity
  8
COSTRUZIONE
100
AcDbCircle
 10
2274.414309300786
 20
1450.826393945494
 30
0.0
 40
20.0
  0
LINE
  5
1263
330
1A
100
AcDbEntity
  8
ASSE
100
AcDbLine
 10
2468.603144463459
 20
1539.612503334934
 30
0.0
 11
2435.663233409343
 21
1567.252370551455
 31
0.0
  0
CIRCLE
  5
1264
330
1A
100
AcDbEntity
  8
COSTRUZIONE
100
AcDbCircle
 10
2452.133188936401
 20
1553.432436943195
 30
0.0
 40
20.0
  0
LINE
  5
1404
330
1A
100
AcDbEntity
  8
0
100
AcDbLine
 10
1469.208439704783
 20
801.2963101470138
 30
0.0
 11
2560.74903031679
 21
801.3115104001039
 31
0.0
  0
LINE
  5
1405
330
1A
100
AcDbEntity
  8
0
100
AcDbLine
 10
1179.108439704781
 20
761.2963101470138
 30
0.0
 11
2938.85014474902
 21
761.292668928824
 31
0.0
  0
LINE
  5
1406
330
1A
100
AcDbEntity
  8
0
100
AcDbLine
 10
1469.041105941056
 20
2581.296309752973
 30
0.0
 11
2839.024055668644
 21
2581.296309752972
 31
0.0
  0
LINE
  5
1407
330
1A
100
AcDbEntity
  8
0
100
AcDbLine
 10
1179.073658490517
 20
2621.296309752972
 30
0.0
 11
2939.833349439002
 21
2621.265146553005
 31
0.0
  0
LINE
  5
1415
330
1A
100
AcDbEntity
  8
0
100
AcDbLine
 10
1219.108439704781
 20
1051.396310147014
 30
0.0
 11
1219.108439704781
 21
2375.974999813144
 31
0.0
  0
LINE
  5
1416
330
1A
100
AcDbEntity
  8
0
100
AcDbLine
 10
1179.108439704781
 20
913.3007145263452
 30
0.0
 11
1179.073658490517
 21
2331.603906901007
 31
0.0
  0
LINE
  5
1430
330
1A
100
AcDbEntity
  8
0
 48
10.0
100
AcDbLine
 10
1469.106440677191
 20
761.2963101470138
 30
0.0
 11
1179.108439704781
 21
761.2963101470138
 31
0.0
  0
LINE
  5
1433
330
1A
100
AcDbEntity
  8
0
 48
10.0
100
AcDbLine
 10
1179.108439704781
 20
1051.403260851669
 30
0.0
 11
1179.108439704781
 21
761.4763205648658
 31
0.0
  0
LINE
  5
1436
330
1A
100
AcDbEntity
  8
0
 48
10.0
100
AcDbLine
 10
1219.108439704781
 20
1051.396310147014
 30
0.0
 11
1179.108439704781
 21
1051.396310147014
 31
0.0
  0
LINE
  5
1437
330
1A
100
AcDbEntity
  8
0
 48
10.0
100
AcDbLine
 10
1219.108439704781
 20
1011.396310147014
 30
0.0
 11
1219.108439704781
 21
1051.396310147014
 31
0.0
  0
LINE
  5
1439
330
1A
100
AcDbEntity
  8
0
 48
10.0
100
AcDbLine
 10
1469.208439704783
 20
801.2963101470138
 30
0.0
 11
1469.208439704783
 21
761.2963101470138
 31
0.0
  0
LINE
  5
143A
330
1A
100
AcDbEntity
  8
0
 48
10.0
100
AcDbLine
 10
1469.208439704783
 20
801.2963101470138
 30
0.0
 11
1429.208439704783
 21
801.2963101470138
 31
0.0
  0
LINE
  5
146B
330
1A
100
AcDbEntity
  8
0
 48
10.0
100
AcDbLine
 10
1179.073658490517
 20
2331.603906901007
 30
0.0
 11
1179.073658490517
 21
2621.296309752972
 31
0.0
  0
LINE
  5
1485
330
1A
100
AcDbEntity
  8
0
 48
10.0
100
AcDbLine
 10
1219.073658490517
 20
2371.196309752973
 30
0.0
 11
1219.073658490517
 21
2331.196309752973
 31
0.0
  0
LINE
  5
1486
330
1A
100
AcDbEntity
  8
0
 48
10.0
100
AcDbLine
 10
1219.073658490517
 20
2331.196309752973
 30
0.0
 11
1179.073658490517
 21
2331.196309752973
 31
0.0
  0
LINE
  5
149E
330
1A
100
AcDbEntity
  8
0
100
AcDbLine
 10
3089.158836882907
 20
2375.974999813143
 30
0.0
 11
3089.158836882905
 21
1057.139112292472
 31
0.0
  0
LINE
  5
149F
330
1A
100
AcDbEntity
  8
0
100
AcDbLine
 10
3129.124055668646
 20
2331.196309752972
 30
0.0
 11
3129.15883688291
 21
912.8861666736547
 31
0.0
  0
MTEXT
  5
14A8
330
1A
100
AcDbEntity
  8
0
100
AcDbMText
 10
2668.83241895832
 20
972.3902580739576
 30
0.0
 40
50.0
 41
425.55
 71
     1
 72
     5
  1
 Quadro Elettrico
1001
ACAD
1000
MTEXTBEGIN
1070
    73
1070
     1
1070
    44
1040
1.0
1070
    74
1070
     0
1000
MTEXTEND
  0
LINE
  5
14A9
330
1A
100
AcDbEntity
  8
0
100
AcDbLine
 10
3129.158638380986
 20
1057.139112292472
 30
0.0
 11
2560.74903031679
 21
1057.139112292472
 31
0.0
  0
LINE
  5
14AA
330
1A
100
AcDbEntity
  8
0
 48
10.0
100
AcDbLine
 10
2839.160835910497
 20
761.2963101470129
 30
0.0
 11
3128.964818300858
 21
761.2963101470129
 31
0.0
  0
LINE
  5
14AF
330
1A
100
AcDbEntity
  8
0
100
AcDbLine
 10
2560.74903031679
 20
1057.139112292472
 30
0.0
 11
2560.74903031679
 21
762.0115976913382
 31
0.0
  0
LINE
  5
14C2
330
1A
100
AcDbEntity
  8
0
 48
10.0
100
AcDbLine
 10
3129.15883688291
 20
1050.988712998979
 30
0.0
 11
3129.15883688291
 21
761.4010684649708
 31
0.0
  0
LINE
  5
14CE
330
1A
100
AcDbEntity
  8
0
 48
10.0
100
AcDbLine
 10
3129.124055668646
 20
2331.603906901006
 30
0.0
 11
3129.124055668646
 21
2621.18722819437
 31
0.0
  0
LINE
  5
14EA
330
1A
100
AcDbEntity
  8
0
 48
10.0
100
AcDbLine
 10
3089.124055668643
 20
2331.196309752972
 30
0.0
 11
3129.124055668646
 21
2331.196309752972
 31
0.0
  0
LINE
  5
14EB
330
1A
100
AcDbEntity
  8
0
 48
10.0
100
AcDbLine
 10
3089.124055668643
 20
2371.196309752972
 30
0.0
 11
3089.124055668643
 21
2331.196309752972
 31
0.0
  0
LINE
  5
14EC
330
1A
100
AcDbEntity
  8
0
 48
10.0
100
AcDbLine
 10
2839.126054696233
 20
2621.296309752972
 30
0.0
 11
3129.118522806031
 21
2621.296309752972
 31
0.0
  0
LINE
  5
14EF
330
1A
100
AcDbEntity
  8
0
 48
10.0
100
AcDbLine
 10
2839.024055668644
 20
2581.296309752972
 30
0.0
 11
2839.024055668644
 21
2621.296309752972
 31
0.0
  0
LINE
  5
14F0
330
1A
100
AcDbEntity
  8
0
 48
10.0
100
AcDbLine
 10
2839.024055668644
 20
2581.296309752972
 30
0.0
 11
2879.024055668644
 21
2581.296309752972
 31
0.0
  0
ARC
  5
1531
330
1A
100
AcDbEntity
  8
0
100
AcDbCircle
 10
1647.232056534653
 20
938.8097388407031
 30
0.0
 40
83.07217110933803
100
AcDbArc
 50
61.18683045305572
 51
118.8131695469442
  0
LINE
  5
1532
330
1A
100
AcDbEntity
  8
0
100
AcDbLine
 10
1686.832518481331
 20
1111.742690084615
 30
0.0
 11
1606.758397317866
 21
1011.171337421565
 31
0.0
  0
LINE
  5
1533
330
1A
100
AcDbEntity
  8
0
100
AcDbLine
 10
1606.667516767673
 20
1111.604421185315
 30
0.0
 11
1686.591492277193
 21
1111.604421185315
 31
0.0
  0
LINE
  5
1534
330
1A
100
AcDbEntity
  8
0
100
AcDbLine
 10
1366.829543186478
 20
1102.670545212206
 30
0.0
 11
1250.486677366116
 21
1102.670545212206
 31
0.0
  0
LINE
  5
1535
330
1A
100
AcDbEntity
  8
0
100
AcDbLine
 10
1250.486677366116
 20
989.8106092310726
 30
0.0
 11
1366.829543186478
 21
989.8106092310726
 31
0.0
  0
LINE
  5
1536
330
1A
100
AcDbEntity
  8
0
100
AcDbLine
 10
1250.486677366116
 20
1102.670545212206
 30
0.0
 11
1250.486677366116
 21
989.8106092310726
 31
0.0
  0
LINE
  5
1537
330
1A
100
AcDbEntity
  8
0
100
AcDbLine
 10
1376.808298465794
 20
1011.604421185315
 30
0.0
 11
1376.808298465794
 21
1106.926433057807
 31
0.0
  0
LINE
  5
1538
330
1A
100
AcDbEntity
  8
0
100
AcDbLine
 10
1606.758397317866
 20
1111.742690084615
 30
0.0
 11
1527.418907712271
 21
1012.639532350953
 31
0.0
  0
LINE
  5
1539
330
1A
100
AcDbEntity
  8
0
100
AcDbLine
 10
1527.418907712271
 20
1111.008592619922
 30
0.0
 11
1447.344797604875
 21
1011.905434886259
 31
0.0
  0
LINE
  5
153A
330
1A
100
AcDbEntity
  8
0
100
AcDbLine
 10
1447.344797604875
 20
1111.742690084615
 30
0.0
 11
1376.820809301252
 21
1028.055579109522
 31
0.0
  0
ARC
  5
153B
330
1A
100
AcDbEntity
  8
0
100
AcDbCircle
 10
1487.232827905118
 20
938.9586458652548
 30
0.0
 40
83.07217110933803
100
AcDbArc
 50
61.18683045305572
 51
118.8131695469442
  0
LINE
  5
153C
330
1A
100
AcDbEntity
  8
0
100
AcDbLine
 10
1447.557405810907
 20
1011.604421185315
 30
0.0
 11
1376.808298465794
 21
1011.604421185315
 31
0.0
  0
LINE
  5
153E
330
1A
100
AcDbEntity
  8
0
100
AcDbLine
 10
1607.306579328859
 20
1011.604421185315
 30
0.0
 11
1527.424557363509
 21
1011.604421185315
 31
0.0
  0
LINE
  5
153F
330
1A
100
AcDbEntity
  8
0
100
AcDbLine
 10
1446.144071524169
 20
1111.604421185315
 30
0.0
 11
1527.714644294901
 21
1111.604421185315
 31
0.0
  0
ARC
  5
1540
330
1A
100
AcDbEntity
  8
0
100
AcDbCircle
 10
1406.50455647878
 20
1184.765678307726
 30
0.0
 40
83.31155886820837
100
AcDbArc
 50
249.1177705838806
 51
298.776418466747
  0
ARC
  5
1541
330
1A
100
AcDbEntity
  8
0
100
AcDbCircle
 10
1566.721331208104
 20
1184.530187880916
 30
0.0
 40
83.07217110933803
100
AcDbArc
 50
241.1868304530556
 51
298.8131695469442
  0
LINE
  5
1542
330
1A
100
AcDbEntity
  8
0
100
AcDbLine
 10
1940.559881257928
 20
1110.520957064114
 30
0.0
 11
1940.559881257928
 21
1044.041052905303
 31
0.0
  0
LINE
  5
1543
330
1A
100
AcDbEntity
  8
0
100
AcDbLine
 10
1926.808298465794
 20
1111.604421185315
 30
0.0
 11
1926.808298465794
 21
1011.604421185315
 31
0.0
  0
LINE
  5
1544
330
1A
100
AcDbEntity
  8
0
100
AcDbLine
 10
1927.05484880352
 20
1111.742690084615
 30
0.0
 11
1846.980738696124
 21
1011.905434886259
 31
0.0
  0
LINE
  5
1545
330
1A
100
AcDbEntity
  8
0
100
AcDbLine
 10
1846.980738696124
 20
1111.742690084615
 30
0.0
 11
1766.906628588727
 21
1011.905434886259
 31
0.0
  0
LINE
  5
1546
330
1A
100
AcDbEntity
  8
0
100
AcDbLine
 10
1766.906628588727
 20
1111.742690084615
 30
0.0
 11
1686.832518481331
 21
1011.905434886259
 31
0.0
  0
ARC
  5
1547
330
1A
100
AcDbEntity
  8
0
100
AcDbCircle
 10
1806.945109875327
 20
938.9100459375232
 30
0.0
 40
83.07217110933803
100
AcDbArc
 50
61.18683045305572
 51
118.8131695469442
  0
LINE
  5
1548
330
1A
100
AcDbEntity
  8
0
100
AcDbLine
 10
1766.957663403029
 20
1011.604421185315
 30
0.0
 11
1687.024717184067
 21
1011.604421185315
 31
0.0
  0
LINE
  5
154A
330
1A
100
AcDbEntity
  8
0
100
AcDbLine
 10
1926.808298465794
 20
1011.604421185315
 30
0.0
 11
1846.979798930262
 21
1011.604421185315
 31
0.0
  0
LINE
  5
154B
330
1A
100
AcDbEntity
  8
0
100
AcDbLine
 10
1766.811007951215
 20
1111.604421185315
 30
0.0
 11
1846.988362442696
 21
1111.604421185315
 31
0.0
  0
ARC
  5
154C
330
1A
100
AcDbEntity
  8
0
100
AcDbCircle
 10
1726.869562478965
 20
1184.530187880916
 30
0.0
 40
83.07217110933803
100
AcDbArc
 50
241.1868304530556
 51
298.8131695469442
  0
ARC
  5
154D
330
1A
100
AcDbEntity
  8
0
100
AcDbCircle
 10
1887.017793749826
 20
1184.530187880916
 30
0.0
 40
83.07217110933803
100
AcDbArc
 50
241.1868304530556
 51
298.8131695469442
  0
LINE
  5
154E
330
1A
100
AcDbEntity
  8
0
100
AcDbLine
 10
1926.785717109023
 20
1111.604421185315
 30
0.0
 11
1926.808298465794
 21
1111.604421185315
 31
0.0
  0
LINE
  5
154F
330
1A
100
AcDbEntity
  8
0
100
AcDbLine
 10
1940.559870201861
 20
1081.821673908912
 30
0.0
 11
1927.05484880352
 21
1081.821673908912
 31
0.0
  0
LINE
  5
1551
330
1A
100
AcDbEntity
  8
0
100
AcDbLine
 10
1366.829543186478
 20
1102.670545212206
 30
0.0
 11
1366.829543186478
 21
989.8106092310726
 31
0.0
  0
LINE
  5
1552
330
1A
100
AcDbEntity
  8
0
100
AcDbLine
 10
1469.041105941056
 20
2581.296309752973
 30
0.0
 11
1469.04034571008
 21
2621.296309752974
 31
0.0
  0
LINE
  5
1555
330
1A
100
AcDbEntity
  8
0
100
AcDbLine
 10
1469.041105941056
 20
2581.296309752973
 30
0.0
 11
1429.041105941056
 21
2581.296309752973
 31
0.0
  0
DIMENSION
  5
1560
330
1A
100
AcDbEntity
  8
QUOTA
100
AcDbDimension
  2
*D6
 10
3128.964818300858
 20
439.4599474377492
 30
0.0
 11
2154.036629002819
 21
466.4599474377491
 31
0.0
 70
    32
  3
BASE
100
AcDbAlignedDimension
 13
1179.108439704781
 23
761.2963101470138
 33
0.0
 14
3128.964818300858
 24
761.2963101470129
 34
0.0
100
AcDbRotatedDimension
  0
LINE
  5
1583
330
1A
100
AcDbEntity
  8
0
100
AcDbLine
 10
654.1044500543812
 20
1075.983649016088
 30
0.0
 11
654.1015072804148
 21
1195.983649016088
 31
0.0
  0
LINE
  5
1584
330
1A
100
AcDbEntity
  8
0
100
AcDbLine
 10
3654.103092739907
 20
1075.983649016088
 30
0.0
 11
3654.101506378339
 21
1196.057218365227
 31
0.0
  0
DIMENSION
  5
1585
330
1A
100
AcDbEntity
  8
QUOTA
100
AcDbDimension
  2
*D7
 10
3654.103092739907
 20
174.8541191764479
 30
0.0
 11
2154.103771397144
 21
201.8541191764479
 31
0.0
 70
    32
  3
BASE
100
AcDbAlignedDimension
 13
654.1044500543812
 23
1075.983649016088
 33
0.0
 14
3654.103092739907
 24
1075.983649016088
 34
0.0
100
AcDbRotatedDimension
  0
DIMENSION
  5
15E3
330
1A
100
AcDbEntity
  8
QUOTA
100
AcDbDimension
  2
*D8
 10
3764.247582115116
 20
2621.18722819437
 30
0.0
 11
3737.247582115116
 21
1691.294148329671
 31
0.0
 70
    32
  3
BASE
100
AcDbAlignedDimension
 13
3129.15883688291
 23
761.4010684649708
 33
0.0
 14
3129.124055668646
 24
2621.18722819437
 34
0.0
 50
90.0
100
AcDbRotatedDimension
  0
LINE
  5
1603
330
1A
100
AcDbEntity
  8
0
100
AcDbLine
 10
3172.307674486139
 20
1922.292969198277
 30
0.0
 11
3129.133801724318
 21
1933.771150622697
 31
0.0
  0
LINE
  5
1604
330
1A
100
AcDbEntity
  8
ASSE
100
AcDbLine
 10
2679.574875014642
 20
2156.764360961085
 30
0.0
 11
3257.216483676831
 21
1999.344549014751
 31
0.0
  0
LINE
  5
1605
330
1A
100
AcDbEntity
  8
0
100
AcDbLine
 10
2967.642139815915
 20
2183.65268869432
 30
0.0
 11
3089.158836882907
 21
2151.346328254387
 31
0.0
  0
LINE
  5
1606
330
1A
100
AcDbEntity
  8
0
100
AcDbLine
 10
2510.892147840916
 20
2030.097341872812
 30
0.0
 11
2620.723111631481
 21
2069.947714939009
 31
0.0
  0
LINE
  5
1607
330
1A
100
AcDbEntity
  8
0
100
AcDbLine
 10
2630.653295971709
 20
2309.460157171135
 30
0.0
 11
2757.255480404479
 21
2275.801771932823
 31
0.0
  0
CIRCLE
  5
1608
330
1A
100
AcDbEntity
  8
0
100
AcDbCircle
 10
2564.075020449161
 20
2187.471087052358
 30
0.0
 40
117.5
  0
LINE
  5
1609
330
1A
100
AcDbEntity
  8
ASSE
100
AcDbLine
 10
2443.660262581603
 20
2219.484486559193
 30
0.0
 11
2829.842964869101
 21
2116.81417147575
 31
0.0
  0
LINE
  5
160A
330
1A
100
AcDbEntity
  8
ASSE
100
AcDbLine
 10
2531.065322102823
 20
2063.308864517796
 30
0.0
 11
2596.055717869198
 21
2307.762839743197
 31
0.0
  0
ARC
  5
160B
330
1A
100
AcDbEntity
  8
0
100
AcDbCircle
 10
2410.718279126
 20
2178.553314390318
 30
0.0
 40
183.4383699856711
100
AcDbArc
 50
77.3825650586221
 51
161.4492946364764
  0
LINE
  5
160C
330
1A
100
AcDbEntity
  8
ASSE
100
AcDbLine
 10
2391.358703843574
 20
2317.041240721455
 30
0.0
 11
2524.898572087251
 21
2303.189555712614
 31
0.0
  0
LINE
  5
160D
330
1A
100
AcDbEntity
  8
0
100
AcDbLine
 10
2630.653295971709
 20
2309.460157171135
 30
0.0
 11
2462.937158973943
 21
2355.899972430185
 31
0.0
  0
CIRCLE
  5
160E
330
1A
100
AcDbEntity
  8
0
100
AcDbCircle
 10
2461.367720193207
 20
2311.00735894905
 30
0.0
 40
45.0
  0
LINE
  5
160F
330
1A
100
AcDbEntity
  8
ASSE
100
AcDbLine
 10
2456.440143051711
 20
2261.710582814621
 30
0.0
 11
2466.481911751009
 21
2358.520210537317
 31
0.0
  0
ARC
  5
1610
330
1A
100
AcDbEntity
  8
0
100
AcDbCircle
 10
2330.905925836378
 20
2166.682308409663
 30
0.0
 40
117.5
100
AcDbArc
 50
282.8056092087135
 51
229.4520898740681
  0
LINE
  5
1611
330
1A
100
AcDbEntity
  8
ASSE
100
AcDbLine
 10
2339.662993855132
 20
2040.988584708908
 30
0.0
 11
2316.691313127257
 21
2292.221392009056
 31
0.0
  0
LINE
  5
1612
330
1A
100
AcDbEntity
  8
ASSE
100
AcDbLine
 10
2197.85058261944
 20
2154.85806305584
 30
0.0
 11
2452.921479929458
 21
2177.697997810826
 31
0.0
  0
LINE
  5
1615
330
1A
100
AcDbEntity
  8
0
100
AcDbLine
 10
2373.920177333653
 20
2058.248045917888
 30
0.0
 11
2510.881735248949
 21
2030.082022140784
 31
0.0
  0
LINE
  5
1619
330
1A
100
AcDbEntity
  8
0
100
AcDbLine
 10
2659.947569346226
 20
2061.246159455651
 30
0.0
 11
2724.300851358069
 21
2284.563070995706
 31
0.0
  0
LINE
  5
161B
330
1A
100
AcDbEntity
  8
0
100
AcDbLine
 10
2967.642139815915
 20
2183.65268869432
 30
0.0
 11
2782.087793166358
 21
2232.984062478717
 31
0.0
  0
LINE
  5
161C
330
1A
100
AcDbEntity
  8
0
100
AcDbLine
 10
2757.255480404479
 20
2275.801771932823
 30
0.0
 11
2782.087793166358
 21
2232.984062478717
 31
0.0
  0
LINE
  5
161D
330
1A
100
AcDbEntity
  8
0
100
AcDbLine
 10
2916.255292123836
 20
1990.366910934365
 30
0.0
 11
2744.230949917476
 21
2036.101205380317
 31
0.0
  0
LINE
  5
161E
330
1A
100
AcDbEntity
  8
0
100
AcDbLine
 10
2744.230949917476
 20
2036.101205380317
 30
0.0
 11
2622.234021802448
 21
2070.795588926535
 31
0.0
  0
LINE
  5
161F
330
1A
100
AcDbEntity
  8
0
100
AcDbLine
 10
3232.759833824015
 20
2113.087106173997
 30
0.0
 11
3172.593439406095
 21
1922.727741415031
 31
0.0
  0
LINE
  5
1627
330
1A
100
AcDbEntity
  8
0
100
AcDbLine
 10
2913.211695757996
 20
1991.176079744922
 30
0.0
 11
2914.165053757866
 21
1197.608489733831
 31
0.0
  0
LINE
  5
1628
330
1A
100
AcDbEntity
  8
0
100
AcDbLine
 10
3089.158836882907
 20
1944.398872194394
 30
0.0
 11
2916.255292123836
 21
1990.366910934365
 31
0.0
  0
LINE
  5
1629
330
1A
100
AcDbEntity
  8
0
100
AcDbLine
 10
3129.12872671955
 20
2140.71995592059
 30
0.0
 11
3232.780081447099
 21
2113.163265303255
 31
0.0
  0
ENDSEC
  0
SECTION
  2
OBJECTS
  0
DICTIONARY
  5
C
330
0
100
AcDbDictionary
  3
ACAD_GROUP
350
D
  3
ACAD_LAYOUT
350
126A
  3
ACAD_MLINESTYLE
350
E
  3
ACAD_PLOTSETTINGS
350
126B
  3
ACAD_PLOTSTYLENAME
350
1268
  3
ACDBHEADERROUNDTRIPXREC
350
1638
  0
DICTIONARY
  5
165A
330
1A
100
AcDbDictionary
280
     1
  3
ACAD_LAYOUTSELFREF
360
165B
  0
DICTIONARY
  5
1658
330
17
100
AcDbDictionary
280
     1
  3
ACAD_LAYOUTSELFREF
360
1659
  0
DICTIONARY
  5
D
102
{ACAD_REACTORS
330
C
102
}
330
C
100
AcDbDictionary
  0
DICTIONARY
  5
126A
102
{ACAD_REACTORS
330
C
102
}
330
C
100
AcDbDictionary
  0
DICTIONARY
  5
E
102
{ACAD_REACTORS
330
C
102
}
330
C
100
AcDbDictionary
  3
STANDARD
350
13
  0
DICTIONARY
  5
126B
102
{ACAD_REACTORS
330
C
102
}
330
C
100
AcDbDictionary
  0
ACDBDICTIONARYWDFLT
  5
1268
102
{ACAD_REACTORS
330
C
102
}
330
C
100
AcDbDictionary
281
     1
  3
Normal
350
1269
100
AcDbDictionaryWithDefault
340
1269
  0
DICTIONARY
  5
1638
102
{ACAD_REACTORS
330
C
102
}
330
C
100
AcDbDictionary
  3
TSTACKALIGN
350
1639
  3
TSTACKSIZE
350
163A
  3
HYPERLINKBASE
350
163B
  3
STYLESHEET
350
163C
  3
LAYOUTDICT
350
163D
  3
PLOTSETDICT
350
163E
  3
PLOTSTYLNAMDICT
350
163F
  3
LWETCUNION
350
1640
  3
INSUNITS
350
1641
  3
CEPSNTYPE
350
1642
  3
FINGERPRINTGUID
350
1643
  3
VERSIONGUID
350
1644
  3
PSVPSCALE
350
1645
  3
PUCSORTHOREF
350
1646
  3
PUCSORTHOVIEW
350
1647
  3
PUCSBASE
350
1648
  3
PUCSORGTOP
350
1649
  3
PUCSORGBOTTOM
350
164A
  3
PUCSORGLEFT
350
164B
  3
PUCSORGRIGHT
350
164C
  3
PUCSORGFRONT
350
164D
  3
PUCSORGBACK
350
164E
  3
UCSORTHOREF
350
164F
  3
UCSORTHOVIEW
350
1650
  3
UCSBASE
350
1651
  3
UCSORGTOP
350
1652
  3
UCSORGBOTTOM
350
1653
  3
UCSORGLEFT
350
1654
  3
UCSORGRIGHT
350
1655
  3
UCSORGFRONT
350
1656
  3
UCSORGBACK
350
1657
  0
XRECORD
  5
165B
102
{ACAD_REACTORS
330
165A
102
}
330
165A
100
AcDbXrecord
340
1A
  0
XRECORD
  5
1659
102
{ACAD_REACTORS
330
1658
102
}
330
1658
100
AcDbXrecord
340
17
  0
MLINESTYLE
  5
13
102
{ACAD_REACTORS
330
E
102
}
330
E
100
AcDbMlineStyle
  2
STANDARD
 70
     0
  3

 62
     0
 51
90.0
 52
90.0
 71
     2
 49
0.5
 62
   256
  6
BYLAYER
 49
-0.5
 62
   256
  6
BYLAYER
  0
ACDBPLACEHOLDER
  5
1269
102
{ACAD_REACTORS
330
1268
102
}
330
1268
100
AcDbPlaceHolder
280
     0
  0
XRECORD
  5
1639
102
{ACAD_REACTORS
330
1638
102
}
330
1638
100
AcDbXrecord
 90
        1
  0
XRECORD
  5
163A
102
{ACAD_REACTORS
330
1638
102
}
330
1638
100
AcDbXrecord
 90
       70
  0
XRECORD
  5
163B
102
{ACAD_REACTORS
330
1638
102
}
330
1638
100
AcDbXrecord
  1

  0
XRECORD
  5
163C
102
{ACAD_REACTORS
330
1638
102
}
330
1638
100
AcDbXrecord
  1
monochrome.ctb
  0
XRECORD
  5
163D
102
{ACAD_REACTORS
330
1638
102
}
330
1638
100
AcDbXrecord
340
126A
  0
XRECORD
  5
163E
102
{ACAD_REACTORS
330
1638
102
}
330
1638
100
AcDbXrecord
340
126B
  0
XRECORD
  5
163F
102
{ACAD_REACTORS
330
1638
102
}
330
1638
100
AcDbXrecord
340
1268
  0
XRECORD
  5
1640
102
{ACAD_REACTORS
330
1638
102
}
330
1638
100
AcDbXrecord
 90
    10781
  0
XRECORD
  5
1641
102
{ACAD_REACTORS
330
1638
102
}
330
1638
100
AcDbXrecord
 90
        0
  0
XRECORD
  5
1642
102
{ACAD_REACTORS
330
1638
102
}
330
1638
100
AcDbXrecord
 90
        0
  0
XRECORD
  5
1643
102
{ACAD_REACTORS
330
1638
102
}
330
1638
100
AcDbXrecord
  1
{3286F831-4758-49BA-A682-AD79E4305410}
  0
XRECORD
  5
1644
102
{ACAD_REACTORS
330
1638
102
}
330
1638
100
AcDbXrecord
  1
{371E7041-F317-4D80-B43D-F7AB12C162F0}
  0
XRECORD
  5
1645
102
{ACAD_REACTORS
330
1638
102
}
330
1638
100
AcDbXrecord
 40
0.0
  0
XRECORD
  5
1646
102
{ACAD_REACTORS
330
1638
102
}
330
1638
100
AcDbXrecord
340
0
  0
XRECORD
  5
1647
102
{ACAD_REACTORS
330
1638
102
}
330
1638
100
AcDbXrecord
 70
     0
  0
XRECORD
  5
1648
102
{ACAD_REACTORS
330
1638
102
}
330
1638
100
AcDbXrecord
340
0
  0
XRECORD
  5
1649
102
{ACAD_REACTORS
330
1638
102
}
330
1638
100
AcDbXrecord
 10
0.0
 20
0.0
 30
0.0
  0
XRECORD
  5
164A
102
{ACAD_REACTORS
330
1638
102
}
330
1638
100
AcDbXrecord
 10
0.0
 20
0.0
 30
0.0
  0
XRECORD
  5
164B
102
{ACAD_REACTORS
330
1638
102
}
330
1638
100
AcDbXrecord
 10
0.0
 20
0.0
 30
0.0
  0
XRECORD
  5
164C
102
{ACAD_REACTORS
330
1638
102
}
330
1638
100
AcDbXrecord
 10
0.0
 20
0.0
 30
0.0
  0
XRECORD
  5
164D
102
{ACAD_REACTORS
330
1638
102
}
330
1638
100
AcDbXrecord
 10
0.0
 20
0.0
 30
0.0
  0
XRECORD
  5
164E
102
{ACAD_REACTORS
330
1638
102
}
330
1638
100
AcDbXrecord
 10
0.0
 20
0.0
 30
0.0
  0
XRECORD
  5
164F
102
{ACAD_REACTORS
330
1638
102
}
330
1638
100
AcDbXrecord
340
0
  0
XRECORD
  5
1650
102
{ACAD_REACTORS
330
1638
102
}
330
1638
100
AcDbXrecord
 70
     0
  0
XRECORD
  5
1651
102
{ACAD_REACTORS
330
1638
102
}
330
1638
100
AcDbXrecord
340
0
  0
XRECORD
  5
1652
102
{ACAD_REACTORS
330
1638
102
}
330
1638
100
AcDbXrecord
 10
0.0
 20
0.0
 30
0.0
  0
XRECORD
  5
1653
102
{ACAD_REACTORS
330
1638
102
}
330
1638
100
AcDbXrecord
 10
0.0
 20
0.0
 30
0.0
  0
XRECORD
  5
1654
102
{ACAD_REACTORS
330
1638
102
}
330
1638
100
AcDbXrecord
 10
0.0
 20
0.0
 30
0.0
  0
XRECORD
  5
1655
102
{ACAD_REACTORS
330
1638
102
}
330
1638
100
AcDbXrecord
 10
0.0
 20
0.0
 30
0.0
  0
XRECORD
  5
1656
102
{ACAD_REACTORS
330
1638
102
}
330
1638
100
AcDbXrecord
 10
0.0
 20
0.0
 30
0.0
  0
XRECORD
  5
1657
102
{ACAD_REACTORS
330
1638
102
}
330
1638
100
AcDbXrecord
 10
0.0
 20
0.0
 30
0.0
  0
ENDSEC
  0
EOF
