  0
SECTION
  2
HEADER
  9
$ACADVER
  1
AC1014
  9
$ACADMAINTVER
 70
     9
  9
$DWGCODEPAGE
  3
ANSI_1252
  9
$INSBASE
 10
0.0
 20
0.0
 30
0.0
  9
$EXTMIN
 10
-475.5899468725681
 20
-86.67821354340416
 30
0.0
  9
$EXTMAX
 10
3829.410053127432
 20
2926.821786456596
 30
0.0
  9
$LIMMIN
 10
0.0
 20
0.0
  9
$LIMMAX
 10
4200.0
 20
2970.0
  9
$ORTHOMODE
 70
     1
  9
$REGENMODE
 70
     1
  9
$FILLMODE
 70
     1
  9
$QTEXTMODE
 70
     0
  9
$MIRRTEXT
 70
     1
  9
$DRAGMODE
 70
     2
  9
$LTSCALE
 40
10.0
  9
$OSMODE
 70
    37
  9
$ATTMODE
 70
     1
  9
$TEXTSIZE
 40
50.0
  9
$TRACEWID
 40
0.05
  9
$TEXTSTYLE
  7
STANDARD
  9
$CLAYER
  8
0
  9
$CELTYPE
  6
BYLAYER
  9
$CECOLOR
 62
   256
  9
$CELTSCALE
 40
1.0
  9
$DELOBJ
 70
     1
  9
$DISPSILH
 70
     0
  9
$DIMSCALE
 40
150.0
  9
$DIMASZ
 40
0.18
  9
$DIMEXO
 40
0.06
  9
$DIMDLI
 40
0.38
  9
$DIMRND
 40
0.0
  9
$DIMDLE
 40
0.0
  9
$DIMEXE
 40
0.18
  9
$DIMTP
 40
0.0
  9
$DIMTM
 40
0.0
  9
$DIMTXT
 40
0.18
  9
$DIMCEN
 40
0.09
  9
$DIMTSZ
 40
0.0
  9
$DIMTOL
 70
     0
  9
$DIMLIM
 70
     0
  9
$DIMTIH
 70
     0
  9
$DIMTOH
 70
     0
  9
$DIMSE1
 70
     0
  9
$DIMSE2
 70
     0
  9
$DIMTAD
 70
     1
  9
$DIMZIN
 70
     0
  9
$DIMBLK
  1

  9
$DIMASO
 70
     1
  9
$DIMSHO
 70
     1
  9
$DIMPOST
  1

  9
$DIMAPOST
  1

  9
$DIMALT
 70
     0
  9
$DIMALTD
 70
     2
  9
$DIMALTF
 40
25.4
  9
$DIMLFAC
 40
1.0
  9
$DIMTOFL
 70
     0
  9
$DIMTVP
 40
0.0
  9
$DIMTIX
 70
     0
  9
$DIMSOXD
 70
     0
  9
$DIMSAH
 70
     0
  9
$DIMBLK1
  1

  9
$DIMBLK2
  1

  9
$DIMSTYLE
  2
BASE
  9
$DIMCLRD
 70
     0
  9
$DIMCLRE
 70
     0
  9
$DIMCLRT
 70
     0
  9
$DIMTFAC
 40
1.0
  9
$DIMGAP
 40
0.09
  9
$DIMJUST
 70
     0
  9
$DIMSD1
 70
     0
  9
$DIMSD2
 70
     0
  9
$DIMTOLJ
 70
     1
  9
$DIMTZIN
 70
     0
  9
$DIMALTZ
 70
     0
  9
$DIMALTTZ
 70
     0
  9
$DIMFIT
 70
     3
  9
$DIMUPT
 70
     0
  9
$DIMUNIT
 70
     2
  9
$DIMDEC
 70
     4
  9
$DIMTDEC
 70
     4
  9
$DIMALTU
 70
     2
  9
$DIMALTTD
 70
     2
  9
$DIMTXSTY
  7
STANDARD
  9
$DIMAUNIT
 70
     0
  9
$LUNITS
 70
     2
  9
$LUPREC
 70
     2
  9
$SKETCHINC
 40
0.1
  9
$FILLETRAD
 40
10.0
  9
$AUNITS
 70
     0
  9
$AUPREC
 70
     0
  9
$MENU
  1
C:\promecad\acad
  9
$ELEVATION
 40
0.0
  9
$PELEVATION
 40
0.0
  9
$THICKNESS
 40
0.0
  9
$LIMCHECK
 70
     0
  9
$BLIPMODE
 70
     0
  9
$CHAMFERA
 40
95.0
  9
$CHAMFERB
 40
95.0
  9
$CHAMFERC
 40
0.0
  9
$CHAMFERD
 40
0.0
  9
$SKPOLY
 70
     0
  9
$TDCREATE
 40
2450589.653282187
  9
$TDUPDATE
 40
2452781.677886771
  9
$TDINDWG
 40
2.7325192245
  9
$TDUSRTIMER
 40
2.7325192245
  9
$USRTIMER
 70
     1
  9
$ANGBASE
 50
0.0
  9
$ANGDIR
 70
     0
  9
$PDMODE
 70
     0
  9
$PDSIZE
 40
0.0
  9
$PLINEWID
 40
0.0
  9
$COORDS
 70
     2
  9
$SPLFRAME
 70
     0
  9
$SPLINETYPE
 70
     6
  9
$SPLINESEGS
 70
     8
  9
$ATTDIA
 70
     0
  9
$ATTREQ
 70
     1
  9
$HANDLING
 70
 10241
  9
$HANDSEED
  5
18B4
  9
$SURFTAB1
 70
     6
  9
$SURFTAB2
 70
     6
  9
$SURFTYPE
 70
     6
  9
$SURFU
 70
     6
  9
$SURFV
 70
     6
  9
$UCSNAME
  2

  9
$UCSORG
 10
0.0
 20
0.0
 30
0.0
  9
$UCSXDIR
 10
1.0
 20
0.0
 30
0.0
  9
$UCSYDIR
 10
0.0
 20
1.0
 30
0.0
  9
$PUCSNAME
  2

  9
$PUCSORG
 10
0.0
 20
0.0
 30
0.0
  9
$PUCSXDIR
 10
1.0
 20
0.0
 30
0.0
  9
$PUCSYDIR
 10
0.0
 20
1.0
 30
0.0
  9
$USERI1
 70
    10
  9
$USERI2
 70
     1
  9
$USERI3
 70
     0
  9
$USERI4
 70
     2
  9
$USERI5
 70
     0
  9
$USERR1
 40
0.0
  9
$USERR2
 40
0.0
  9
$USERR3
 40
0.0
  9
$USERR4
 40
0.0
  9
$USERR5
 40
0.0
  9
$WORLDVIEW
 70
     1
  9
$SHADEDGE
 70
     3
  9
$SHADEDIF
 70
    70
  9
$TILEMODE
 70
     1
  9
$MAXACTVP
 70
    16
  9
$PINSBASE
 10
0.0
 20
0.0
 30
0.0
  9
$PLIMCHECK
 70
     0
  9
$PEXTMIN
 10
1.000000000000000E+20
 20
1.000000000000000E+20
 30
1.000000000000000E+20
  9
$PEXTMAX
 10
-1.000000000000000E+20
 20
-1.000000000000000E+20
 30
-1.000000000000000E+20
  9
$PLIMMIN
 10
0.0
 20
0.0
  9
$PLIMMAX
 10
12.0
 20
9.0
  9
$UNITMODE
 70
     0
  9
$VISRETAIN
 70
     0
  9
$PLINEGEN
 70
     0
  9
$PSLTSCALE
 70
     1
  9
$TREEDEPTH
 70
  3020
  9
$PICKSTYLE
 70
     1
  9
$CMLSTYLE
  2
STANDARD
  9
$CMLJUST
 70
     0
  9
$CMLSCALE
 40
1.0
  9
$PROXYGRAPHICS
 70
     1
  9
$MEASUREMENT
 70
     0
  0
ENDSEC
  0
SECTION
  2
CLASSES
  0
CLASS
  1
ACDBDICTIONARYWDFLT
  2
AcDbDictionaryWithDefault
  3
AutoCAD 2000
 90
        0
280
     0
281
     0
  0
CLASS
  1
ACDBPLACEHOLDER
  2
AcDbPlaceHolder
  3
AutoCAD 2000
 90
        0
280
     0
281
     0
  0
CLASS
  1
LAYOUT
  2
AcDbLayout
  3
AutoCAD 2000
 90
        0
280
     0
281
     0
  0
CLASS
  1
LONG_TRANSACTION
  2
AcDbLongTransaction
  3
AutoCAD 2000
 90
        0
280
     0
281
     0
  0
CLASS
  1
LWPOLYLINE
  2
AcDbPolyline
  3
AutoCAD 2000
 90
        0
280
     0
281
     1
  0
CLASS
  1
HATCH
  2
AcDbHatch
  3
AutoCAD 2000
 90
        0
280
     0
281
     1
  0
CLASS
  1
XRECORD
  2
AcDbXrecord
  3
AutoCAD 2000
 90
        0
280
     0
281
     0
  0
CLASS
  1
LONG_TRANSACTION
  2
AcDbLongTransaction
  3
AutoCAD 2000
 90
        0
280
     0
281
     0
  0
CLASS
  1
LWPOLYLINE
  2
AcDbPolyline
  3
AutoCAD 2000
 90
        0
280
     0
281
     1
  0
CLASS
  1
HATCH
  2
AcDbHatch
  3
AutoCAD 2000
 90
        0
280
     0
281
     1
  0
CLASS
  1
XRECORD
  2
AcDbXrecord
  3
AutoCAD 2000
 90
        0
280
     0
281
     0
  0
ENDSEC
  0
SECTION
  2
TABLES
  0
TABLE
  2
VPORT
  5
8
330
0
100
AcDbSymbolTable
 70
     2
  0
VPORT
  5
1891
330
8
100
AcDbSymbolTableRecord
100
AcDbViewportTableRecord
  2
*ACTIVE
 70
     0
 10
0.0
 20
0.0
 11
1.0
 21
1.0
 12
1962.262390825424
 22
1420.080821375647
 13
0.0
 23
0.0
 14
1.0
 24
1.0
 15
0.0
 25
0.0
 16
0.0
 26
0.0
 36
1.0
 17
0.0
 27
0.0
 37
0.0
 40
3048.874341633604
 41
2.015837104072398
 42
50.0
 43
0.0
 44
0.0
 50
0.0
 51
0.0
 71
     0
 72
   100
 73
     1
 74
     0
 75
     0
 76
     0
 77
     0
 78
     0
  0
ENDTAB
  0
TABLE
  2
LTYPE
  5
5
330
0
100
AcDbSymbolTable
 70
     6
  0
LTYPE
  5
14
330
5
100
AcDbSymbolTableRecord
100
AcDbLinetypeTableRecord
  2
BYBLOCK
 70
     0
  3

 72
    65
 73
     0
 40
0.0
  0
LTYPE
  5
15
330
5
100
AcDbSymbolTableRecord
100
AcDbLinetypeTableRecord
  2
BYLAYER
 70
     0
  3

 72
    65
 73
     0
 40
0.0
  0
LTYPE
  5
16
330
5
100
AcDbSymbolTableRecord
100
AcDbLinetypeTableRecord
  2
CONTINUOUS
 70
     0
  3
Solid line
 72
    65
 73
     0
 40
0.0
  0
LTYPE
  5
32
330
5
100
AcDbSymbolTableRecord
100
AcDbLinetypeTableRecord
  2
LIRIF
 70
     0
  3
. . . . . . . . . . . . . . . . . .
 72
    65
 73
     4
 40
0.1
 49
0.0
 74
     0
 49
-0.05
 74
     0
 49
0.0
 74
     0
 49
-0.05
 74
     0
  0
LTYPE
  5
33
330
5
100
AcDbSymbolTableRecord
100
AcDbLinetypeTableRecord
  2
ASSI5
 70
     0
  3
- . - . - . -
 72
    65
 73
     4
 40
10.0
 49
5.0
 74
     0
 49
-2.5
 74
     0
 49
0.0
 74
     0
 49
-2.5
 74
     0
  0
LTYPE
  5
34
330
5
100
AcDbSymbolTableRecord
100
AcDbLinetypeTableRecord
  2
ASSI10
 70
     0
  3
- . - . - . -
 72
    65
 73
     4
 40
20.0
 49
10.0
 74
     0
 49
-5.0
 74
     0
 49
0.0
 74
     0
 49
-5.0
 74
     0
  0
LTYPE
  5
35
330
5
100
AcDbSymbolTableRecord
100
AcDbLinetypeTableRecord
  2
TRATTO
 70
     0
  3
- - - - - - - - -
 72
    65
 73
     2
 40
5.0
 49
2.5
 74
     0
 49
-2.5
 74
     0
  0
LTYPE
  5
36
330
5
100
AcDbSymbolTableRecord
100
AcDbLinetypeTableRecord
  2
TRATTINO
 70
     0
  3
- - - - - - - - -
 72
    65
 73
     2
 40
3.0
 49
2.0
 74
     0
 49
-1.0
 74
     0
  0
ENDTAB
  0
TABLE
  2
LAYER
  5
2
330
0
100
AcDbSymbolTable
 70
    19
  0
LAYER
  5
F
330
2
100
AcDbSymbolTableRecord
100
AcDbLayerTableRecord
  2
0
 70
     0
 62
     7
  6
CONTINUOUS
  0
LAYER
  5
37
330
2
100
AcDbSymbolTableRecord
100
AcDbLayerTableRecord
  2
VITE
 70
     0
 62
    30
  6
CONTINUOUS
  0
LAYER
  5
38
330
2
100
AcDbSymbolTableRecord
100
AcDbLayerTableRecord
  2
FILETTO
 70
     0
 62
     3
  6
CONTINUOUS
  0
LAYER
  5
39
330
2
100
AcDbSymbolTableRecord
100
AcDbLayerTableRecord
  2
ASSE
 70
     0
 62
     1
  6
ASSI5
  0
LAYER
  5
3A
330
2
100
AcDbSymbolTableRecord
100
AcDbLayerTableRecord
  2
NASCOSTO
 70
     0
 62
     6
  6
TRATTINO
  0
LAYER
  5
3B
330
2
100
AcDbSymbolTableRecord
100
AcDbLayerTableRecord
  2
COSTRUZIONE
 70
     0
 62
     7
  6
CONTINUOUS
  0
LAYER
  5
3C
330
2
100
AcDbSymbolTableRecord
100
AcDbLayerTableRecord
  2
CUSCINETTO
 70
     0
 62
   240
  6
CONTINUOUS
  0
LAYER
  5
3D
330
2
100
AcDbSymbolTableRecord
100
AcDbLayerTableRecord
  2
SEZIONE
 70
     0
 62
     4
  6
CONTINUOUS
  0
LAYER
  5
3E
330
2
100
AcDbSymbolTableRecord
100
AcDbLayerTableRecord
  2
SPINA
 70
     0
 62
     7
  6
CONTINUOUS
  0
LAYER
  5
3F
330
2
100
AcDbSymbolTableRecord
100
AcDbLayerTableRecord
  2
SALDATURA
 70
     0
 62
     2
  6
CONTINUOUS
  0
LAYER
  5
40
330
2
100
AcDbSymbolTableRecord
100
AcDbLayerTableRecord
  2
SIMBOLO
 70
     0
 62
     4
  6
CONTINUOUS
  0
LAYER
  5
41
330
2
100
AcDbSymbolTableRecord
100
AcDbLayerTableRecord
  2
BOLLINI
 70
     0
 62
     4
  6
CONTINUOUS
  0
LAYER
  5
42
330
2
100
AcDbSymbolTableRecord
100
AcDbLayerTableRecord
  2
DISTINTA
 70
     0
 62
     7
  6
CONTINUOUS
  0
LAYER
  5
43
330
2
100
AcDbSymbolTableRecord
100
AcDbLayerTableRecord
  2
TESTO
 70
     0
 62
   254
  6
CONTINUOUS
  0
LAYER
  5
44
330
2
100
AcDbSymbolTableRecord
100
AcDbLayerTableRecord
  2
LINEAFIN
 70
     0
 62
     3
  6
CONTINUOUS
  0
LAYER
  5
45
330
2
100
AcDbSymbolTableRecord
100
AcDbLayerTableRecord
  2
SQUADRATURA
 70
     0
 62
     9
  6
CONTINUOUS
  0
LAYER
  5
46
330
2
100
AcDbSymbolTableRecord
100
AcDbLayerTableRecord
  2
CARTIGLIO
 70
     0
 62
     9
  6
CONTINUOUS
  0
LAYER
  5
47
330
2
100
AcDbSymbolTableRecord
100
AcDbLayerTableRecord
  2
QUOTA
 70
     0
 62
     3
  6
CONTINUOUS
  0
LAYER
  5
119
330
2
100
AcDbSymbolTableRecord
100
AcDbLayerTableRecord
  2
DEFPOINTS
 70
     0
 62
     7
  6
CONTINUOUS
  0
ENDTAB
  0
TABLE
  2
STYLE
  5
3
330
0
100
AcDbSymbolTable
 70
     2
  0
STYLE
  5
10
330
3
100
AcDbSymbolTableRecord
100
AcDbTextStyleTableRecord
  2
STANDARD
 70
     0
 40
0.0
 41
1.0
 50
0.0
 71
     0
 42
50.0
  3
txt
  4

  0
STYLE
  5
11FC
330
3
100
AcDbSymbolTableRecord
100
AcDbTextStyleTableRecord
  2
ROMANC
 70
     0
 40
50.0
 41
1.0
 50
0.0
 71
     0
 42
50.0
  3
romanc
  4

  0
ENDTAB
  0
TABLE
  2
VIEW
  5
6
330
0
100
AcDbSymbolTable
 70
     0
  0
ENDTAB
  0
TABLE
  2
UCS
  5
7
330
0
100
AcDbSymbolTable
 70
     0
  0
ENDTAB
  0
TABLE
  2
APPID
  5
9
330
0
100
AcDbSymbolTable
 70
     1
  0
APPID
  5
11
330
9
100
AcDbSymbolTableRecord
100
AcDbRegAppTableRecord
  2
ACAD
 70
     0
  0
ENDTAB
  0
TABLE
  2
DIMSTYLE
  5
A
330
0
100
AcDbSymbolTable
 70
     2
  0
DIMSTYLE
105
1D
330
A
100
AcDbSymbolTableRecord
100
AcDbDimStyleTableRecord
  2
STANDARD
 70
     0
  3

  4

  5

  6

  7

 40
50.0
 41
0.18
 42
0.06
 43
0.38
 44
0.18
 45
0.0
 46
0.0
 47
0.0
 48
0.0
140
0.18
141
0.09
142
0.0
143
25.4
144
1.0
145
0.0
146
1.0
147
0.09
 71
     0
 72
     0
 73
     0
 74
     0
 75
     0
 76
     0
 77
     2
 78
     0
170
     0
171
     2
172
     0
173
     0
174
     0
175
     0
176
     0
177
     0
178
     0
270
     2
271
     4
272
     4
273
     2
274
     2
340
10
275
     0
280
     0
281
     0
282
     0
283
     1
284
     0
285
     0
286
     0
287
     3
288
     0
  0
DIMSTYLE
105
10F
102
{ACAD_REACTORS
330
1129
330
14D0
330
14E8
330
1500
330
151A
330
1532
330
1555
330
158E
102
}
330
A
100
AcDbSymbolTableRecord
100
AcDbDimStyleTableRecord
  2
BASE
 70
     0
  3

  4

  5

  6

  7

 40
150.0
 41
0.18
 42
0.06
 43
0.38
 44
0.18
 45
0.0
 46
0.0
 47
0.0
 48
0.0
140
0.18
141
0.09
142
0.0
143
25.4
144
1.0
145
0.0
146
1.0
147
0.09
 71
     0
 72
     0
 73
     0
 74
     0
 75
     0
 76
     0
 77
     1
 78
     0
170
     0
171
     2
172
     0
173
     0
174
     0
175
     0
176
     0
177
     0
178
     0
270
     2
271
     4
272
     4
273
     2
274
     2
340
10
275
     0
280
     0
281
     0
282
     0
283
     1
284
     0
285
     0
286
     0
287
     3
288
     0
  0
ENDTAB
  0
TABLE
  2
BLOCK_RECORD
  5
1
330
0
100
AcDbSymbolTable
 70
    21
  0
BLOCK_RECORD
  5
1A
102
{ACAD_XDICTIONARY
360
187F
102
}
330
1
100
AcDbSymbolTableRecord
100
AcDbBlockTableRecord
  2
*MODEL_SPACE
  0
BLOCK_RECORD
  5
17
102
{ACAD_XDICTIONARY
360
187D
102
}
330
1
100
AcDbSymbolTableRecord
100
AcDbBlockTableRecord
  2
*PAPER_SPACE
  0
BLOCK_RECORD
  5
28
330
1
100
AcDbSymbolTableRecord
100
AcDbBlockTableRecord
  2
FR0
  0
BLOCK_RECORD
  5
2D
330
1
100
AcDbSymbolTableRecord
100
AcDbBlockTableRecord
  2
FR1
  0
BLOCK_RECORD
  5
111D
330
1
100
AcDbSymbolTableRecord
100
AcDbBlockTableRecord
  2
*D2
  0
BLOCK_RECORD
  5
11FD
330
1
100
AcDbSymbolTableRecord
100
AcDbBlockTableRecord
  2
A$C1
  0
BLOCK_RECORD
  5
121E
330
1
100
AcDbSymbolTableRecord
100
AcDbBlockTableRecord
  2
A$C6
  0
BLOCK_RECORD
  5
1233
330
1
100
AcDbSymbolTableRecord
100
AcDbBlockTableRecord
  2
PRO_INDI
  0
BLOCK_RECORD
  5
1244
330
1
100
AcDbSymbolTableRecord
100
AcDbBlockTableRecord
  2
A$C4
  0
BLOCK_RECORD
  5
1262
330
1
100
AcDbSymbolTableRecord
100
AcDbBlockTableRecord
  2
A$C5
  0
BLOCK_RECORD
  5
13A7
330
1
100
AcDbSymbolTableRecord
100
AcDbBlockTableRecord
  2
A$C7
  0
BLOCK_RECORD
  5
13C5
330
1
100
AcDbSymbolTableRecord
100
AcDbBlockTableRecord
  2
A$C2
  0
BLOCK_RECORD
  5
13E5
330
1
100
AcDbSymbolTableRecord
100
AcDbBlockTableRecord
  2
A$C8
  0
BLOCK_RECORD
  5
1416
330
1
100
AcDbSymbolTableRecord
100
AcDbBlockTableRecord
  2
A$C9
  0
BLOCK_RECORD
  5
14C4
330
1
100
AcDbSymbolTableRecord
100
AcDbBlockTableRecord
  2
*D12
  0
BLOCK_RECORD
  5
14DC
330
1
100
AcDbSymbolTableRecord
100
AcDbBlockTableRecord
  2
*D13
  0
BLOCK_RECORD
  5
14F4
330
1
100
AcDbSymbolTableRecord
100
AcDbBlockTableRecord
  2
*D14
  0
BLOCK_RECORD
  5
150E
330
1
100
AcDbSymbolTableRecord
100
AcDbBlockTableRecord
  2
*D15
  0
BLOCK_RECORD
  5
1526
330
1
100
AcDbSymbolTableRecord
100
AcDbBlockTableRecord
  2
*D16
  0
BLOCK_RECORD
  5
1549
330
1
100
AcDbSymbolTableRecord
100
AcDbBlockTableRecord
  2
*D17
  0
BLOCK_RECORD
  5
1582
330
1
100
AcDbSymbolTableRecord
100
AcDbBlockTableRecord
  2
*D18
  0
BLOCK_RECORD
  5
15A5
330
1
100
AcDbSymbolTableRecord
100
AcDbBlockTableRecord
  2
A$CA
  0
BLOCK_RECORD
  5
164E
330
1
100
AcDbSymbolTableRecord
100
AcDbBlockTableRecord
  2
A$CB
  0
ENDTAB
  0
ENDSEC
  0
SECTION
  2
BLOCKS
  0
BLOCK
  5
1B
330
1A
100
AcDbEntity
  8
0
100
AcDbBlockBegin
  2
*MODEL_SPACE
 70
     0
 10
0.0
 20
0.0
 30
0.0
  3
*MODEL_SPACE
  1

  0
ENDBLK
  5
1C
330
1A
100
AcDbEntity
  8
0
100
AcDbBlockEnd
  0
BLOCK
  5
18
330
17
100
AcDbEntity
 67
     1
  8
0
100
AcDbBlockBegin
  2
*PAPER_SPACE
 70
     0
 10
0.0
 20
0.0
 30
0.0
  3
*PAPER_SPACE
  1

  0
ENDBLK
  5
19
330
17
100
AcDbEntity
 67
     1
  8
0
100
AcDbBlockEnd
  0
BLOCK
  5
2A
330
28
100
AcDbEntity
  8
0
100
AcDbBlockBegin
  2
FR0
 70
     0
 10
0.0
 20
0.0
 30
0.0
  3
FR0
  1

  0
LINE
  5
29
330
28
100
AcDbEntity
  8
0
 62
     0
100
AcDbLine
 10
-1.0
 20
0.0
 30
0.0
 11
0.0
 21
0.0
 31
0.0
  0
ENDBLK
  5
2B
330
28
100
AcDbEntity
  8
0
100
AcDbBlockEnd
  0
BLOCK
  5
2F
330
2D
100
AcDbEntity
  8
0
100
AcDbBlockBegin
  2
FR1
 70
     0
 10
0.0
 20
0.0
 30
0.0
  3
FR1
  1

  0
SOLID
  5
2E
330
2D
100
AcDbEntity
  8
0
  6
BYBLOCK
 62
     0
100
AcDbTrace
 10
-1.0
 20
0.1666666666666572
 30
0.0
 11
-1.0
 21
-0.1666666666666572
 31
0.0
 12
0.0
 22
0.0
 32
0.0
 13
0.0
 23
0.0
 33
0.0
  0
ENDBLK
  5
30
330
2D
100
AcDbEntity
  8
0
100
AcDbBlockEnd
  0
BLOCK
  5
1343
330
111D
100
AcDbEntity
  8
0
100
AcDbBlockBegin
  2
*D2
 70
     1
 10
0.0
 20
0.0
 30
0.0
  3
*D2
  1

  0
LINE
  5
1849
330
111D
100
AcDbEntity
  8
QUOTA
 62
     0
100
AcDbLine
 10
642.8769532890092
 20
655.43046254182
 30
0.0
 11
642.8769532890092
 21
102.4480993532524
 31
0.0
  0
LINE
  5
184A
330
111D
100
AcDbEntity
  8
QUOTA
 62
     0
100
AcDbLine
 10
3641.040442726188
 20
655.4304625418198
 30
0.0
 11
3641.040442726188
 21
102.4480993532524
 31
0.0
  0
LINE
  5
184B
330
111D
100
AcDbEntity
  8
QUOTA
 62
     0
100
AcDbLine
 10
669.876953289009
 20
129.4480993532524
 30
0.0
 11
3614.040442726189
 21
129.4480993532524
 31
0.0
  0
SOLID
  5
184C
330
111D
100
AcDbEntity
  8
QUOTA
 62
     0
100
AcDbTrace
 10
669.876953289009
 20
133.9480993532524
 30
0.0
 11
669.876953289009
 21
124.9480993532524
 31
0.0
 12
642.8769532890092
 22
129.4480993532524
 32
0.0
 13
642.8769532890092
 23
129.4480993532524
 33
0.0
  0
SOLID
  5
184D
330
111D
100
AcDbEntity
  8
QUOTA
 62
     0
100
AcDbTrace
 10
3614.040442726189
 20
133.9480993532524
 30
0.0
 11
3614.040442726189
 21
124.9480993532524
 31
0.0
 12
3641.040442726188
 22
129.4480993532524
 32
0.0
 13
3641.040442726188
 23
129.4480993532524
 33
0.0
  0
MTEXT
  5
184E
330
111D
100
AcDbEntity
  8
QUOTA
 62
     0
100
AcDbMText
 10
2219.48278470854
 20
156.4480993532524
 30
0.0
 40
27.0
 41
0.0
 71
     5
 72
     1
  1
\A1;3000 mm
1001
ACAD
1000
MTEXTBEGIN
1070
    73
1070
     1
1070
    44
1040
1.0
1070
    74
1070
     0
1000
MTEXTEND
1000
MTEXTBEGIN
1070
    73
1070
     1
1070
    44
1040
1.0
1070
    74
1070
     0
1000
MTEXTEND
  0
POINT
  5
184F
330
111D
100
AcDbEntity
  8
DEFPOINTS
 62
     0
100
AcDbPoint
 10
642.8769532890092
 20
664.43046254182
 30
0.0
  0
POINT
  5
1850
330
111D
100
AcDbEntity
  8
DEFPOINTS
 62
     0
100
AcDbPoint
 10
3641.040442726188
 20
664.4304625418198
 30
0.0
  0
POINT
  5
1851
330
111D
100
AcDbEntity
  8
DEFPOINTS
 62
     0
100
AcDbPoint
 10
3641.040442726188
 20
129.4480993532524
 30
0.0
  0
ENDBLK
  5
134D
330
111D
100
AcDbEntity
  8
0
100
AcDbBlockEnd
  0
BLOCK
  5
1205
330
11FD
100
AcDbEntity
  8
0
100
AcDbBlockBegin
  2
A$C1
 70
     0
 10
0.0
 20
0.0
 30
0.0
  3
A$C1
  1

  0
TEXT
  5
11FE
330
11FD
100
AcDbEntity
  8
TESTO
100
AcDbText
 10
1.470729106713406
 20
2464.795582031344
 30
0.0
 40
80.0
  1
ETICAP SYSTEM
  7
ROMANC
100
AcDbText
  0
TEXT
  5
11FF
330
11FD
100
AcDbEntity
  8
TESTO
100
AcDbText
 10
1.470729106713406
 20
2374.282013260996
 30
0.0
 40
50.0
  1
Modello PF3 8T P 2S
  7
ROMANC
100
AcDbText
  0
TEXT
  5
1200
330
11FD
100
AcDbEntity
  8
TESTO
100
AcDbText
 10
1.470729106713406
 20
2286.500222664991
 30
0.0
 40
50.0
  1
Lunghezza nastro 2500 mm
  7
ROMANC
100
AcDbText
  0
TEXT
  5
1201
330
11FD
100
AcDbEntity
  8
TESTO
100
AcDbText
 10
1.470729106713406
 20
2202.816070696714
 30
0.0
 40
50.0
  1
Sezione nastro
  7
ROMANC
100
AcDbText
  0
TEXT
  5
1202
330
11FD
100
AcDbEntity
  8
TESTO
100
AcDbText
 10
1.470729106713406
 20
2110.936627156088
 30
0.0
 40
50.0
  1
Altezza 100 mm
  7
ROMANC
100
AcDbText
  0
TEXT
  5
1203
330
11FD
100
AcDbEntity
  8
TESTO
100
AcDbText
 10
1.470729106713406
 20
2009.495995797495
 30
0.0
 40
50.0
  1
Larghezza 120 mm
  7
ROMANC
100
AcDbText
  0
TEXT
  5
1204
330
11FD
100
AcDbEntity
  8
TESTO
100
AcDbText
 10
3120.846323050742
 20
16.3293464585476
 30
0.0
 40
50.0
  1
Quadro Elettrico
  7
ROMANC
100
AcDbText
  0
ENDBLK
  5
1206
330
11FD
100
AcDbEntity
  8
0
100
AcDbBlockEnd
  0
BLOCK
  5
1222
330
121E
100
AcDbEntity
  8
0
100
AcDbBlockBegin
  2
A$C6
 70
     0
 10
0.0
 20
0.0
 30
0.0
  3
A$C6
  1

  0
LINE
  5
121F
330
121E
100
AcDbEntity
  8
0
100
AcDbLine
 10
1.900637218473519
 20
0.8165157741112095
 30
0.0
 11
1700.64860396784
 21
0.8165157741112095
 31
0.0
  0
LINE
  5
1220
330
121E
100
AcDbEntity
  8
0
100
AcDbLine
 10
1.900637218473519
 20
14.30680798376832
 30
0.0
 11
1700.64860396784
 21
14.30680798376832
 31
0.0
  0
TEXT
  5
1221
330
121E
100
AcDbEntity
  8
TESTO
100
AcDbText
 10
8.733529025279011
 20
25.88597534847285
 30
0.0
 40
25.0
  1
DATI NON INPEGNATIVI con la possibilità di modifica da parte del costruttore
  7
ROMANC
100
AcDbText
  0
ENDBLK
  5
1223
330
121E
100
AcDbEntity
  8
0
100
AcDbBlockEnd
  0
BLOCK
  5
123B
330
1233
100
AcDbEntity
  8
0
100
AcDbBlockBegin
  2
PRO_INDI
 70
     0
 10
0.0
 20
0.0
 30
0.0
  3
PRO_INDI
  1

  0
LINE
  5
1234
330
1233
100
AcDbEntity
  8
0
  6
BYBLOCK
 62
     0
100
AcDbLine
 10
-7.5
 20
-2.321428571428895
 30
0.0
 11
-7.5
 21
2.321428571428895
 31
0.0
  0
LINE
  5
1235
330
1233
100
AcDbEntity
  8
0
100
AcDbLine
 10
-2.142857142856655
 20
-1.875
 30
0.0
 11
0.0
 21
0.0
 31
0.0
  0
LINE
  5
1236
330
1233
100
AcDbEntity
  8
0
  6
BYBLOCK
 62
     0
100
AcDbLine
 10
-7.5
 20
-2.321428571428895
 30
0.0
 11
-2.142857142856655
 21
-0.6315667694786953
 31
0.0
  0
LINE
  5
1237
330
1233
100
AcDbEntity
  8
0
100
AcDbLine
 10
-2.142857142856199
 20
-0.6315667694786953
 30
0.0
 11
-2.142857142856655
 21
-1.875
 31
0.0
  0
LINE
  5
1238
330
1233
100
AcDbEntity
  8
0
  6
BYBLOCK
 62
     0
100
AcDbLine
 10
-7.5
 20
2.321428571428895
 30
0.0
 11
-2.14285714285711
 21
0.6315667694786953
 31
0.0
  0
LINE
  5
1239
330
1233
100
AcDbEntity
  8
0
100
AcDbLine
 10
0.0
 20
0.0
 30
0.0
 11
-2.142857142856655
 21
1.875
 31
0.0
  0
LINE
  5
123A
330
1233
100
AcDbEntity
  8
0
100
AcDbLine
 10
-2.142857142856199
 20
0.6315667694780132
 30
0.0
 11
-2.142857142856655
 21
1.875
 31
0.0
  0
ENDBLK
  5
123C
330
1233
100
AcDbEntity
  8
0
100
AcDbBlockEnd
  0
BLOCK
  5
1260
330
1244
100
AcDbEntity
  8
0
100
AcDbBlockBegin
  2
A$C4
 70
     0
 10
0.0
 20
0.0
 30
0.0
  3
A$C4
  1

  0
ARC
  5
1245
330
1244
100
AcDbEntity
  8
COSTRUZIONE
100
AcDbCircle
 10
842.7157828101197
 20
138.7076560940099
 30
0.0
 40
136.1412205861727
100
AcDbArc
 50
250.9763211781736
 51
29.46405252369913
  0
LINE
  5
1246
330
1244
100
AcDbEntity
  8
COSTRUZIONE
100
AcDbLine
 10
961.2491067569344
 20
205.6724457734561
 30
0.0
 11
766.9068505247716
 21
497.6736653826406
 31
0.0
  0
CIRCLE
  5
1247
330
1244
100
AcDbEntity
  8
COSTRUZIONE
100
AcDbCircle
 10
842.7157828101197
 20
138.7076560940099
 30
0.0
 40
119.0943258981544
  0
LINE
  5
1248
330
1244
100
AcDbEntity
  8
ASSE
100
AcDbLine
 10
953.5150107970098
 20
11.66253808547252
 30
0.0
 11
594.6423819474053
 21
419.4211138380437
 31
0.0
  0
LINE
  5
1249
330
1244
100
AcDbEntity
  8
ASSE
100
AcDbLine
 10
724.9525426705372
 20
178.2940745879335
 30
0.0
 11
963.6618086177774
 21
98.05133594585598
 31
0.0
  0
LINE
  5
124A
330
1244
100
AcDbEntity
  8
ASSE
100
AcDbLine
 10
883.7551655110447
 20
260.7932315024313
 30
0.0
 11
802.03326140649
 21
17.68368575744853
 31
0.0
  0
LINE
  5
124B
330
1244
100
AcDbEntity
  8
COSTRUZIONE
100
AcDbLine
 10
554.8300819986804
 20
280.6622790211066
 30
0.0
 11
601.870080376365
 21
425.8064887476538
 31
0.0
  0
LINE
  5
124C
330
1244
100
AcDbEntity
  8
COSTRUZIONE
100
AcDbLine
 10
0.6512154969673249
 20
460.2669151984724
 30
0.0
 11
554.8300819986804
 21
280.6622790211066
 31
0.0
  0
LINE
  5
124D
330
1244
100
AcDbEntity
  8
COSTRUZIONE
100
AcDbLine
 10
441.4108886228109
 20
297.46257317897
 30
0.0
 11
185.4836788416854
 21
383.4931682812233
 31
0.0
  0
LINE
  5
124E
330
1244
100
AcDbEntity
  8
ASSE
100
AcDbLine
 10
725.1849725773801
 20
435.5007850566497
 30
0.0
 11
643.5531937667085
 21
192.6593475929911
 31
0.0
  0
CIRCLE
  5
124F
330
1244
100
AcDbEntity
  8
COSTRUZIONE
100
AcDbCircle
 10
684.9535876430593
 20
315.8188732945244
 30
0.0
 40
117.5
  0
LINE
  5
1250
330
1244
100
AcDbEntity
  8
COSTRUZIONE
100
AcDbLine
 10
799.3476955424255
 20
10.29242563024626
 30
0.0
 11
544.1729831794938
 21
96.07006677439722
 31
0.0
  0
LINE
  5
1251
330
1244
100
AcDbEntity
  8
COSTRUZIONE
100
AcDbLine
 10
544.1729831794938
 20
96.07006677439722
 30
0.0
 11
441.4108886228109
 21
297.46257317897
 31
0.0
  0
CIRCLE
  5
1252
330
1244
100
AcDbEntity
  8
COSTRUZIONE
100
AcDbCircle
 10
843.5211704039996
 20
138.0236920339807
 30
0.0
 40
30.0
  0
CIRCLE
  5
1253
330
1244
100
AcDbEntity
  8
COSTRUZIONE
100
AcDbCircle
 10
684.9535876430593
 20
315.8188732945244
 30
0.0
 40
30.0
  0
LINE
  5
1254
330
1244
100
AcDbEntity
  8
ASSE
100
AcDbLine
 10
552.3591320797216
 20
360.3771145946797
 30
0.0
 11
828.200949925009
 21
267.6521723596883
 31
0.0
  0
LINE
  5
1255
330
1244
100
AcDbEntity
  8
COSTRUZIONE
100
AcDbLine
 10
826.570291646264
 20
167.9902412621154
 30
0.0
 11
821.2224951737471
 21
169.7879169114135
 31
0.0
  0
LINE
  5
1256
330
1244
100
AcDbEntity
  8
COSTRUZIONE
100
AcDbLine
 10
831.0381816704875
 20
366.935968079943
 30
0.0
 11
832.2314058509288
 21
366.5348626780537
 31
0.0
  0
LINE
  5
1257
330
1244
100
AcDbEntity
  8
COSTRUZIONE
100
AcDbLine
 10
601.870080376365
 20
425.8064887476538
 30
0.0
 11
47.69121387465202
 21
605.4111249250195
 31
0.0
  0
LINE
  5
1258
330
1244
100
AcDbEntity
  8
COSTRUZIONE
100
AcDbLine
 10
47.69121387465202
 20
605.4111249250195
 30
0.0
 11
0.6512154969673249
 21
460.2669151984724
 31
0.0
  0
LINE
  5
1259
330
1244
100
AcDbEntity
  8
COSTRUZIONE
100
AcDbLine
 10
185.4836788416854
 20
383.4931682812233
 30
0.0
 11
175.4927785885541
 21
403.6022583053371
 31
0.0
  0
LINE
  5
125A
330
1244
100
AcDbEntity
  8
COSTRUZIONE
100
AcDbLine
 10
624.1097933087639
 20
543.4687919383326
 30
0.0
 11
501.9509370281005
 21
477.5594985805026
 31
0.0
  0
LINE
  5
125B
330
1244
100
AcDbEntity
  8
COSTRUZIONE
100
AcDbLine
 10
501.9509370280999
 20
477.5594985805023
 30
0.0
 11
246.0237272469748
 21
563.5900936827559
 31
0.0
  0
LINE
  5
125C
330
1244
100
AcDbEntity
  8
COSTRUZIONE
100
AcDbLine
 10
246.0237272469748
 20
563.5900936827559
 30
0.0
 11
218.6682423947359
 21
549.9989306710517
 31
0.0
  0
CIRCLE
  5
125D
330
1244
100
AcDbEntity
  8
COSTRUZIONE
100
AcDbCircle
 10
708.1250242453704
 20
477.1416083303225
 30
0.0
 40
20.0
  0
CIRCLE
  5
125E
330
1244
100
AcDbEntity
  8
COSTRUZIONE
100
AcDbCircle
 10
708.1250242453704
 20
477.1416083303225
 30
0.0
 40
45.0
  0
ARC
  5
125F
330
1244
100
AcDbEntity
  8
COSTRUZIONE
100
AcDbCircle
 10
664.7155252884584
 20
424.5540086485257
 30
0.0
 40
125.6564807499745
100
AcDbArc
 50
35.58437420479229
 51
109.6562348015359
  0
ENDBLK
  5
1261
330
1244
100
AcDbEntity
  8
0
100
AcDbBlockEnd
  0
BLOCK
  5
1264
330
1262
100
AcDbEntity
  8
0
100
AcDbBlockBegin
  2
A$C5
 70
     0
 10
0.0
 20
0.0
 30
0.0
  3
A$C5
  1

  0
INSERT
  5
1263
330
1262
100
AcDbEntity
  8
0
100
AcDbBlockReference
  2
A$C4
 10
136.799241187959
 20
991.3150315737803
 30
0.0
 50
261.0660093223855
  0
ENDBLK
  5
1265
330
1262
100
AcDbEntity
  8
0
100
AcDbBlockEnd
  0
BLOCK
  5
13C3
330
13A7
100
AcDbEntity
  8
0
100
AcDbBlockBegin
  2
A$C7
 70
     0
 10
0.0
 20
0.0
 30
0.0
  3
A$C7
  1

  0
LINE
  5
13A8
330
13A7
100
AcDbEntity
  8
0
100
AcDbLine
 10
494.4623113970948
 20
19.75059132179795
 30
0.0
 11
414.529365178133
 21
19.75059132179795
 31
0.0
  0
LINE
  5
13A9
330
13A7
100
AcDbEntity
  8
0
100
AcDbLine
 10
494.4112765827932
 20
119.8888602210987
 30
0.0
 11
414.3371664753969
 21
20.05160502274212
 31
0.0
  0
ARC
  5
13AA
330
13A7
100
AcDbEntity
  8
0
100
AcDbCircle
 10
454.3742104730314
 20
192.6763580173998
 30
0.0
 40
83.07217110933803
100
AcDbArc
 50
241.1868304530405
 51
298.8131695469556
  0
LINE
  5
13AB
330
13A7
100
AcDbEntity
  8
0
100
AcDbLine
 10
175.0620538049726
 20
19.75059132179808
 30
0.0
 11
104.3129464598597
 21
19.75059132179795
 31
0.0
  0
LINE
  5
13AC
330
13A7
100
AcDbEntity
  8
0
100
AcDbLine
 10
103.9867477232593
 20
119.7505913217979
 30
0.0
 11
255.2192922889672
 21
119.7505913217979
 31
0.0
  0
LINE
  5
13AD
330
13A7
100
AcDbEntity
  8
0
100
AcDbLine
 10
174.8494455989413
 20
119.8888602210987
 30
0.0
 11
104.3254572953184
 21
36.20174924600599
 31
0.0
  0
LINE
  5
13AE
330
13A7
100
AcDbEntity
  8
0
100
AcDbLine
 10
0.0399663743256724
 20
0.8397367987041659
 30
0.0
 11
0.0399663743256724
 21
111.3442571513366
 31
0.0
  0
LINE
  5
13AF
330
13A7
100
AcDbEntity
  8
0
100
AcDbLine
 10
100.8376951718664
 20
110.366341612163
 30
0.0
 11
100.8376951718664
 21
0.8397367987041659
 31
0.0
  0
LINE
  5
13B0
330
13A7
100
AcDbEntity
  8
0
100
AcDbLine
 10
104.3129464598597
 20
19.75059132179795
 30
0.0
 11
104.3129464598597
 21
119.808078981982
 31
0.0
  0
LINE
  5
13B1
330
13A7
100
AcDbEntity
  8
0
100
AcDbLine
 10
100.8376951718664
 20
0.8397367987041659
 30
0.0
 11
0.0399663743256724
 21
0.8397367987041659
 31
0.0
  0
LINE
  5
13B2
330
13A7
100
AcDbEntity
  8
0
100
AcDbLine
 10
0.0399663743256724
 20
111.3442571513366
 30
0.0
 11
100.8376951718664
 21
111.3442571513366
 31
0.0
  0
LINE
  5
13B3
330
13A7
100
AcDbEntity
  8
0
100
AcDbLine
 10
254.9235557063375
 20
119.1547627564055
 30
0.0
 11
174.8494455989413
 21
20.05160502274212
 31
0.0
  0
LINE
  5
13B4
330
13A7
100
AcDbEntity
  8
0
100
AcDbLine
 10
334.2630453119318
 20
119.8888602210987
 30
0.0
 11
254.9235557063375
 21
20.78570248743619
 31
0.0
  0
LINE
  5
13B5
330
13A7
100
AcDbEntity
  8
0
100
AcDbLine
 10
414.3371664753969
 20
119.8888602210987
 30
0.0
 11
334.2630453119318
 21
19.31750755804807
 31
0.0
  0
LINE
  5
13B6
330
13A7
100
AcDbEntity
  8
0
100
AcDbLine
 10
334.8112273229244
 20
19.75059132179795
 30
0.0
 11
254.9292053575745
 21
19.75059132179808
 31
0.0
  0
ARC
  5
13B7
330
13A7
100
AcDbEntity
  8
0
100
AcDbCircle
 10
214.7374758991823
 20
-52.89518399826227
 30
0.0
 40
83.07217110933803
100
AcDbArc
 50
61.18683045304436
 51
118.8131695469593
  0
ARC
  5
13B8
330
13A7
100
AcDbEntity
  8
0
100
AcDbCircle
 10
374.7367045287187
 20
-53.04409102281386
 30
0.0
 40
83.07217110933803
100
AcDbArc
 50
61.18683045304436
 51
118.8131695469593
  0
ARC
  5
13B9
330
13A7
100
AcDbEntity
  8
0
100
AcDbCircle
 10
294.2259792021683
 20
192.6763580173998
 30
0.0
 40
83.07217110933803
100
AcDbArc
 50
241.1868304530405
 51
298.8131695469556
  0
LINE
  5
13BA
330
13A7
100
AcDbEntity
  8
0
100
AcDbLine
 10
334.1721647617388
 20
119.7505913217979
 30
0.0
 11
414.0961402712592
 21
119.7505913217977
 31
0.0
  0
LINE
  5
13BB
330
13A7
100
AcDbEntity
  8
0
100
AcDbLine
 10
574.4853866901896
 20
119.8888602210987
 30
0.0
 11
494.4112765827932
 21
20.05160502274212
 31
0.0
  0
LINE
  5
13BC
330
13A7
100
AcDbEntity
  8
0
100
AcDbLine
 10
654.5594967975858
 20
119.8888602210987
 30
0.0
 11
574.4853866901896
 21
20.05160502274212
 31
0.0
  0
LINE
  5
13BD
330
13A7
100
AcDbEntity
  8
0
100
AcDbLine
 10
654.3129464598597
 20
119.7505913217979
 30
0.0
 11
654.3129464598597
 21
19.75059132179795
 31
0.0
  0
LINE
  5
13BE
330
13A7
100
AcDbEntity
  8
0
100
AcDbLine
 10
654.3129464598597
 20
19.75059132179795
 30
0.0
 11
574.4844469243282
 21
19.75059132179795
 31
0.0
  0
ARC
  5
13BF
330
13A7
100
AcDbEntity
  8
0
100
AcDbCircle
 10
534.4497578693914
 20
-52.9437839259939
 30
0.0
 40
83.07217110933803
100
AcDbArc
 50
61.18683045304436
 51
118.8131695469593
  0
ARC
  5
13C0
330
13A7
100
AcDbEntity
  8
0
100
AcDbCircle
 10
614.5224417438908
 20
192.6763580173998
 30
0.0
 40
83.07217110933803
100
AcDbArc
 50
241.1868304530405
 51
298.8131695469556
  0
LINE
  5
13C1
330
13A7
100
AcDbEntity
  8
0
100
AcDbLine
 10
494.3156559452808
 20
119.7505913217979
 30
0.0
 11
574.4930104367624
 21
119.7505913217979
 31
0.0
  0
LINE
  5
13C2
330
13A7
100
AcDbEntity
  8
0
100
AcDbLine
 10
654.2903651030892
 20
119.7505913217979
 30
0.0
 11
654.3129464598597
 21
119.7505913217979
 31
0.0
  0
ENDBLK
  5
13C4
330
13A7
100
AcDbEntity
  8
0
100
AcDbBlockEnd
  0
BLOCK
  5
13C7
330
13C5
100
AcDbEntity
  8
0
100
AcDbBlockBegin
  2
A$C2
 70
     0
 10
0.0
 20
0.0
 30
0.0
  3
A$C2
  1

  0
INSERT
  5
13C6
330
13C5
100
AcDbEntity
  8
0
100
AcDbBlockReference
  2
A$C7
 10
0.2664833419501065
 20
-0.8209438209537438
 30
0.0
  0
ENDBLK
  5
13C8
330
13C5
100
AcDbEntity
  8
0
100
AcDbBlockEnd
  0
BLOCK
  5
1414
330
13E5
100
AcDbEntity
  8
0
100
AcDbBlockBegin
  2
A$C8
 70
     0
 10
0.0
 20
0.0
 30
0.0
  3
A$C8
  1

  0
LINE
  5
13E6
330
13E5
100
AcDbEntity
  8
0
  6
CONTINUOUS
100
AcDbLine
 10
9.179960883188185
 20
1826.5745688006
 30
0.0
 11
206.1021470987891
 21
1826.5745688006
 31
0.0
  0
LINE
  5
13E7
330
13E5
100
AcDbEntity
  8
0
  6
CONTINUOUS
100
AcDbLine
 10
39.24500364972686
 20
1629.257869489111
 30
0.0
 11
39.24500364972686
 21
1656.257869489111
 31
0.0
  0
ARC
  5
13E8
330
13E5
100
AcDbEntity
  8
0
  6
CONTINUOUS
100
AcDbCircle
 10
36.24500364972732
 20
1629.257869489111
 30
0.0
 40
3.000000000000001
100
AcDbArc
 50
270.0
 51
0.0
  0
ARC
  5
13E9
330
13E5
100
AcDbEntity
  8
0
  6
CONTINUOUS
100
AcDbCircle
 10
12.24500364972686
 20
1629.257869489111
 30
0.0
 40
3.000000000000001
100
AcDbArc
 50
180.0
 51
270.0
  0
LINE
  5
13EA
330
13E5
100
AcDbEntity
  8
0
  6
CONTINUOUS
100
AcDbLine
 10
36.24500364972732
 20
1626.257869489111
 30
0.0
 11
12.24500364972686
 21
1626.257869489111
 31
0.0
  0
ARC
  5
13EB
330
13E5
100
AcDbEntity
  8
0
  6
CONTINUOUS
100
AcDbCircle
 10
205.7629459602396
 20
1823.5745688006
 30
0.0
 40
3.000000000000001
100
AcDbArc
 50
0.0
 51
90.00000000000005
  0
LINE
  5
13EC
330
13E5
100
AcDbEntity
  8
0
  6
CONTINUOUS
100
AcDbLine
 10
208.7629459602398
 20
1799.5745688006
 30
0.0
 11
208.7629459602398
 21
1823.5745688006
 31
0.0
  0
LINE
  5
13ED
330
13E5
100
AcDbEntity
  8
0
  6
CONTINUOUS
100
AcDbLine
 10
178.7629459602396
 20
1796.5745688006
 30
0.0
 11
205.7629459602399
 21
1796.5745688006
 31
0.0
  0
ARC
  5
13EE
330
13E5
100
AcDbEntity
  8
0
  6
CONTINUOUS
100
AcDbCircle
 10
205.7629459602399
 20
1799.5745688006
 30
0.0
 40
3.000000000000001
100
AcDbArc
 50
270.0
 51
0.0
  0
LINE
  5
13EF
330
13E5
100
AcDbEntity
  8
0
100
AcDbLine
 10
2062.593654612507
 20
1796.489496758075
 30
0.0
 11
205.6028935269607
 21
1796.489496758075
 31
0.0
  0
LINE
  5
13F0
330
13E5
100
AcDbEntity
  8
0
100
AcDbLine
 10
205.7629459602396
 20
1826.5745688006
 30
0.0
 11
2062.593654612507
 21
1826.5745688006
 31
0.0
  0
LINE
  5
13F1
330
13E5
100
AcDbEntity
  8
0
  6
CONTINUOUS
100
AcDbLine
 10
2.18086594376541
 20
1834.5745688006
 30
0.0
 11
2272.455732588837
 21
1834.5745688006
 31
0.0
  0
LINE
  5
13F2
330
13E5
100
AcDbEntity
  8
0
  6
CONTINUOUS
100
AcDbLine
 10
2262.994588925221
 20
1827.499378508409
 30
0.0
 11
2065.090584657669
 21
1827.499378508409
 31
0.0
  0
ARC
  5
13F3
330
13E5
100
AcDbEntity
  8
0
  6
CONTINUOUS
100
AcDbCircle
 10
2065.77269771451
 20
1824.49937850841
 30
0.0
 40
3.000000000000001
100
AcDbArc
 50
90.00000000000005
 51
180.0
  0
LINE
  5
13F4
330
13E5
100
AcDbEntity
  8
0
  6
CONTINUOUS
100
AcDbLine
 10
2062.77269771451
 20
1824.49937850841
 30
0.0
 11
2062.77269771451
 21
1800.499378508409
 31
0.0
  0
LINE
  5
13F5
330
13E5
100
AcDbEntity
  8
0
  6
CONTINUOUS
100
AcDbLine
 10
2065.77269771451
 20
1797.49937850841
 30
0.0
 11
2092.77269771451
 21
1797.49937850841
 31
0.0
  0
ARC
  5
13F6
330
13E5
100
AcDbEntity
  8
0
  6
CONTINUOUS
100
AcDbCircle
 10
2065.77269771451
 20
1800.499378508409
 30
0.0
 40
3.000000000000001
100
AcDbArc
 50
180.0
 51
270.0
  0
LINE
  5
13F7
330
13E5
100
AcDbEntity
  8
0
  6
CONTINUOUS
100
AcDbLine
 10
2262.994588925221
 20
1629.951329357851
 30
0.0
 11
2262.994588925221
 21
1827.518205592488
 31
0.0
  0
ARC
  5
13F8
330
13E5
100
AcDbEntity
  8
0
  6
CONTINUOUS
100
AcDbCircle
 10
2259.99458892522
 20
1630.221153352806
 30
0.0
 40
3.000000000000001
100
AcDbArc
 50
270.0
 51
0.0
  0
LINE
  5
13F9
330
13E5
100
AcDbEntity
  8
0
  6
CONTINUOUS
100
AcDbLine
 10
2232.994588925222
 20
1630.221153352806
 30
0.0
 11
2232.994588925222
 21
1654.221153352806
 31
0.0
  0
ARC
  5
13FA
330
13E5
100
AcDbEntity
  8
0
  6
CONTINUOUS
100
AcDbCircle
 10
2235.99458892522
 20
1630.221153352806
 30
0.0
 40
3.000000000000001
100
AcDbArc
 50
180.0
 51
270.0
  0
LINE
  5
13FB
330
13E5
100
AcDbEntity
  8
0
  6
CONTINUOUS
100
AcDbLine
 10
2259.99458892522
 20
1627.221153352806
 30
0.0
 11
2235.99458892522
 21
1627.221153352806
 31
0.0
  0
LINE
  5
13FC
330
13E5
100
AcDbEntity
  8
0
100
AcDbLine
 10
2263.92089610153
 20
1625.69695650974
 30
0.0
 11
2263.92089610153
 21
205.2410237599969
 31
0.0
  0
LINE
  5
13FD
330
13E5
100
AcDbEntity
  8
0
100
AcDbLine
 10
2233.854025909204
 20
210.406324792061
 30
0.0
 11
2233.854025909204
 21
1626.912907602322
 31
0.0
  0
LINE
  5
13FE
330
13E5
100
AcDbEntity
  8
0
  6
CONTINUOUS
100
AcDbLine
 10
2263.92089610153
 20
206.7270067599499
 30
0.0
 11
2263.92089610153
 21
9.614582543980645
 31
0.0
  0
LINE
  5
13FF
330
13E5
100
AcDbEntity
  8
0
100
AcDbLine
 10
2263.954806201387
 20
210.4205076008845
 30
0.0
 11
1768.347428529135
 21
210.4205076008845
 31
0.0
  0
LINE
  5
1400
330
13E5
100
AcDbEntity
  8
0
100
AcDbLine
 10
1768.347428529135
 20
210.4205076008845
 30
0.0
 11
1768.347428529135
 21
9.835006308548033
 31
0.0
  0
LINE
  5
1401
330
13E5
100
AcDbEntity
  8
0
100
AcDbLine
 10
2.18086594376541
 20
1834.86878803583
 30
0.0
 11
2.18086594376541
 21
1.616691532570142
 31
0.0
  0
LINE
  5
1402
330
13E5
100
AcDbEntity
  8
0
100
AcDbLine
 10
9.340757437125148
 20
208.1202766779759
 30
0.0
 11
9.340757437125148
 21
1346.705791531992
 31
0.0
  0
LINE
  5
1403
330
13E5
100
AcDbEntity
  8
0
100
AcDbLine
 10
39.36498615384539
 20
1626.226713995534
 30
0.0
 11
39.36498615384539
 21
207.2895537214924
 31
0.0
  0
LINE
  5
1404
330
13E5
100
AcDbEntity
  8
0
  6
CONTINUOUS
100
AcDbLine
 10
9.245003649726868
 20
208.2564531608776
 30
0.0
 11
9.245003649726868
 21
9.669938731461002
 31
0.0
  0
ARC
  5
1405
330
13E5
100
AcDbEntity
  8
0
  6
CONTINUOUS
100
AcDbCircle
 10
36.24500364972732
 20
207.114633956612
 30
0.0
 40
3.000000000000001
100
AcDbArc
 50
0.0
 51
90.00000000000005
  0
ARC
  5
1406
330
13E5
100
AcDbEntity
  8
0
  6
CONTINUOUS
100
AcDbCircle
 10
12.24500364972686
 20
207.114633956612
 30
0.0
 40
3.000000000000001
100
AcDbArc
 50
90.00000000000005
 51
180.0
  0
LINE
  5
1407
330
13E5
100
AcDbEntity
  8
0
  6
CONTINUOUS
100
AcDbLine
 10
36.24500364972732
 20
210.114633956612
 30
0.0
 11
12.24500364972686
 21
210.114633956612
 31
0.0
  0
LINE
  5
1408
330
13E5
100
AcDbEntity
  8
0
  6
CONTINUOUS
100
AcDbLine
 10
39.24500364972686
 20
207.114633956612
 30
0.0
 11
39.24500364972686
 21
180.114633956612
 31
0.0
  0
LINE
  5
1409
330
13E5
100
AcDbEntity
  8
0
  6
CONTINUOUS
100
AcDbLine
 10
9.245003649726868
 20
1345.864044506674
 30
0.0
 11
9.245003649726868
 21
1826.668645807981
 31
0.0
  0
LINE
  5
140A
330
13E5
100
AcDbEntity
  8
0
100
AcDbLine
 10
208.0836516548754
 20
9.68407215011382
 30
0.0
 11
1647.461160483429
 21
9.68407215011382
 31
0.0
  0
LINE
  5
140B
330
13E5
100
AcDbEntity
  8
0
100
AcDbLine
 10
207.4206203873055
 20
39.54951024042009
 30
0.0
 11
1768.382305173878
 21
39.54951024042009
 31
0.0
  0
LINE
  5
140C
330
13E5
100
AcDbEntity
  8
0
  6
CONTINUOUS
100
AcDbLine
 10
2272.361131602139
 20
1.669938731461001
 30
0.0
 11
1.245003649726867
 21
1.669938731461001
 31
0.0
  0
LINE
  5
140D
330
13E5
100
AcDbEntity
  8
0
  6
CONTINUOUS
100
AcDbLine
 10
207.5820891594923
 20
9.669938731461002
 30
0.0
 11
9.131512457697906
 21
9.669938731461002
 31
0.0
  0
ARC
  5
140E
330
13E5
100
AcDbEntity
  8
0
  6
CONTINUOUS
100
AcDbCircle
 10
207.2674191159351
 20
36.669938731461
 30
0.0
 40
3.000000000000001
100
AcDbArc
 50
0.0
 51
90.00000000000005
  0
LINE
  5
140F
330
13E5
100
AcDbEntity
  8
0
  6
CONTINUOUS
100
AcDbLine
 10
210.2674191159353
 20
36.669938731461
 30
0.0
 11
210.2674191159353
 21
12.669938731461
 31
0.0
  0
ARC
  5
1410
330
13E5
100
AcDbEntity
  8
0
  6
CONTINUOUS
100
AcDbCircle
 10
207.2674191159351
 20
12.669938731461
 30
0.0
 40
3.000000000000001
100
AcDbArc
 50
270.0
 51
0.0
  0
LINE
  5
1411
330
13E5
100
AcDbEntity
  8
0
  6
CONTINUOUS
100
AcDbLine
 10
183.267419115935
 20
39.669938731461
 30
0.0
 11
207.2674191159351
 21
39.669938731461
 31
0.0
  0
LINE
  5
1412
330
13E5
100
AcDbEntity
  8
0
  6
CONTINUOUS
100
AcDbLine
 10
2263.656296892973
 20
9.669938731461002
 30
0.0
 11
1647.799771078334
 21
9.669938731461002
 31
0.0
  0
LINE
  5
1413
330
13E5
100
AcDbEntity
  8
0
  6
CONTINUOUS
100
AcDbLine
 10
2271.920896101531
 20
1834.5745688006
 30
0.0
 11
2271.920896101531
 21
1.669938731461001
 31
0.0
  0
ENDBLK
  5
1415
330
13E5
100
AcDbEntity
  8
0
100
AcDbBlockEnd
  0
BLOCK
  5
1447
330
1416
100
AcDbEntity
  8
0
100
AcDbBlockBegin
  2
A$C9
 70
     0
 10
0.0
 20
0.0
 30
0.0
  3
A$C9
  1

  0
LINE
  5
1417
330
1416
100
AcDbEntity
  8
ASSE
100
AcDbLine
 10
1545.63366771029
 20
295.6419907072093
 30
0.0
 11
3.839285571617438
 21
295.6419907072092
 31
0.0
  0
LINE
  5
1418
330
1416
100
AcDbEntity
  8
0
100
AcDbLine
 10
2609.546671024805
 20
1796.489496758075
 30
0.0
 11
752.5559099392588
 21
1796.489496758075
 31
0.0
  0
LINE
  5
1419
330
1416
100
AcDbEntity
  8
0
100
AcDbLine
 10
752.7159623725379
 20
1826.5745688006
 30
0.0
 11
2609.546671024805
 21
1826.5745688006
 31
0.0
  0
LINE
  5
141A
330
1416
100
AcDbEntity
  8
0
  6
CONTINUOUS
100
AcDbLine
 10
549.1338823560636
 20
1834.5745688006
 30
0.0
 11
2819.408749001135
 21
1834.5745688006
 31
0.0
  0
LINE
  5
141B
330
1416
100
AcDbEntity
  8
0
  6
CONTINUOUS
100
AcDbLine
 10
556.1329772954864
 20
1826.5745688006
 30
0.0
 11
753.0551635110874
 21
1826.5745688006
 31
0.0
  0
ARC
  5
141C
330
1416
100
AcDbEntity
  8
0
  6
CONTINUOUS
100
AcDbCircle
 10
752.7159623725379
 20
1823.5745688006
 30
0.0
 40
3.000000000000001
100
AcDbArc
 50
0.0
 51
90.00000000000005
  0
LINE
  5
141D
330
1416
100
AcDbEntity
  8
0
  6
CONTINUOUS
100
AcDbLine
 10
755.7159623725381
 20
1799.5745688006
 30
0.0
 11
755.7159623725381
 21
1823.5745688006
 31
0.0
  0
LINE
  5
141E
330
1416
100
AcDbEntity
  8
0
  6
CONTINUOUS
100
AcDbLine
 10
725.7159623725376
 20
1796.5745688006
 30
0.0
 11
752.7159623725381
 21
1796.5745688006
 31
0.0
  0
ARC
  5
141F
330
1416
100
AcDbEntity
  8
0
  6
CONTINUOUS
100
AcDbCircle
 10
752.7159623725381
 20
1799.5745688006
 30
0.0
 40
3.000000000000001
100
AcDbArc
 50
270.0
 51
0.0
  0
LINE
  5
1420
330
1416
100
AcDbEntity
  8
0
  6
CONTINUOUS
100
AcDbLine
 10
2809.94760533752
 20
1827.499378508409
 30
0.0
 11
2612.043601069967
 21
1827.499378508409
 31
0.0
  0
ARC
  5
1421
330
1416
100
AcDbEntity
  8
0
  6
CONTINUOUS
100
AcDbCircle
 10
2612.725714126808
 20
1824.49937850841
 30
0.0
 40
3.000000000000001
100
AcDbArc
 50
90.00000000000005
 51
180.0
  0
LINE
  5
1422
330
1416
100
AcDbEntity
  8
0
  6
CONTINUOUS
100
AcDbLine
 10
2609.725714126807
 20
1824.49937850841
 30
0.0
 11
2609.725714126807
 21
1800.499378508409
 31
0.0
  0
LINE
  5
1423
330
1416
100
AcDbEntity
  8
0
  6
CONTINUOUS
100
AcDbLine
 10
2612.725714126808
 20
1797.49937850841
 30
0.0
 11
2639.725714126809
 21
1797.49937850841
 31
0.0
  0
ARC
  5
1424
330
1416
100
AcDbEntity
  8
0
  6
CONTINUOUS
100
AcDbCircle
 10
2612.725714126808
 20
1800.499378508409
 30
0.0
 40
3.000000000000001
100
AcDbArc
 50
180.0
 51
270.0
  0
LINE
  5
1425
330
1416
100
AcDbEntity
  8
0
100
AcDbLine
 10
549.1338823560636
 20
1834.86878803583
 30
0.0
 11
549.1338823560636
 21
1.616691532570142
 31
0.0
  0
LINE
  5
1426
330
1416
100
AcDbEntity
  8
0
100
AcDbLine
 10
556.2937738494232
 20
208.1202766779759
 30
0.0
 11
556.2937738494232
 21
1346.705791531992
 31
0.0
  0
LINE
  5
1427
330
1416
100
AcDbEntity
  8
0
100
AcDbLine
 10
586.3180025661436
 20
1626.226713995534
 30
0.0
 11
586.3180025661436
 21
207.2895537214924
 31
0.0
  0
LINE
  5
1428
330
1416
100
AcDbEntity
  8
0
  6
CONTINUOUS
100
AcDbLine
 10
556.1980200620252
 20
208.2564531608776
 30
0.0
 11
556.1980200620252
 21
9.669938731461002
 31
0.0
  0
ARC
  5
1429
330
1416
100
AcDbEntity
  8
0
  6
CONTINUOUS
100
AcDbCircle
 10
583.1980200620255
 20
207.114633956612
 30
0.0
 40
3.000000000000001
100
AcDbArc
 50
0.0
 51
90.00000000000005
  0
ARC
  5
142A
330
1416
100
AcDbEntity
  8
0
  6
CONTINUOUS
100
AcDbCircle
 10
559.1980200620249
 20
207.114633956612
 30
0.0
 40
3.000000000000001
100
AcDbArc
 50
90.00000000000005
 51
180.0
  0
LINE
  5
142B
330
1416
100
AcDbEntity
  8
0
  6
CONTINUOUS
100
AcDbLine
 10
583.1980200620255
 20
210.114633956612
 30
0.0
 11
559.1980200620249
 21
210.114633956612
 31
0.0
  0
LINE
  5
142C
330
1416
100
AcDbEntity
  8
0
  6
CONTINUOUS
100
AcDbLine
 10
586.1980200620251
 20
207.114633956612
 30
0.0
 11
586.1980200620251
 21
180.114633956612
 31
0.0
  0
LINE
  5
142D
330
1416
100
AcDbEntity
  8
0
  6
CONTINUOUS
100
AcDbLine
 10
556.1980200620252
 20
1345.864044506674
 30
0.0
 11
556.1980200620252
 21
1826.668645807981
 31
0.0
  0
LINE
  5
142E
330
1416
100
AcDbEntity
  8
0
  6
CONTINUOUS
100
AcDbLine
 10
586.1980200620251
 20
1629.257869489111
 30
0.0
 11
586.1980200620251
 21
1656.257869489111
 31
0.0
  0
ARC
  5
142F
330
1416
100
AcDbEntity
  8
0
  6
CONTINUOUS
100
AcDbCircle
 10
583.1980200620255
 20
1629.257869489111
 30
0.0
 40
3.000000000000001
100
AcDbArc
 50
270.0
 51
0.0
  0
ARC
  5
1430
330
1416
100
AcDbEntity
  8
0
  6
CONTINUOUS
100
AcDbCircle
 10
559.1980200620249
 20
1629.257869489111
 30
0.0
 40
3.000000000000001
100
AcDbArc
 50
180.0
 51
270.0
  0
LINE
  5
1431
330
1416
100
AcDbEntity
  8
0
  6
CONTINUOUS
100
AcDbLine
 10
583.1980200620255
 20
1626.257869489111
 30
0.0
 11
559.1980200620249
 21
1626.257869489111
 31
0.0
  0
LINE
  5
1432
330
1416
100
AcDbEntity
  8
0
100
AcDbLine
 10
755.0366680671736
 20
9.68407215011382
 30
0.0
 11
2194.414176895727
 21
9.68407215011382
 31
0.0
  0
LINE
  5
1433
330
1416
100
AcDbEntity
  8
0
100
AcDbLine
 10
754.3736367996037
 20
39.54951024042009
 30
0.0
 11
2315.335321586176
 21
39.54951024042009
 31
0.0
  0
LINE
  5
1434
330
1416
100
AcDbEntity
  8
0
  6
CONTINUOUS
100
AcDbLine
 10
2819.314148014438
 20
1.669938731461001
 30
0.0
 11
548.1980200620252
 21
1.669938731461001
 31
0.0
  0
LINE
  5
1435
330
1416
100
AcDbEntity
  8
0
  6
CONTINUOUS
100
AcDbLine
 10
754.5351055717905
 20
9.669938731461002
 30
0.0
 11
556.0845288699961
 21
9.669938731461002
 31
0.0
  0
ARC
  5
1436
330
1416
100
AcDbEntity
  8
0
  6
CONTINUOUS
100
AcDbCircle
 10
754.2204355282332
 20
36.669938731461
 30
0.0
 40
3.000000000000001
100
AcDbArc
 50
0.0
 51
90.00000000000005
  0
LINE
  5
1437
330
1416
100
AcDbEntity
  8
0
  6
CONTINUOUS
100
AcDbLine
 10
757.2204355282337
 20
36.669938731461
 30
0.0
 11
757.2204355282337
 21
12.669938731461
 31
0.0
  0
ARC
  5
1438
330
1416
100
AcDbEntity
  8
0
  6
CONTINUOUS
100
AcDbCircle
 10
754.2204355282332
 20
12.669938731461
 30
0.0
 40
3.000000000000001
100
AcDbArc
 50
270.0
 51
0.0
  0
LINE
  5
1439
330
1416
100
AcDbEntity
  8
0
  6
CONTINUOUS
100
AcDbLine
 10
730.2204355282332
 20
39.669938731461
 30
0.0
 11
754.2204355282332
 21
39.669938731461
 31
0.0
  0
LINE
  5
143A
330
1416
100
AcDbEntity
  8
0
  6
CONTINUOUS
100
AcDbLine
 10
2810.609313305272
 20
9.669938731461002
 30
0.0
 11
2194.752787490631
 21
9.669938731461002
 31
0.0
  0
LINE
  5
143B
330
1416
100
AcDbEntity
  8
0
100
AcDbLine
 10
2315.300444941434
 20
210.4205076008845
 30
0.0
 11
2315.300444941434
 21
9.835006308548033
 31
0.0
  0
LINE
  5
143C
330
1416
100
AcDbEntity
  8
0
100
AcDbLine
 10
2780.9131652927
 20
235.6419907072091
 30
0.0
 11
1898.376950521872
 21
235.6419907072091
 31
0.0
  0
LINE
  5
143D
330
1416
100
AcDbEntity
  8
0
100
AcDbLine
 10
2810.907822613685
 20
210.4205076008845
 30
0.0
 11
2315.300444941434
 21
210.4205076008845
 31
0.0
  0
LINE
  5
143E
330
1416
100
AcDbEntity
  8
0
  6
CONTINUOUS
100
AcDbLine
 10
2818.873912513828
 20
1834.5745688006
 30
0.0
 11
2818.873912513828
 21
1.669938731461001
 31
0.0
  0
LINE
  5
143F
330
1416
100
AcDbEntity
  8
0
100
AcDbLine
 10
2810.873912513828
 20
1625.69695650974
 30
0.0
 11
2810.873912513828
 21
205.2410237599969
 31
0.0
  0
LINE
  5
1440
330
1416
100
AcDbEntity
  8
0
100
AcDbLine
 10
2780.807042321502
 20
210.406324792061
 30
0.0
 11
2780.807042321502
 21
1626.912907602322
 31
0.0
  0
LINE
  5
1441
330
1416
100
AcDbEntity
  8
0
  6
CONTINUOUS
100
AcDbLine
 10
2810.873912513828
 20
206.7270067599499
 30
0.0
 11
2810.873912513828
 21
9.614582543980645
 31
0.0
  0
LINE
  5
1442
330
1416
100
AcDbEntity
  8
0
  6
CONTINUOUS
100
AcDbLine
 10
2809.94760533752
 20
1629.951329357851
 30
0.0
 11
2809.94760533752
 21
1827.518205592488
 31
0.0
  0
ARC
  5
1443
330
1416
100
AcDbEntity
  8
0
  6
CONTINUOUS
100
AcDbCircle
 10
2806.947605337518
 20
1630.221153352806
 30
0.0
 40
3.000000000000001
100
AcDbArc
 50
270.0
 51
0.0
  0
LINE
  5
1444
330
1416
100
AcDbEntity
  8
0
  6
CONTINUOUS
100
AcDbLine
 10
2779.94760533752
 20
1630.221153352806
 30
0.0
 11
2779.94760533752
 21
1654.221153352806
 31
0.0
  0
ARC
  5
1445
330
1416
100
AcDbEntity
  8
0
  6
CONTINUOUS
100
AcDbCircle
 10
2782.94760533752
 20
1630.221153352806
 30
0.0
 40
3.000000000000001
100
AcDbArc
 50
180.0
 51
270.0
  0
LINE
  5
1446
330
1416
100
AcDbEntity
  8
0
  6
CONTINUOUS
100
AcDbLine
 10
2806.947605337518
 20
1627.221153352806
 30
0.0
 11
2782.94760533752
 21
1627.221153352806
 31
0.0
  0
ENDBLK
  5
1448
330
1416
100
AcDbEntity
  8
0
100
AcDbBlockEnd
  0
BLOCK
  5
14D1
330
14C4
100
AcDbEntity
  8
0
100
AcDbBlockBegin
  2
*D12
 70
     1
 10
0.0
 20
0.0
 30
0.0
  3
*D12
  1

  0
LINE
  5
1840
330
14C4
100
AcDbEntity
  8
QUOTA
 62
     0
100
AcDbLine
 10
1198.040562200114
 20
421.8226120781999
 30
0.0
 11
1198.040562200114
 21
210.8538306344907
 31
0.0
  0
LINE
  5
1841
330
14C4
100
AcDbEntity
  8
QUOTA
 62
     0
100
AcDbLine
 10
3107.24146753014
 20
421.8226120781999
 30
0.0
 11
3107.24146753014
 21
210.8538306344907
 31
0.0
  0
LINE
  5
1842
330
14C4
100
AcDbEntity
  8
QUOTA
 62
     0
100
AcDbLine
 10
1225.040562200113
 20
237.8538306344907
 30
0.0
 11
3080.241467530139
 21
237.8538306344907
 31
0.0
  0
SOLID
  5
1843
330
14C4
100
AcDbEntity
  8
QUOTA
 62
     0
100
AcDbTrace
 10
1225.040562200113
 20
242.3538306344908
 30
0.0
 11
1225.040562200113
 21
233.3538306344907
 31
0.0
 12
1198.040562200114
 22
237.8538306344907
 32
0.0
 13
1198.040562200114
 23
237.8538306344907
 33
0.0
  0
SOLID
  5
1844
330
14C4
100
AcDbEntity
  8
QUOTA
 62
     0
100
AcDbTrace
 10
3080.241467530139
 20
242.3538306344908
 30
0.0
 11
3080.241467530139
 21
233.3538306344907
 31
0.0
 12
3107.24146753014
 22
237.8538306344907
 32
0.0
 13
3107.24146753014
 23
237.8538306344907
 33
0.0
  0
MTEXT
  5
1845
330
14C4
100
AcDbEntity
  8
QUOTA
 62
     0
100
AcDbMText
 10
2152.641014865127
 20
264.8538306344907
 30
0.0
 40
27.0
 41
0.0
 71
     5
 72
     1
  1
\A1;1910 mm
1001
ACAD
1000
MTEXTBEGIN
1070
    73
1070
     1
1070
    44
1040
1.0
1070
    74
1070
     0
1000
MTEXTEND
1000
MTEXTBEGIN
1070
    73
1070
     1
1070
    44
1040
1.0
1070
    74
1070
     0
1000
MTEXTEND
  0
POINT
  5
1846
330
14C4
100
AcDbEntity
  8
DEFPOINTS
 62
     0
100
AcDbPoint
 10
1198.040562200114
 20
430.8226120782001
 30
0.0
  0
POINT
  5
1847
330
14C4
100
AcDbEntity
  8
DEFPOINTS
 62
     0
100
AcDbPoint
 10
3107.24146753014
 20
430.8226120782001
 30
0.0
  0
POINT
  5
1848
330
14C4
100
AcDbEntity
  8
DEFPOINTS
 62
     0
100
AcDbPoint
 10
3107.24146753014
 20
237.8538306344907
 30
0.0
  0
ENDBLK
  5
14DB
330
14C4
100
AcDbEntity
  8
0
100
AcDbBlockEnd
  0
BLOCK
  5
14E9
330
14DC
100
AcDbEntity
  8
0
100
AcDbBlockBegin
  2
*D13
 70
     1
 10
0.0
 20
0.0
 30
0.0
  3
*D13
  1

  0
LINE
  5
1852
330
14DC
100
AcDbEntity
  8
QUOTA
 62
     0
100
AcDbLine
 10
3107.227074840591
 20
421.8226120782001
 30
0.0
 11
3107.227074840591
 21
210.8538306344907
 31
0.0
  0
LINE
  5
1853
330
14DC
100
AcDbEntity
  8
QUOTA
 62
     0
100
AcDbLine
 10
3641.497250753006
 20
337.0271833091101
 30
0.0
 11
3641.497250753006
 21
210.8538306344907
 31
0.0
  0
LINE
  5
1854
330
14DC
100
AcDbEntity
  8
QUOTA
 62
     0
100
AcDbLine
 10
3134.227074840592
 20
237.8538306344907
 30
0.0
 11
3614.497250753005
 21
237.8538306344907
 31
0.0
  0
SOLID
  5
1855
330
14DC
100
AcDbEntity
  8
QUOTA
 62
     0
100
AcDbTrace
 10
3134.227074840592
 20
242.3538306344908
 30
0.0
 11
3134.227074840592
 21
233.3538306344907
 31
0.0
 12
3107.227074840591
 22
237.8538306344907
 32
0.0
 13
3107.227074840591
 23
237.8538306344907
 33
0.0
  0
SOLID
  5
1856
330
14DC
100
AcDbEntity
  8
QUOTA
 62
     0
100
AcDbTrace
 10
3614.497250753005
 20
242.3538306344908
 30
0.0
 11
3614.497250753005
 21
233.3538306344907
 31
0.0
 12
3641.497250753006
 22
237.8538306344907
 32
0.0
 13
3641.497250753006
 23
237.8538306344907
 33
0.0
  0
MTEXT
  5
1857
330
14DC
100
AcDbEntity
  8
QUOTA
 62
     0
100
AcDbMText
 10
3374.362162796799
 20
264.8538306344907
 30
0.0
 40
27.0
 41
0.0
 71
     5
 72
     1
  1
\A1;530 mm
1001
ACAD
1000
MTEXTBEGIN
1070
    73
1070
     1
1070
    44
1040
1.0
1070
    74
1070
     0
1000
MTEXTEND
1000
MTEXTBEGIN
1070
    73
1070
     1
1070
    44
1040
1.0
1070
    74
1070
     0
1000
MTEXTEND
  0
POINT
  5
1858
330
14DC
100
AcDbEntity
  8
DEFPOINTS
 62
     0
100
AcDbPoint
 10
3107.227074840591
 20
430.8226120782001
 30
0.0
  0
POINT
  5
1859
330
14DC
100
AcDbEntity
  8
DEFPOINTS
 62
     0
100
AcDbPoint
 10
3641.497250753006
 20
346.0271833091101
 30
0.0
  0
POINT
  5
185A
330
14DC
100
AcDbEntity
  8
DEFPOINTS
 62
     0
100
AcDbPoint
 10
3641.497250753006
 20
237.8538306344907
 30
0.0
  0
ENDBLK
  5
14F3
330
14DC
100
AcDbEntity
  8
0
100
AcDbBlockEnd
  0
BLOCK
  5
1501
330
14F4
100
AcDbEntity
  8
0
100
AcDbBlockBegin
  2
*D14
 70
     1
 10
0.0
 20
0.0
 30
0.0
  3
*D14
  1

  0
LINE
  5
182E
330
14F4
100
AcDbEntity
  8
QUOTA
 62
     0
100
AcDbLine
 10
641.9838121500342
 20
367.2285475724703
 30
0.0
 11
641.9838121500342
 21
210.8538306344907
 31
0.0
  0
LINE
  5
182F
330
14F4
100
AcDbEntity
  8
QUOTA
 62
     0
100
AcDbLine
 10
1198.392877782942
 20
421.8226120781999
 30
0.0
 11
1198.392877782942
 21
210.8538306344907
 31
0.0
  0
LINE
  5
1830
330
14F4
100
AcDbEntity
  8
QUOTA
 62
     0
100
AcDbLine
 10
668.9838121500343
 20
237.8538306344907
 30
0.0
 11
1171.392877782942
 21
237.8538306344907
 31
0.0
  0
SOLID
  5
1831
330
14F4
100
AcDbEntity
  8
QUOTA
 62
     0
100
AcDbTrace
 10
668.9838121500343
 20
242.3538306344908
 30
0.0
 11
668.9838121500343
 21
233.3538306344907
 31
0.0
 12
641.9838121500342
 22
237.8538306344907
 32
0.0
 13
641.9838121500342
 23
237.8538306344907
 33
0.0
  0
SOLID
  5
1832
330
14F4
100
AcDbEntity
  8
QUOTA
 62
     0
100
AcDbTrace
 10
1171.392877782942
 20
242.3538306344908
 30
0.0
 11
1171.392877782942
 21
233.3538306344907
 31
0.0
 12
1198.392877782942
 22
237.8538306344907
 32
0.0
 13
1198.392877782942
 23
237.8538306344907
 33
0.0
  0
MTEXT
  5
1833
330
14F4
100
AcDbEntity
  8
QUOTA
 62
     0
100
AcDbMText
 10
920.1883449664883
 20
264.8538306344907
 30
0.0
 40
27.0
 41
0.0
 71
     5
 72
     1
  1
\A1;560 mm
1001
ACAD
1000
MTEXTBEGIN
1070
    73
1070
     1
1070
    44
1040
1.0
1070
    74
1070
     0
1000
MTEXTEND
1000
MTEXTBEGIN
1070
    73
1070
     1
1070
    44
1040
1.0
1070
    74
1070
     0
1000
MTEXTEND
  0
POINT
  5
1834
330
14F4
100
AcDbEntity
  8
DEFPOINTS
 62
     0
100
AcDbPoint
 10
641.9838121500342
 20
376.2285475724703
 30
0.0
  0
POINT
  5
1835
330
14F4
100
AcDbEntity
  8
DEFPOINTS
 62
     0
100
AcDbPoint
 10
1198.392877782942
 20
430.8226120782001
 30
0.0
  0
POINT
  5
1836
330
14F4
100
AcDbEntity
  8
DEFPOINTS
 62
     0
100
AcDbPoint
 10
1198.392877782942
 20
237.8538306344907
 30
0.0
  0
ENDBLK
  5
150B
330
14F4
100
AcDbEntity
  8
0
100
AcDbBlockEnd
  0
BLOCK
  5
151B
330
150E
100
AcDbEntity
  8
0
100
AcDbBlockBegin
  2
*D15
 70
     1
 10
0.0
 20
0.0
 30
0.0
  3
*D15
  1

  0
LINE
  5
180A
330
150E
100
AcDbEntity
  8
QUOTA
 62
     0
100
AcDbLine
 10
748.2306919366401
 20
2196.542276521801
 30
0.0
 11
748.2306919366401
 21
2458.237884177315
 31
0.0
  0
LINE
  5
180B
330
150E
100
AcDbEntity
  8
QUOTA
 62
     0
100
AcDbLine
 10
3554.766065124409
 20
2199.024200307853
 30
0.0
 11
3554.766065124409
 21
2458.237884177315
 31
0.0
  0
LINE
  5
180C
330
150E
100
AcDbEntity
  8
QUOTA
 62
     0
100
AcDbLine
 10
775.2306919366401
 20
2431.237884177315
 30
0.0
 11
3527.76606512441
 21
2431.237884177315
 31
0.0
  0
SOLID
  5
180D
330
150E
100
AcDbEntity
  8
QUOTA
 62
     0
100
AcDbTrace
 10
775.2306919366401
 20
2435.737884177315
 30
0.0
 11
775.2306919366401
 21
2426.737884177315
 31
0.0
 12
748.2306919366401
 22
2431.237884177315
 32
0.0
 13
748.2306919366401
 23
2431.237884177315
 33
0.0
  0
SOLID
  5
180E
330
150E
100
AcDbEntity
  8
QUOTA
 62
     0
100
AcDbTrace
 10
3527.76606512441
 20
2435.737884177315
 30
0.0
 11
3527.76606512441
 21
2426.737884177315
 31
0.0
 12
3554.766065124409
 22
2431.237884177315
 32
0.0
 13
3554.766065124409
 23
2431.237884177315
 33
0.0
  0
MTEXT
  5
180F
330
150E
100
AcDbEntity
  8
QUOTA
 62
     0
100
AcDbMText
 10
2151.498378530523
 20
2458.237884177315
 30
0.0
 40
27.0
 41
0.0
 71
     5
 72
     1
  1
\A1;2800 mm
1001
ACAD
1000
MTEXTBEGIN
1070
    73
1070
     1
1070
    44
1040
1.0
1070
    74
1070
     0
1000
MTEXTEND
1000
MTEXTBEGIN
1070
    73
1070
     1
1070
    44
1040
1.0
1070
    74
1070
     0
1000
MTEXTEND
  0
POINT
  5
1810
330
150E
100
AcDbEntity
  8
DEFPOINTS
 62
     0
100
AcDbPoint
 10
748.2306919366401
 20
2187.542276521801
 30
0.0
  0
POINT
  5
1811
330
150E
100
AcDbEntity
  8
DEFPOINTS
 62
     0
100
AcDbPoint
 10
3554.766065124409
 20
2190.024200307854
 30
0.0
  0
POINT
  5
1812
330
150E
100
AcDbEntity
  8
DEFPOINTS
 62
     0
100
AcDbPoint
 10
3554.766065124409
 20
2431.237884177315
 30
0.0
  0
ENDBLK
  5
1525
330
150E
100
AcDbEntity
  8
0
100
AcDbBlockEnd
  0
BLOCK
  5
156C
330
1526
100
AcDbEntity
  8
0
100
AcDbBlockBegin
  2
*D16
 70
     1
 10
0.0
 20
0.0
 30
0.0
  3
*D16
  1

  0
LINE
  5
1837
330
1526
100
AcDbEntity
  8
QUOTA
 62
     0
100
AcDbLine
 10
1189.392877782942
 20
430.8226120782001
 30
0.0
 11
524.2048854498931
 21
430.8226120782002
 31
0.0
  0
LINE
  5
1838
330
1526
100
AcDbEntity
  8
QUOTA
 62
     0
100
AcDbLine
 10
567.2418702849189
 20
724.7946640539481
 30
0.0
 11
524.2048854498931
 21
724.7946640539481
 31
0.0
  0
LINE
  5
1839
330
1526
100
AcDbEntity
  8
QUOTA
 62
     0
100
AcDbLine
 10
551.2048854498931
 20
457.8226120782002
 30
0.0
 11
551.2048854498931
 21
697.7946640539482
 31
0.0
  0
SOLID
  5
183A
330
1526
100
AcDbEntity
  8
QUOTA
 62
     0
100
AcDbTrace
 10
546.7048854498931
 20
457.8226120782002
 30
0.0
 11
555.7048854498931
 21
457.8226120782002
 31
0.0
 12
551.2048854498931
 22
430.8226120782002
 32
0.0
 13
551.2048854498931
 23
430.8226120782002
 33
0.0
  0
SOLID
  5
183B
330
1526
100
AcDbEntity
  8
QUOTA
 62
     0
100
AcDbTrace
 10
546.7048854498931
 20
697.7946640539482
 30
0.0
 11
555.7048854498931
 21
697.7946640539482
 31
0.0
 12
551.2048854498931
 22
724.7946640539481
 32
0.0
 13
551.2048854498931
 23
724.7946640539481
 33
0.0
  0
MTEXT
  5
183C
330
1526
100
AcDbEntity
  8
QUOTA
 62
     0
100
AcDbMText
 10
524.204885449893
 20
577.8086380660744
 30
0.0
 40
27.0
 41
0.0
 71
     5
 72
     1
  1
\A1;300 mm
 11
0.0000000000000001
 21
1.0
 31
0.0
1001
ACAD
1000
MTEXTBEGIN
1070
    73
1070
     1
1070
    44
1040
1.0
1070
    74
1070
     0
1000
MTEXTEND
1000
MTEXTBEGIN
1070
    73
1070
     1
1070
    44
1040
1.0
1070
    74
1070
     0
1000
MTEXTEND
  0
POINT
  5
183D
330
1526
100
AcDbEntity
  8
DEFPOINTS
 62
     0
100
AcDbPoint
 10
1198.392877782942
 20
430.8226120782001
 30
0.0
  0
POINT
  5
183E
330
1526
100
AcDbEntity
  8
DEFPOINTS
 62
     0
100
AcDbPoint
 10
576.2418702849189
 20
724.7946640539481
 30
0.0
  0
POINT
  5
183F
330
1526
100
AcDbEntity
  8
DEFPOINTS
 62
     0
100
AcDbPoint
 10
551.2048854498931
 20
724.7946640539481
 30
0.0
  0
ENDBLK
  5
1576
330
1526
100
AcDbEntity
  8
0
100
AcDbBlockEnd
  0
BLOCK
  5
1577
330
1549
100
AcDbEntity
  8
0
100
AcDbBlockBegin
  2
*D17
 70
     1
 10
0.0
 20
0.0
 30
0.0
  3
*D17
  1

  0
LINE
  5
1813
330
1549
100
AcDbEntity
  8
QUOTA
 62
     0
100
AcDbLine
 10
576.2418702849189
 20
724.7946640539481
 30
0.0
 11
524.2048854498931
 21
724.7946640539481
 31
0.0
  0
LINE
  5
1814
330
1549
100
AcDbEntity
  8
QUOTA
 62
     0
100
AcDbLine
 10
739.2306919366401
 20
2187.542276521801
 30
0.0
 11
524.2048854498935
 21
2187.542276521801
 31
0.0
  0
LINE
  5
1815
330
1549
100
AcDbEntity
  8
QUOTA
 62
     0
100
AcDbLine
 10
551.2048854498931
 20
751.7946640539482
 30
0.0
 11
551.2048854498933
 21
2160.5422765218
 31
0.0
  0
SOLID
  5
1816
330
1549
100
AcDbEntity
  8
QUOTA
 62
     0
100
AcDbTrace
 10
546.7048854498931
 20
751.7946640539482
 30
0.0
 11
555.7048854498931
 21
751.7946640539482
 31
0.0
 12
551.2048854498931
 22
724.7946640539481
 32
0.0
 13
551.2048854498931
 23
724.7946640539481
 33
0.0
  0
SOLID
  5
1817
330
1549
100
AcDbEntity
  8
QUOTA
 62
     0
100
AcDbTrace
 10
546.7048854498933
 20
2160.5422765218
 30
0.0
 11
555.7048854498933
 21
2160.5422765218
 31
0.0
 12
551.2048854498933
 22
2187.542276521801
 32
0.0
 13
551.2048854498933
 23
2187.542276521801
 33
0.0
  0
MTEXT
  5
1818
330
1549
100
AcDbEntity
  8
QUOTA
 62
     0
100
AcDbMText
 10
524.2048854498931
 20
1456.168470287874
 30
0.0
 40
27.0
 41
0.0
 71
     5
 72
     1
  1
\A1;1470 mm
 11
0.0000000000000001
 21
1.0
 31
0.0
1001
ACAD
1000
MTEXTBEGIN
1070
    73
1070
     1
1070
    44
1040
1.0
1070
    74
1070
     0
1000
MTEXTEND
1000
MTEXTBEGIN
1070
    73
1070
     1
1070
    44
1040
1.0
1070
    74
1070
     0
1000
MTEXTEND
  0
POINT
  5
1819
330
1549
100
AcDbEntity
  8
DEFPOINTS
 62
     0
100
AcDbPoint
 10
585.2418702849189
 20
724.7946640539481
 30
0.0
  0
POINT
  5
181A
330
1549
100
AcDbEntity
  8
DEFPOINTS
 62
     0
100
AcDbPoint
 10
748.2306919366401
 20
2187.542276521801
 30
0.0
  0
POINT
  5
181B
330
1549
100
AcDbEntity
  8
DEFPOINTS
 62
     0
100
AcDbPoint
 10
551.2048854498933
 20
2187.542276521801
 30
0.0
  0
ENDBLK
  5
1581
330
1549
100
AcDbEntity
  8
0
100
AcDbBlockEnd
  0
BLOCK
  5
1640
330
1582
100
AcDbEntity
  8
0
100
AcDbBlockBegin
  2
*D18
 70
     1
 10
0.0
 20
0.0
 30
0.0
  3
*D18
  1

  0
LINE
  5
1888
330
1582
100
AcDbEntity
  8
QUOTA
 62
     0
100
AcDbLine
 10
542.2048854498934
 20
2187.542276521801
 30
0.0
 11
435.6180109365491
 21
2187.542276521801
 31
0.0
  0
LINE
  5
1889
330
1582
100
AcDbEntity
  8
QUOTA
 62
     0
100
AcDbLine
 10
542.2048854498931
 20
430.8226120782002
 30
0.0
 11
435.6180109365486
 21
430.8226120782002
 31
0.0
  0
LINE
  5
188A
330
1582
100
AcDbEntity
  8
QUOTA
 62
     0
100
AcDbLine
 10
462.618010936549
 20
2160.542276521801
 30
0.0
 11
462.6180109365487
 21
457.8226120782002
 31
0.0
  0
SOLID
  5
188B
330
1582
100
AcDbEntity
  8
QUOTA
 62
     0
100
AcDbTrace
 10
458.1180109365489
 20
2160.542276521801
 30
0.0
 11
467.118010936549
 21
2160.542276521801
 31
0.0
 12
462.618010936549
 22
2187.542276521801
 32
0.0
 13
462.618010936549
 23
2187.542276521801
 33
0.0
  0
SOLID
  5
188C
330
1582
100
AcDbEntity
  8
QUOTA
 62
     0
100
AcDbTrace
 10
458.1180109365487
 20
457.8226120782002
 30
0.0
 11
467.1180109365486
 21
457.8226120782002
 31
0.0
 12
462.6180109365487
 22
430.8226120782002
 32
0.0
 13
462.6180109365487
 23
430.8226120782002
 33
0.0
  0
MTEXT
  5
188D
330
1582
100
AcDbEntity
  8
QUOTA
 62
     0
100
AcDbMText
 10
435.6180109365486
 20
1309.182444300001
 30
0.0
 40
27.0
 41
0.0
 71
     5
 72
     1
  1
\A1;1770 mm
 11
0.0000000000000001
 21
1.0
 31
0.0
1001
ACAD
1000
MTEXTBEGIN
1070
    73
1070
     1
1070
    44
1040
1.0
1070
    74
1070
     0
1000
MTEXTEND
  0
POINT
  5
188E
330
1582
100
AcDbEntity
  8
DEFPOINTS
 62
     0
100
AcDbPoint
 10
551.2048854498933
 20
2187.542276521801
 30
0.0
  0
POINT
  5
188F
330
1582
100
AcDbEntity
  8
DEFPOINTS
 62
     0
100
AcDbPoint
 10
551.2048854498931
 20
430.8226120782002
 30
0.0
  0
POINT
  5
1890
330
1582
100
AcDbEntity
  8
DEFPOINTS
 62
     0
100
AcDbPoint
 10
462.6180109365487
 20
430.8226120782002
 30
0.0
  0
ENDBLK
  5
164A
330
1582
100
AcDbEntity
  8
0
100
AcDbBlockEnd
  0
BLOCK
  5
15F1
330
15A5
100
AcDbEntity
  8
0
100
AcDbBlockBegin
  2
A$CA
 70
     0
 10
0.0
 20
0.0
 30
0.0
  3
A$CA
  1

  0
LINE
  5
15A6
330
15A5
100
AcDbEntity
  8
SQUADRATURA
100
AcDbLine
 10
1218.367212161133
 20
1411.651635460221
 30
0.0
 11
0.5716435107317182
 21
1411.651635460221
 31
0.0
  0
LINE
  5
15A7
330
15A5
100
AcDbEntity
  8
0
100
AcDbLine
 10
3.27438011075739
 20
1299.934346023876
 30
0.0
 11
1200.763750294305
 21
1299.934346023876
 31
0.0
  0
LINE
  5
15A8
330
15A5
100
AcDbEntity
  8
0
100
AcDbLine
 10
3.27438011075739
 20
1288.840150506078
 30
0.0
 11
1200.763750294305
 21
1288.840150506078
 31
0.0
  0
TEXT
  5
15A9
330
15A5
100
AcDbEntity
  8
0
100
AcDbText
 10
0.1681362733625349
 20
1310.528201861787
 30
0.0
 40
80.0
  1
ETICAP SYSTEM 
  7
ROMANC
100
AcDbText
  0
LINE
  5
15AA
330
15A5
100
AcDbEntity
  8
SQUADRATURA
100
AcDbLine
 10
689.8225092209369
 20
1272.472965076997
 30
0.0
 11
1218.367212161133
 21
1272.472965076997
 31
0.0
  0
LINE
  5
15AB
330
15A5
100
AcDbEntity
  8
SQUADRATURA
100
AcDbLine
 10
689.8225092209369
 20
1272.472965076997
 30
0.0
 11
0.5716435107317182
 21
1272.472965076997
 31
0.0
  0
TEXT
  5
15AC
330
15A5
100
AcDbEntity
  8
TESTO
100
AcDbText
 10
1022.877086802562
 20
1309.246355881201
 30
0.0
 40
48.0
  1
canelli
  7
ROMANC
100
AcDbText
  0
LINE
  5
15AD
330
15A5
100
AcDbEntity
  8
0
100
AcDbLine
 10
1218.367212161133
 20
1411.651635460221
 30
0.0
 11
1301.692819340837
 21
1411.651635460221
 31
0.0
  0
LINE
  5
15AE
330
15A5
100
AcDbEntity
  8
0
100
AcDbLine
 10
1218.367212161133
 20
1272.472965076997
 30
0.0
 11
1301.692819340837
 21
1272.472965076997
 31
0.0
  0
LINE
  5
15AF
330
15A5
100
AcDbEntity
  8
0
100
AcDbLine
 10
1200.763750294305
 20
1299.934346023876
 30
0.0
 11
1286.2996844992
 21
1299.934346023876
 31
0.0
  0
LINE
  5
15B0
330
15A5
100
AcDbEntity
  8
0
100
AcDbLine
 10
1200.763750294305
 20
1288.840150506078
 30
0.0
 11
1286.2996844992
 21
1288.840150506078
 31
0.0
  0
LINE
  5
15B1
330
15A5
100
AcDbEntity
  8
SQUADRATURA
100
AcDbLine
 10
1301.746671178275
 20
1272.472965076997
 30
0.0
 11
1301.746671178275
 21
1411.651635460221
 31
0.0
  0
TEXT
  5
15B2
330
15A5
100
AcDbEntity
  8
TESTO
100
AcDbText
 10
6.519184524627235
 20
43.00001662036925
 30
0.0
 40
40.0
  1
CONS. ARIA 200L/H
  7
ROMANC
100
AcDbText
  0
LINE
  5
15B3
330
15A5
100
AcDbEntity
  8
SQUADRATURA
100
AcDbLine
 10
0.5716435107317182
 20
455.244340780406
 30
0.0
 11
0.5716435107317182
 21
0.3918028585153479
 31
0.0
  0
LINE
  5
15B4
330
15A5
100
AcDbEntity
  8
0
100
AcDbLine
 10
707.4200598398436
 20
455.244340780406
 30
0.0
 11
707.4200598398436
 21
0.3918028585153479
 31
0.0
  0
LINE
  5
15B5
330
15A5
100
AcDbEntity
  8
SQUADRATURA
100
AcDbLine
 10
0.8673324121048151
 20
0.3258685351447639
 30
0.0
 11
707.422151520771
 21
0.3258685351447639
 31
0.0
  0
LINE
  5
15B6
330
15A5
100
AcDbEntity
  8
0
100
AcDbLine
 10
0.8673324121048151
 20
16.23879361080297
 30
0.0
 11
651.2260662165655
 21
16.23879361080297
 31
0.0
  0
LINE
  5
15B7
330
15A5
100
AcDbEntity
  8
0
100
AcDbLine
 10
0.8673324121048151
 20
32.08764751169042
 30
0.0
 11
651.2260662165655
 21
32.08764751169042
 31
0.0
  0
LINE
  5
15B8
330
15A5
100
AcDbEntity
  8
SQUADRATURA
100
AcDbLine
 10
707.4200598398436
 20
455.244340780406
 30
0.0
 11
707.4200598398436
 21
1272.472965076997
 31
0.0
  0
LINE
  5
15B9
330
15A5
100
AcDbEntity
  8
SQUADRATURA
100
AcDbLine
 10
0.8673324121048151
 20
128.701584025926
 30
0.0
 11
707.8811763901041
 21
128.701584025926
 31
0.0
  0
LINE
  5
15BA
330
15A5
100
AcDbEntity
  8
0
100
AcDbLine
 10
0.5716435107317466
 20
144.9788615665984
 30
0.0
 11
529.1163464509302
 21
144.9788615665984
 31
0.0
  0
LINE
  5
15BB
330
15A5
100
AcDbEntity
  8
0
100
AcDbLine
 10
0.5716435107317466
 20
159.2428256517528
 30
0.0
 11
529.1163464509302
 21
159.2428256517528
 31
0.0
  0
TEXT
  5
15BC
330
15A5
100
AcDbEntity
  8
TESTO
100
AcDbText
 10
9.69471749511308
 20
166.7567756974534
 30
0.0
 40
40.0
  1
POTENZA 3 KW
  7
ROMANC
100
AcDbText
  0
LINE
  5
15BD
330
15A5
100
AcDbEntity
  8
0
100
AcDbLine
 10
0.5716435107317182
 20
878.9107503172932
 30
0.0
 11
361.2676926428351
 21
878.9107503172932
 31
0.0
  0
LINE
  5
15BE
330
15A5
100
AcDbEntity
  8
0
100
AcDbLine
 10
0.5716435107317182
 20
972.7358096583971
 30
0.0
 11
386.2664250057076
 21
972.7358096583971
 31
0.0
  0
LINE
  5
15BF
330
15A5
100
AcDbEntity
  8
0
100
AcDbLine
 10
0.5716435107317182
 20
866.2316705158177
 30
0.0
 11
361.2676926428351
 21
866.2316705158177
 31
0.0
  0
TEXT
  5
15C0
330
15A5
100
AcDbEntity
  8
TESTO
100
AcDbText
 10
9.694717495113053
 20
885.3126650539232
 30
0.0
 40
40.0
  1
9.000 B/h
  7
ROMANC
100
AcDbText
  0
LINE
  5
15C1
330
15A5
100
AcDbEntity
  8
0
100
AcDbLine
 10
0.5716435107317182
 20
635.8843947722321
 30
0.0
 11
279.1289862100502
 21
635.8843947722321
 31
0.0
  0
LINE
  5
15C2
330
15A5
100
AcDbEntity
  8
0
100
AcDbLine
 10
0.5716435107317182
 20
626.3750835381106
 30
0.0
 11
279.1289862100502
 21
626.3750835381106
 31
0.0
  0
TEXT
  5
15C3
330
15A5
100
AcDbEntity
  8
TESTO
100
AcDbText
 10
6.519184524627262
 20
640.9723927462096
 30
0.0
 40
40.0
  1
3000 mm
  7
ROMANC
100
AcDbText
  0
LINE
  5
15C4
330
15A5
100
AcDbEntity
  8
0
100
AcDbLine
 10
0.5716435107317182
 20
756.0121410116551
 30
0.0
 11
636.2537852465877
 21
756.0121410116551
 31
0.0
  0
LINE
  5
15C5
330
15A5
100
AcDbEntity
  8
0
100
AcDbLine
 10
0.5716435107317182
 20
525.1192766661811
 30
0.0
 11
600.5413117500607
 21
525.1192766661811
 31
0.0
  0
LINE
  5
15C6
330
15A5
100
AcDbEntity
  8
0
100
AcDbLine
 10
0.5716435107317182
 20
404.9844263540293
 30
0.0
 11
529.1163464509302
 21
404.9844263540293
 31
0.0
  0
LINE
  5
15C7
330
15A5
100
AcDbEntity
  8
0
100
AcDbLine
 10
0.5716435107317182
 20
741.7481713944447
 30
0.0
 11
636.2537852465877
 21
741.7481713944447
 31
0.0
  0
LINE
  5
15C8
330
15A5
100
AcDbEntity
  8
0
100
AcDbLine
 10
0.5716435107317182
 20
512.4401968647045
 30
0.0
 11
600.5413117500607
 21
512.4401968647045
 31
0.0
  0
LINE
  5
15C9
330
15A5
100
AcDbEntity
  8
0
100
AcDbLine
 10
0.5716435107317182
 20
390.720462268875
 30
0.0
 11
529.1163464509302
 21
390.720462268875
 31
0.0
  0
TEXT
  5
15CA
330
15A5
100
AcDbEntity
  8
TESTO
100
AcDbText
 10
6.519184524627262
 20
761.5559006310471
 30
0.0
 40
40.0
  1
LUNGHEZZA NASTRO
  7
ROMANC
100
AcDbText
  0
TEXT
  5
15CB
330
15A5
100
AcDbEntity
  8
TESTO
100
AcDbText
 10
3.343660398994898
 20
533.0818842845673
 30
0.0
 40
40.0
  1
DIMENSIONI NASTRO
  7
ROMANC
100
AcDbText
  0
TEXT
  5
15CC
330
15A5
100
AcDbEntity
  8
TESTO
100
AcDbText
 10
9.694717495113053
 20
412.4983763997302
 30
0.0
 40
40.0
  1
ALTEZZA 100 mm
  7
ROMANC
100
AcDbText
  0
LINE
  5
15CD
330
15A5
100
AcDbEntity
  8
SQUADRATURA
100
AcDbLine
 10
0.8673324121047869
 20
957.6809938975324
 30
0.0
 11
707.8811763901041
 21
957.6809938975324
 31
0.0
  0
LINE
  5
15CE
330
15A5
100
AcDbEntity
  8
SQUADRATURA
100
AcDbLine
 10
0.8673324121047869
 20
843.5692535560184
 30
0.0
 11
707.8811763901041
 21
843.5692535560184
 31
0.0
  0
LINE
  5
15CF
330
15A5
100
AcDbEntity
  8
SQUADRATURA
100
AcDbLine
 10
0.8673324121047869
 20
721.5330807320038
 30
0.0
 11
707.8811763901041
 21
721.5330807320038
 31
0.0
  0
LINE
  5
15D0
330
15A5
100
AcDbEntity
  8
SQUADRATURA
100
AcDbLine
 10
0.8673324121047869
 20
613.7608719931432
 30
0.0
 11
707.8811763901041
 21
613.7608719931436
 31
0.0
  0
LINE
  5
15D1
330
15A5
100
AcDbEntity
  8
SQUADRATURA
100
AcDbLine
 10
0.8673324121047869
 20
491.7247047011847
 30
0.0
 11
707.8811763901041
 21
491.7247047011848
 31
0.0
  0
LINE
  5
15D2
330
15A5
100
AcDbEntity
  8
SQUADRATURA
100
AcDbLine
 10
0.8673324121047869
 20
374.4431847282028
 30
0.0
 11
707.8811763901041
 21
374.4431847282028
 31
0.0
  0
LINE
  5
15D3
330
15A5
100
AcDbEntity
  8
0
100
AcDbLine
 10
0.8673324121047869
 20
277.8292482139669
 30
0.0
 11
586.1102197239468
 21
277.8292482139669
 31
0.0
  0
LINE
  5
15D4
330
15A5
100
AcDbEntity
  8
0
100
AcDbLine
 10
0.8673324121047869
 20
261.9803943130796
 30
0.0
 11
586.1102197239468
 21
261.9803943130796
 31
0.0
  0
LINE
  5
15D5
330
15A5
100
AcDbEntity
  8
SQUADRATURA
100
AcDbLine
 10
0.8673324121047869
 20
246.0674692374213
 30
0.0
 11
707.3929533286838
 21
246.0674692374213
 31
0.0
  0
TEXT
  5
15D6
330
15A5
100
AcDbEntity
  8
TESTO
100
AcDbText
 10
6.519184524627262
 20
288.7416173226458
 30
0.0
 40
40.0
  1
LARGHEZZA 120 mm
  7
ROMANC
100
AcDbText
  0
LINE
  5
15D7
330
15A5
100
AcDbEntity
  8
0
100
AcDbLine
 10
529.1163464509302
 20
144.9788615665984
 30
0.0
 11
604.2457401720402
 21
144.9788615665984
 31
0.0
  0
LINE
  5
15D8
330
15A5
100
AcDbEntity
  8
0
100
AcDbLine
 10
529.1163464509302
 20
159.2428256517528
 30
0.0
 11
604.2457401720402
 21
159.2428256517528
 31
0.0
  0
LINE
  5
15D9
330
15A5
100
AcDbEntity
  8
0
100
AcDbLine
 10
586.1102197239468
 20
277.8292482139669
 30
0.0
 11
683.9026296164465
 21
277.8292482139669
 31
0.0
  0
LINE
  5
15DA
330
15A5
100
AcDbEntity
  8
0
100
AcDbLine
 10
586.1102197239468
 20
261.9803943130796
 30
0.0
 11
684.7779783975656
 21
261.9803943130796
 31
0.0
  0
LINE
  5
15DB
330
15A5
100
AcDbEntity
  8
0
100
AcDbLine
 10
529.1163464509302
 20
404.9844263540293
 30
0.0
 11
604.2457401720402
 21
404.9844263540293
 31
0.0
  0
LINE
  5
15DC
330
15A5
100
AcDbEntity
  8
0
100
AcDbLine
 10
529.1163464509302
 20
390.720462268875
 30
0.0
 11
604.2457401720402
 21
390.720462268875
 31
0.0
  0
LINE
  5
15DD
330
15A5
100
AcDbEntity
  8
0
100
AcDbLine
 10
600.5413117500607
 20
512.4401968647045
 30
0.0
 11
641.885808519018
 21
512.4401968647045
 31
0.0
  0
LINE
  5
15DE
330
15A5
100
AcDbEntity
  8
0
100
AcDbLine
 10
279.1289862100502
 20
626.3750835381106
 30
0.0
 11
329.3857098989409
 21
626.3750835381106
 31
0.0
  0
LINE
  5
15DF
330
15A5
100
AcDbEntity
  8
0
100
AcDbLine
 10
279.1289862100502
 20
635.8843947722321
 30
0.0
 11
329.3857098989409
 21
635.8843947722321
 31
0.0
  0
LINE
  5
15E0
330
15A5
100
AcDbEntity
  8
0
100
AcDbLine
 10
361.2676926428351
 20
866.2316705158177
 30
0.0
 11
386.2834868099659
 21
866.2316705158177
 31
0.0
  0
LINE
  5
15E1
330
15A5
100
AcDbEntity
  8
0
100
AcDbLine
 10
361.2676926428351
 20
878.9107503172932
 30
0.0
 11
386.2834868099659
 21
878.9107503172932
 31
0.0
  0
LINE
  5
15E2
330
15A5
100
AcDbEntity
  8
0
100
AcDbLine
 10
386.2664250057076
 20
972.7358096583971
 30
0.0
 11
406.4165441551335
 21
972.7358096583971
 31
0.0
  0
LINE
  5
15E3
330
15A5
100
AcDbEntity
  8
0
100
AcDbLine
 10
600.5413117500607
 20
525.1192766661811
 30
0.0
 11
641.885808519018
 21
525.1192766661811
 31
0.0
  0
LINE
  5
15E4
330
15A5
100
AcDbEntity
  8
0
100
AcDbLine
 10
636.2537852465877
 20
741.7481713944447
 30
0.0
 11
653.2653603632804
 21
741.7481713944447
 31
0.0
  0
LINE
  5
15E5
330
15A5
100
AcDbEntity
  8
0
100
AcDbLine
 10
636.2537852465877
 20
756.0121410116551
 30
0.0
 11
652.3900115821613
 21
756.0121410116551
 31
0.0
  0
LINE
  5
15E6
330
15A5
100
AcDbEntity
  8
0
100
AcDbLine
 10
0.5716435107317182
 20
1193.961914287835
 30
0.0
 11
311.2702187640507
 21
1193.961914287835
 31
0.0
  0
LINE
  5
15E7
330
15A5
100
AcDbEntity
  8
0
100
AcDbLine
 10
0.5716435107317182
 20
1181.282828954302
 30
0.0
 11
311.2702187640507
 21
1181.282828954302
 31
0.0
  0
TEXT
  5
15E8
330
15A5
100
AcDbEntity
  8
TESTO
100
AcDbText
 10
9.694717495113053
 20
1199.464436862107
 30
0.0
 40
40.0
  1
MODELLO
  7
ROMANC
100
AcDbText
  0
LINE
  5
15E9
330
15A5
100
AcDbEntity
  8
0
100
AcDbLine
 10
0.5716435107317182
 20
985.414894991929
 30
0.0
 11
386.2664250057076
 21
985.414894991929
 31
0.0
  0
TEXT
  5
15EA
330
15A5
100
AcDbEntity
  8
TESTO
100
AcDbText
 10
9.694717495113053
 20
993.2031735155652
 30
0.0
 40
40.0
  1
PRODUZIONE
  7
ROMANC
100
AcDbText
  0
TEXT
  5
15EB
330
15A5
100
AcDbEntity
  8
TESTO
100
AcDbText
 10
6.519184524627262
 20
1097.920430784959
 30
0.0
 40
40.0
  1
MO10T 1S 2MD CA
  7
ROMANC
100
AcDbText
  0
LINE
  5
15EC
330
15A5
100
AcDbEntity
  8
SQUADRATURA
100
AcDbLine
 10
0.8673324121047869
 20
1163.716094609074
 30
0.0
 11
707.8811763901041
 21
1163.716094609074
 31
0.0
  0
LINE
  5
15ED
330
15A5
100
AcDbEntity
  8
SQUADRATURA
100
AcDbLine
 10
0.8673324121047869
 20
1059.113659969626
 30
0.0
 11
707.8811763901041
 21
1059.113659969626
 31
0.0
  0
LINE
  5
15EE
330
15A5
100
AcDbEntity
  8
0
100
AcDbLine
 10
0.5716435107317182
 20
1091.666822798229
 30
0.0
 11
623.8601178893397
 21
1091.666822798229
 31
0.0
  0
LINE
  5
15EF
330
15A5
100
AcDbEntity
  8
0
100
AcDbLine
 10
0.5716435107317182
 20
1077.402853181018
 30
0.0
 11
623.8601178893397
 21
1077.402853181018
 31
0.0
  0
LINE
  5
15F0
330
15A5
100
AcDbEntity
  8
0
100
AcDbLine
 10
386.2664250057076
 20
985.414894991929
 30
0.0
 11
406.4165441551335
 21
985.414894991929
 31
0.0
  0
ENDBLK
  5
15F2
330
15A5
100
AcDbEntity
  8
0
100
AcDbBlockEnd
  0
BLOCK
  5
1675
330
164E
100
AcDbEntity
  8
0
100
AcDbBlockBegin
  2
A$CB
 70
     0
 10
0.0
 20
0.0
 30
0.0
  3
A$CB
  1

  0
ARC
  5
164F
330
164E
100
AcDbEntity
  8
0
100
AcDbCircle
 10
428.6205157385142
 20
397.9069179830853
 30
0.0
 40
212.9698396827751
100
AcDbArc
 50
300.892922660554
 51
329.1070773394459
  0
ARC
  5
1650
330
164E
100
AcDbEntity
  8
0
100
AcDbCircle
 10
428.6205157385142
 20
397.9069179830853
 30
0.0
 40
415.6346969033001
100
AcDbArc
 50
287.5980111557378
 51
342.4019888442622
  0
ARC
  5
1651
330
164E
100
AcDbEntity
  8
0
100
AcDbCircle
 10
428.6205157385142
 20
397.9069179830853
 30
0.0
 40
415.6346969033001
100
AcDbArc
 50
197.5980111557378
 51
252.401988844262
  0
ARC
  5
1652
330
164E
100
AcDbEntity
  8
0
100
AcDbCircle
 10
428.6205157385142
 20
397.9069179830853
 30
0.0
 40
212.9698396827751
100
AcDbArc
 50
210.892922660554
 51
239.1070773394459
  0
CIRCLE
  5
1653
330
164E
100
AcDbEntity
  8
COSTRUZIONE
100
AcDbCircle
 10
23.47183686557764
 20
105.5852090618925
 30
0.0
 40
20.0
  0
LINE
  5
1654
330
164E
100
AcDbEntity
  8
ASSE
100
AcDbLine
 10
6.077971486516162
 20
92.94782613760435
 30
0.0
 11
40.86570224463911
 21
118.2225919861807
 31
0.0
  0
LINE
  5
1655
330
164E
100
AcDbEntity
  8
0
100
AcDbLine
 10
51.50106250883482
 20
298.2919883567479
 30
0.0
 11
228.7024955094606
 21
298.2919883567479
 31
0.0
  0
ARC
  5
1656
330
164E
100
AcDbEntity
  8
0
100
AcDbCircle
 10
51.50106250883482
 20
278.2919883567481
 30
0.0
 40
20.0
100
AcDbArc
 50
90.0
 51
197.5980111557376
  0
ARC
  5
1657
330
164E
100
AcDbEntity
  8
0
100
AcDbCircle
 10
228.7024955094606
 20
278.2919883567478
 30
0.0
 40
20.0
100
AcDbArc
 50
30.89292266055426
 51
90.0
  0
LINE
  5
1658
330
164E
100
AcDbEntity
  8
0
100
AcDbLine
 10
329.0055861121768
 20
20.78746475340585
 30
0.0
 11
329.0055861121768
 21
197.9888977540312
 31
0.0
  0
ARC
  5
1659
330
164E
100
AcDbEntity
  8
0
100
AcDbCircle
 10
309.0055861121768
 20
20.78746475340585
 30
0.0
 40
20.0
100
AcDbArc
 50
252.4019888442623
 51
0.0
  0
ARC
  5
165A
330
164E
100
AcDbEntity
  8
0
100
AcDbCircle
 10
309.0055861121768
 20
197.9888977540312
 30
0.0
 40
20.0
100
AcDbArc
 50
0.0
 51
59.10707733944551
  0
LINE
  5
165B
330
164E
100
AcDbEntity
  8
0
100
AcDbLine
 10
528.2354453648516
 20
20.78746475340585
 30
0.0
 11
528.2354453648516
 21
197.9888977540312
 31
0.0
  0
ARC
  5
165C
330
164E
100
AcDbEntity
  8
0
100
AcDbCircle
 10
548.2354453648516
 20
20.78746475340585
 30
0.0
 40
20.0
100
AcDbArc
 50
180.0
 51
287.5980111557375
  0
ARC
  5
165D
330
164E
100
AcDbEntity
  8
0
100
AcDbCircle
 10
548.2354453648516
 20
197.9888977540312
 30
0.0
 40
20.0
100
AcDbArc
 50
120.8929226605545
 51
180.0
  0
CIRCLE
  5
165E
330
164E
100
AcDbEntity
  8
COSTRUZIONE
100
AcDbCircle
 10
832.4888312405251
 20
105.5852090618923
 30
0.0
 40
20.0
  0
LINE
  5
165F
330
164E
100
AcDbEntity
  8
ASSE
100
AcDbLine
 10
849.8826966195863
 20
92.94782613760412
 30
0.0
 11
815.0949658614635
 21
118.2225919861805
 31
0.0
  0
LINE
  5
1660
330
164E
100
AcDbEntity
  8
0
100
AcDbLine
 10
805.7399689681938
 20
298.2919883567479
 30
0.0
 11
628.5385359675682
 21
298.2919883567479
 31
0.0
  0
ARC
  5
1661
330
164E
100
AcDbEntity
  8
0
100
AcDbCircle
 10
628.5385359675682
 20
278.2919883567478
 30
0.0
 40
20.0
100
AcDbArc
 50
90.0
 51
149.1070773394458
  0
ARC
  5
1662
330
164E
100
AcDbEntity
  8
0
100
AcDbCircle
 10
805.7399689681938
 20
278.2919883567481
 30
0.0
 40
20.0
100
AcDbArc
 50
342.4019888442622
 51
90.0
  0
CIRCLE
  5
1663
330
164E
100
AcDbEntity
  8
0
100
AcDbCircle
 10
428.6205157385142
 20
397.9069179830853
 30
0.0
 40
85.8749377549393
  0
ARC
  5
1664
330
164E
100
AcDbEntity
  8
0
100
AcDbCircle
 10
428.6205157385142
 20
397.9069179830853
 30
0.0
 40
212.9698396827751
100
AcDbArc
 50
120.892922660554
 51
149.1070773394459
  0
ARC
  5
1665
330
164E
100
AcDbEntity
  8
0
100
AcDbCircle
 10
428.6205157385142
 20
397.9069179830853
 30
0.0
 40
415.6346969033001
100
AcDbArc
 50
107.5980111557377
 51
162.401988844262
  0
LINE
  5
1666
330
164E
100
AcDbEntity
  8
ASSE
100
AcDbLine
 10
6.077971486516162
 20
706.0078442786537
 30
0.0
 11
40.86570224463911
 21
680.7330784300773
 31
0.0
  0
LINE
  5
1667
330
164E
100
AcDbEntity
  8
0
100
AcDbLine
 10
51.50106250883482
 20
497.5218476094227
 30
0.0
 11
228.7024955094601
 21
497.5218476094227
 31
0.0
  0
ARC
  5
1668
330
164E
100
AcDbEntity
  8
0
100
AcDbCircle
 10
51.50106250883482
 20
517.5218476094229
 30
0.0
 40
20.0
100
AcDbArc
 50
162.4019888442623
 51
270.0
  0
ARC
  5
1669
330
164E
100
AcDbEntity
  8
0
100
AcDbCircle
 10
228.7024955094601
 20
517.5218476094228
 30
0.0
 40
20.0
100
AcDbArc
 50
270.0
 51
329.1070773394458
  0
LINE
  5
166A
330
164E
100
AcDbEntity
  8
0
100
AcDbLine
 10
329.0055861121768
 20
775.0263712127647
 30
0.0
 11
329.0055861121768
 21
597.8249382121391
 31
0.0
  0
ARC
  5
166B
330
164E
100
AcDbEntity
  8
0
100
AcDbCircle
 10
309.0055861121768
 20
597.8249382121391
 30
0.0
 40
20.0
100
AcDbArc
 50
300.8929226605545
 51
0.0
  0
ARC
  5
166C
330
164E
100
AcDbEntity
  8
0
100
AcDbCircle
 10
309.0055861121768
 20
775.0263712127647
 30
0.0
 40
20.0
100
AcDbArc
 50
0.0
 51
107.5980111557375
  0
ARC
  5
166D
330
164E
100
AcDbEntity
  8
0
100
AcDbCircle
 10
428.6205157385142
 20
397.9069179830853
 30
0.0
 40
212.9698396827751
100
AcDbArc
 50
30.8929226605541
 51
59.1070773394459
  0
ARC
  5
166E
330
164E
100
AcDbEntity
  8
0
100
AcDbCircle
 10
428.6205157385142
 20
397.9069179830853
 30
0.0
 40
415.6346969033001
100
AcDbArc
 50
17.59801115573786
 51
72.40198884426217
  0
LINE
  5
166F
330
164E
100
AcDbEntity
  8
0
100
AcDbLine
 10
528.2354453648516
 20
775.0263712127647
 30
0.0
 11
528.2354453648516
 21
597.8249382121391
 31
0.0
  0
ARC
  5
1670
330
164E
100
AcDbEntity
  8
0
100
AcDbCircle
 10
548.2354453648516
 20
597.8249382121391
 30
0.0
 40
20.0
100
AcDbArc
 50
180.0
 51
239.1070773394454
  0
ARC
  5
1671
330
164E
100
AcDbEntity
  8
0
100
AcDbCircle
 10
548.2354453648516
 20
775.0263712127647
 30
0.0
 40
20.0
100
AcDbArc
 50
72.40198884426234
 51
180.0
  0
LINE
  5
1672
330
164E
100
AcDbEntity
  8
0
100
AcDbLine
 10
805.7399689681938
 20
497.5218476094227
 30
0.0
 11
628.5385359675682
 21
497.5218476094227
 31
0.0
  0
ARC
  5
1673
330
164E
100
AcDbEntity
  8
0
100
AcDbCircle
 10
628.5385359675682
 20
517.5218476094228
 30
0.0
 40
20.0
100
AcDbArc
 50
210.892922660554
 51
270.0
  0
ARC
  5
1674
330
164E
100
AcDbEntity
  8
0
100
AcDbCircle
 10
805.7399689681938
 20
517.5218476094229
 30
0.0
 40
20.0
100
AcDbArc
 50
270.0
 51
17.59801115573766
  0
ENDBLK
  5
1676
330
164E
100
AcDbEntity
  8
0
100
AcDbBlockEnd
  0
ENDSEC
  0
SECTION
  2
ENTITIES
  0
LWPOLYLINE
  5
48
330
1A
100
AcDbEntity
  8
SQUADRATURA
 62
     0
100
AcDbPolyline
 90
        4
 70
     1
 43
0.0
 10
-475.5899468725681
 20
-86.67821354340416
 10
3829.410053127432
 20
-86.67821354340416
 10
3829.410053127432
 20
2926.821786456596
 10
-475.5899468725681
 20
2926.821786456596
  0
LWPOLYLINE
  5
4E
330
1A
100
AcDbEntity
  8
SQUADRATURA
 62
     0
100
AcDbPolyline
 90
        4
 70
     1
 43
0.0
 10
-423.0899468725682
 20
-34.17821354340414
 10
3776.910053127432
 20
-34.17821354340414
 10
3776.910053127432
 20
2874.321786456595
 10
-423.0899468725682
 20
2874.321786456595
  0
LINE
  5
72
330
1A
100
AcDbEntity
  8
0
 62
     0
100
AcDbLine
 10
3642.6700239977
 20
784.4304625418198
 30
0.0
 11
3642.6700239977
 21
664.4304625418198
 31
0.0
  0
LINE
  5
77
330
1A
100
AcDbEntity
  8
ASSE
 62
     0
100
AcDbLine
 10
3567.663411888167
 20
724.4304625418197
 30
0.0
 11
3594.633783428297
 21
724.4304625418197
 31
0.0
  0
ARC
  5
D09
330
1A
100
AcDbEntity
  8
ASSE
 62
     0
100
AcDbCircle
 10
2372.113131630849
 20
874.8225132531466
 30
0.0
 40
150.0
100
AcDbArc
 50
138.726360529942
 51
140.0149939222705
  0
CIRCLE
  5
DBA
330
1A
100
AcDbEntity
  8
ASSE
 62
     0
100
AcDbCircle
 10
2229.93345390131
 20
1225.719025928627
 30
0.0
 40
300.0
  0
LINE
  5
DBB
330
1A
100
AcDbEntity
  8
ASSE
 62
     0
100
AcDbLine
 10
2534.93345390131
 20
1225.719025928627
 30
0.0
 11
1924.93345390131
 21
1225.719025928627
 31
0.0
  0
LINE
  5
DBC
330
1A
100
AcDbEntity
  8
ASSE
 62
     0
100
AcDbLine
 10
2229.93345390131
 20
1530.719025928626
 30
0.0
 11
2229.93345390131
 21
920.7190259286273
 31
0.0
  0
CIRCLE
  5
DBD
330
1A
100
AcDbEntity
  8
COSTRUZIONE
 62
     0
100
AcDbCircle
 10
2529.93345390131
 20
1225.719025928627
 30
0.0
 40
20.0
  0
LINE
  5
DBE
330
1A
100
AcDbEntity
  8
ASSE
 62
     0
100
AcDbLine
 10
2551.43345390131
 20
1225.719025928627
 30
0.0
 11
2508.43345390131
 21
1225.719025928627
 31
0.0
  0
LINE
  5
DBF
330
1A
100
AcDbEntity
  8
ASSE
 62
     0
100
AcDbLine
 10
2390.68345390131
 20
1504.146193245324
 30
0.0
 11
2369.18345390131
 21
1466.907100882593
 31
0.0
  0
CIRCLE
  5
DC0
330
1A
100
AcDbEntity
  8
COSTRUZIONE
 62
     0
100
AcDbCircle
 10
2379.933453901311
 20
1485.526647063958
 30
0.0
 40
20.0
  0
LINE
  5
DC1
330
1A
100
AcDbEntity
  8
ASSE
 62
     0
100
AcDbLine
 10
2069.18345390131
 20
1504.146193245324
 30
0.0
 11
2090.683453901311
 21
1466.907100882593
 31
0.0
  0
CIRCLE
  5
DC2
330
1A
100
AcDbEntity
  8
COSTRUZIONE
 62
     0
100
AcDbCircle
 10
2079.93345390131
 20
1485.526647063958
 30
0.0
 40
20.0
  0
LINE
  5
DC3
330
1A
100
AcDbEntity
  8
ASSE
 62
     0
100
AcDbLine
 10
1908.433453901309
 20
1225.719025928627
 30
0.0
 11
1951.43345390131
 21
1225.719025928627
 31
0.0
  0
CIRCLE
  5
DC4
330
1A
100
AcDbEntity
  8
COSTRUZIONE
 62
     0
100
AcDbCircle
 10
1929.933453901309
 20
1225.719025928627
 30
0.0
 40
20.0
  0
LINE
  5
DC5
330
1A
100
AcDbEntity
  8
ASSE
 62
     0
100
AcDbLine
 10
2069.18345390131
 20
947.2918586119302
 30
0.0
 11
2090.683453901311
 21
984.5309509746607
 31
0.0
  0
CIRCLE
  5
DC6
330
1A
100
AcDbEntity
  8
COSTRUZIONE
 62
     0
100
AcDbCircle
 10
2079.93345390131
 20
965.9114047932959
 30
0.0
 40
20.0
  0
LINE
  5
DC7
330
1A
100
AcDbEntity
  8
ASSE
 62
     0
100
AcDbLine
 10
2390.68345390131
 20
947.2918586119298
 30
0.0
 11
2369.18345390131
 21
984.5309509746606
 31
0.0
  0
CIRCLE
  5
DC8
330
1A
100
AcDbEntity
  8
COSTRUZIONE
 62
     0
100
AcDbCircle
 10
2379.93345390131
 20
965.9114047932956
 30
0.0
 40
20.0
  0
CIRCLE
  5
DC9
330
1A
100
AcDbEntity
  8
0
 62
     0
100
AcDbCircle
 10
2229.93345390131
 20
1225.719025928627
 30
0.0
 40
334.4324881578186
  0
CIRCLE
  5
DD2
330
1A
100
AcDbEntity
  8
0
 62
     0
100
AcDbCircle
 10
1947.706898426065
 20
874.9950918475006
 30
0.0
 40
40.0
  0
ARC
  5
DD9
330
1A
100
AcDbEntity
  8
0
 62
     0
100
AcDbCircle
 10
1947.706898426065
 20
874.6187114957775
 30
0.0
 40
175.6509409059316
100
AcDbArc
 50
270.0
 51
11.3178976395034
  0
LINE
  5
DDA
330
1A
100
AcDbEntity
  8
0
 62
     0
100
AcDbLine
 10
1947.706898426065
 20
698.9677705898457
 30
0.0
 11
1947.706898426065
 21
629.9620438053726
 31
0.0
  0
LINE
  5
DDB
330
1A
100
AcDbEntity
  8
0
 62
     0
100
AcDbLine
 10
1947.706898426065
 20
629.9620438053726
 30
0.0
 11
2230.205871202877
 21
629.9620438053726
 31
0.0
  0
ARC
  5
DDC
330
1A
100
AcDbEntity
  8
0
 62
     0
100
AcDbCircle
 10
2512.704843979689
 20
874.6187114957775
 30
0.0
 40
175.6509409059316
100
AcDbArc
 50
168.6821023604966
 51
270.0
  0
LINE
  5
DDD
330
1A
100
AcDbEntity
  8
0
 62
     0
100
AcDbLine
 10
2512.704843979689
 20
629.9620438053726
 30
0.0
 11
2230.205871202877
 21
629.9620438053726
 31
0.0
  0
LINE
  5
DDE
330
1A
100
AcDbEntity
  8
0
 62
     0
100
AcDbLine
 10
2512.704843979689
 20
698.9677705898457
 30
0.0
 11
2512.704843979689
 21
629.9620438053726
 31
0.0
  0
LINE
  5
DE3
330
1A
100
AcDbEntity
  8
0
 62
     0
100
AcDbLine
 10
2097.117468284253
 20
784.4304625418198
 30
0.0
 11
2066.984236131109
 21
784.4304625418198
 31
0.0
  0
LINE
  5
DE5
330
1A
100
AcDbEntity
  8
0
 62
     0
100
AcDbLine
 10
2394.683062858286
 20
784.4304625418198
 30
0.0
 11
2362.038728979154
 21
784.4304625418198
 31
0.0
  0
LINE
  5
E37
330
1A
100
AcDbEntity
  8
0
 62
     0
100
AcDbLine
 10
641.2057281941486
 20
782.9400809894569
 30
0.0
 11
641.2057281941486
 21
663.3596680823212
 31
0.0
  0
LINE
  5
E71
330
1A
100
AcDbEntity
  8
SEZIONE
 62
     0
100
AcDbLine
 10
1325.291358895121
 20
2189.698385597571
 30
0.0
 11
1304.490966401219
 21
2189.698385597571
 31
0.0
  0
LINE
  5
10E7
330
1A
100
AcDbEntity
  8
0
 62
     0
100
AcDbLine
 10
1198.32537340073
 20
784.4304625418198
 30
0.0
 11
1067.498840478412
 21
784.4304625418198
 31
0.0
  0
LINE
  5
10E9
330
1A
100
AcDbEntity
  8
0
 62
     0
100
AcDbLine
 10
1198.040562200114
 20
664.43046254182
 30
0.0
 11
1067.498840478412
 21
664.43046254182
 31
0.0
  0
ARC
  5
10F2
330
1A
100
AcDbEntity
  8
0
 62
     0
100
AcDbCircle
 10
1947.706898426065
 20
874.9950918475006
 30
0.0
 40
150.0
100
AcDbArc
 50
45.76685429755897
 51
45.91241193087062
  0
ARC
  5
10F3
330
1A
100
AcDbEntity
  8
0
 62
     0
100
AcDbCircle
 10
1947.706898426065
 20
874.9950918475006
 30
0.0
 40
150.0
100
AcDbArc
 50
83.61742197685499
 51
139.4193659361737
  0
LINE
  5
110E
330
1A
100
AcDbEntity
  8
0
 62
     0
100
AcDbLine
 10
3568.963136281964
 20
784.4304625418198
 30
0.0
 11
3642.412649472108
 21
784.4304625418198
 31
0.0
  0
LINE
  5
110F
330
1A
100
AcDbEntity
  8
0
 62
     0
100
AcDbLine
 10
3568.963136281964
 20
664.4304625418198
 30
0.0
 11
3641.040442726188
 21
664.4304625418198
 31
0.0
  0
LINE
  5
111B
330
1A
100
AcDbEntity
  8
0
 62
     0
100
AcDbLine
 10
1067.498840478412
 20
784.4304625418198
 30
0.0
 11
641.1360704035522
 21
784.4304625418198
 31
0.0
  0
LINE
  5
111C
330
1A
100
AcDbEntity
  8
0
 62
     0
100
AcDbLine
 10
1067.498840478412
 20
664.43046254182
 30
0.0
 11
641.1360704035522
 21
664.43046254182
 31
0.0
  0
DIMENSION
  5
1129
330
1A
100
AcDbEntity
  8
QUOTA
 62
     0
100
AcDbDimension
  2
*D2
 10
3641.040442726188
 20
129.4480993532524
 30
0.0
 11
2219.48278470854
 21
129.4480993532524
 31
0.0
 70
   160
  1
3000 mm
  3
BASE
100
AcDbAlignedDimension
 13
642.8769532890092
 23
664.43046254182
 33
0.0
 14
3641.040442726188
 24
664.4304625418198
 34
0.0
100
AcDbRotatedDimension
  0
INSERT
  5
1224
330
1A
100
AcDbEntity
  8
0
 62
     0
100
AcDbBlockReference
  2
A$C6
 10
-367.6611654474801
 20
24.33137866251263
 30
0.0
 41
1.05
 42
1.05
 43
1.05
  0
ARC
  5
1280
330
1A
100
AcDbEntity
  8
COSTRUZIONE
 62
     0
100
AcDbCircle
 10
1777.328625543916
 20
1138.65930531746
 30
0.0
 40
136.1412205861727
100
AcDbArc
 50
231.1123154361985
 51
355.2240569433682
  0
CIRCLE
  5
1282
330
1A
100
AcDbEntity
  8
COSTRUZIONE
 62
     0
100
AcDbCircle
 10
1777.328625543916
 20
1138.65930531746
 30
0.0
 40
119.0943258981544
  0
LINE
  5
1283
330
1A
100
AcDbEntity
  8
ASSE
 62
     0
100
AcDbLine
 10
1838.366990781894
 20
981.5248122824513
 30
0.0
 11
1639.398434377013
 21
1486.963367795729
 31
0.0
  0
LINE
  5
1284
330
1A
100
AcDbEntity
  8
ASSE
 62
     0
100
AcDbLine
 10
1680.023109987261
 20
1215.905029468397
 30
0.0
 11
1877.264016093576
 21
1059.325861913417
 31
0.0
  0
LINE
  5
1285
330
1A
100
AcDbEntity
  8
ASSE
 62
     0
100
AcDbLine
 10
1857.409546123457
 20
1239.536283932066
 30
0.0
 11
1697.944055136473
 21
1038.659510692633
 31
0.0
  0
LINE
  5
1286
330
1A
100
AcDbEntity
  8
COSTRUZIONE
 62
     0
100
AcDbLine
 10
1554.806200882167
 20
1369.988210179615
 30
0.0
 11
1648.365776302583
 21
1490.512933417911
 31
0.0
  0
LINE
  5
1287
330
1A
100
AcDbEntity
  8
COSTRUZIONE
 62
     0
100
AcDbLine
 10
1094.627633404559
 20
1727.210448356053
 30
0.0
 11
1198.797232962937
 21
1646.346844237859
 31
0.0
  0
LINE
  5
1288
330
1A
100
AcDbEntity
  8
COSTRUZIONE
 62
     0
100
AcDbLine
 10
1453.843799696034
 20
1424.32748563075
 30
0.0
 11
1242.376035534558
 21
1592.200606530273
 31
0.0
  0
LINE
  5
1289
330
1A
100
AcDbEntity
  8
ASSE
 62
     0
100
AcDbLine
 10
1767.637664278113
 20
1457.729419905372
 30
0.0
 11
1608.348036474898
 21
1257.074179416807
 31
0.0
  0
CIRCLE
  5
128A
330
1A
100
AcDbEntity
  8
COSTRUZIONE
 62
     0
100
AcDbCircle
 10
1689.133404961912
 20
1358.838542641667
 30
0.0
 40
117.5
  0
LINE
  5
128B
330
1A
100
AcDbEntity
  8
COSTRUZIONE
 62
     0
100
AcDbLine
 10
1692.906808438713
 20
1032.620542570171
 30
0.0
 11
1482.06081851804
 21
1200.000069646008
 31
0.0
  0
LINE
  5
128C
330
1A
100
AcDbEntity
  8
COSTRUZIONE
 62
     0
100
AcDbLine
 10
1482.06081851804
 20
1200.000069646008
 30
0.0
 11
1453.843799696034
 21
1424.32748563075
 31
0.0
  0
CIRCLE
  5
128D
330
1A
100
AcDbEntity
  8
COSTRUZIONE
 62
     0
100
AcDbCircle
 10
1777.853690693437
 20
1137.742374240144
 30
0.0
 40
30.0
  0
CIRCLE
  5
128E
330
1A
100
AcDbEntity
  8
COSTRUZIONE
 62
     0
100
AcDbCircle
 10
1689.133404961912
 20
1358.838542641667
 30
0.0
 40
30.0
  0
LINE
  5
128F
330
1A
100
AcDbEntity
  8
ASSE
 62
     0
100
AcDbLine
 10
1120.560792770695
 20
1813.171534575073
 30
0.0
 11
1807.491298929551
 21
1264.863828940443
 31
0.0
  0
LINE
  5
1290
330
1A
100
AcDbEntity
  8
COSTRUZIONE
 62
     0
100
AcDbLine
 10
1772.093656257969
 20
1171.685685313224
 30
0.0
 11
1767.674874198019
 21
1175.193523672986
 31
0.0
  0
LINE
  5
1292
330
1A
100
AcDbEntity
  8
COSTRUZIONE
 62
     0
100
AcDbLine
 10
1648.365776302583
 20
1490.512933417911
 30
0.0
 11
1236.814857200704
 21
1809.987048109917
 31
0.0
  0
LINE
  5
1293
330
1A
100
AcDbEntity
  8
COSTRUZIONE
 62
     0
100
AcDbLine
 10
1188.187208824974
 20
1847.735171594351
 30
0.0
 11
1094.627633404559
 21
1727.210448356053
 31
0.0
  0
LINE
  5
1294
330
1A
100
AcDbEntity
  8
COSTRUZIONE
 62
     0
100
AcDbLine
 10
1242.376035534558
 20
1592.200606530273
 30
0.0
 11
1239.812419224579
 21
1614.508037150609
 31
0.0
  0
LINE
  5
1295
330
1A
100
AcDbEntity
  8
COSTRUZIONE
 62
     0
100
AcDbLine
 10
1709.262595855404
 20
1593.617733460401
 30
0.0
 11
1571.97673662533
 21
1573.138134485122
 31
0.0
  0
LINE
  5
1296
330
1A
100
AcDbEntity
  8
COSTRUZIONE
 62
     0
100
AcDbLine
 10
1571.976736625329
 20
1573.138134485122
 30
0.0
 11
1360.508972463851
 21
1741.011255384645
 31
0.0
  0
LINE
  5
1297
330
1A
100
AcDbEntity
  8
COSTRUZIONE
 62
     0
100
AcDbLine
 10
1360.508972463851
 20
1741.011255384645
 30
0.0
 11
1330.162965772588
 21
1737.523829198254
 31
0.0
  0
CIRCLE
  5
1298
330
1A
100
AcDbEntity
  8
COSTRUZIONE
 62
     0
100
AcDbCircle
 10
1765.741837013234
 20
1502.689467047049
 30
0.0
 40
20.0
  0
CIRCLE
  5
1299
330
1A
100
AcDbEntity
  8
COSTRUZIONE
 62
     0
100
AcDbCircle
 10
1765.741837013234
 20
1502.689467047049
 30
0.0
 40
45.0
  0
ARC
  5
129A
330
1A
100
AcDbEntity
  8
COSTRUZIONE
 62
     0
100
AcDbCircle
 10
1707.046450056676
 20
1467.980796804545
 30
0.0
 40
125.6564807499745
100
AcDbArc
 50
15.72036846281722
 51
89.79222905956083
  0
LINE
  5
129C
330
1A
100
AcDbEntity
  8
COSTRUZIONE
 62
     0
100
AcDbLine
 10
1896.092365856955
 20
1224.436119838344
 30
0.0
 11
1828.00281146716
 21
1502.026498277785
 31
0.0
  0
ARC
  5
12A0
330
1A
100
AcDbEntity
  8
COSTRUZIONE
 62
     0
100
AcDbCircle
 10
2451.826324297424
 20
1614.54808090538
 30
0.0
 40
136.1412205861727
100
AcDbArc
 50
104.5280722042842
 51
213.5448238612708
  0
ARC
  5
12A2
330
1A
100
AcDbEntity
  8
COSTRUZIONE
 62
     0
100
AcDbCircle
 10
2451.826324297424
 20
1614.54808090538
 30
0.0
 40
119.0943258981544
100
AcDbArc
 50
252.1835007778198
 51
228.5540959267207
  0
LINE
  5
12A3
330
1A
100
AcDbEntity
  8
ASSE
 62
     0
100
AcDbLine
 10
2289.271133136308
 20
1659.188205892528
 30
0.0
 11
2813.714967422864
 21
1517.712821051178
 31
0.0
  0
LINE
  5
12A4
330
1A
100
AcDbEntity
  8
ASSE
 62
     0
100
AcDbLine
 10
2571.847688341952
 20
1646.643834989674
 30
0.0
 11
2328.561144297327
 21
1581.584875263328
 31
0.0
  0
LINE
  5
12A5
330
1A
100
AcDbEntity
  8
ASSE
 62
     0
100
AcDbLine
 10
2485.100108212535
 20
1490.12150030763
 30
0.0
 11
2418.841875282406
 21
1737.892700029838
 31
0.0
  0
LINE
  5
12A6
330
1A
100
AcDbEntity
  8
COSTRUZIONE
 62
     0
100
AcDbLine
 10
2770.203405882277
 20
1655.356482290122
 30
0.0
 11
2811.220630335916
 21
1508.396656614408
 31
0.0
  0
LINE
  5
12A7
330
1A
100
AcDbEntity
  8
COSTRUZIONE
 62
     0
100
AcDbLine
 10
3331.31452266533
 20
1811.965409353692
 30
0.0
 11
3106.928608747661
 21
1749.338175325086
 31
0.0
  0
LINE
  5
12A8
330
1A
100
AcDbEntity
  8
COSTRUZIONE
 62
     0
100
AcDbLine
 10
2874.010836150377
 20
1704.040984248722
 30
0.0
 11
3068.251108832583
 21
1755.984136827469
 31
0.0
  0
LINE
  5
12A9
330
1A
100
AcDbEntity
  8
ASSE
 62
     0
100
AcDbLine
 10
2713.809547531747
 20
1432.162655234487
 30
0.0
 11
2647.624386108947
 21
1679.660605667716
 31
0.0
  0
CIRCLE
  5
12AA
330
1A
100
AcDbEntity
  8
COSTRUZIONE
 62
     0
100
AcDbCircle
 10
2681.190869549533
 20
1554.13948165436
 30
0.0
 40
117.5
  0
LINE
  5
12AB
330
1A
100
AcDbEntity
  8
COSTRUZIONE
 62
     0
100
AcDbLine
 10
2416.994915679213
 20
1745.536765080737
 30
0.0
 11
2677.062633000582
 21
1815.083295957634
 31
0.0
  0
LINE
  5
12AC
330
1A
100
AcDbEntity
  8
COSTRUZIONE
 62
     0
100
AcDbLine
 10
2677.062633000582
 20
1815.083295957634
 30
0.0
 11
2874.010836150377
 21
1704.040984248722
 31
0.0
  0
CIRCLE
  5
12AD
330
1A
100
AcDbEntity
  8
COSTRUZIONE
 62
     0
100
AcDbCircle
 10
2450.777104720074
 20
1614.672958006148
 30
0.0
 40
30.0
  0
CIRCLE
  5
12AE
330
1A
100
AcDbEntity
  8
COSTRUZIONE
 62
     0
100
AcDbCircle
 10
2681.190869549533
 20
1554.13948165436
 30
0.0
 40
30.0
  0
LINE
  5
12AF
330
1A
100
AcDbEntity
  8
ASSE
 62
     0
100
AcDbLine
 10
3397.928658734385
 20
1751.2786258059
 30
0.0
 11
2535.189134619073
 21
1515.109604931796
 31
0.0
  0
LINE
  5
12B2
330
1A
100
AcDbEntity
  8
COSTRUZIONE
 62
     0
100
AcDbLine
 10
2811.220630335916
 20
1508.396656614408
 30
0.0
 11
3068.829923362828
 21
1580.296702391167
 31
0.0
  0
LINE
  5
12B3
330
1A
100
AcDbEntity
  8
COSTRUZIONE
 62
     0
100
AcDbLine
 10
3372.33174711897
 20
1665.00558367798
 30
0.0
 11
3331.31452266533
 21
1811.965409353692
 31
0.0
  0
LINE
  5
12B4
330
1A
100
AcDbEntity
  8
COSTRUZIONE
 62
     0
100
AcDbLine
 10
3134.845480115958
 20
1773.792604354269
 30
0.0
 11
3154.285857993015
 21
1762.555821119589
 31
0.0
  0
LINE
  5
12B5
330
1A
100
AcDbEntity
  8
COSTRUZIONE
 62
     0
100
AcDbLine
 10
2857.717115767041
 20
1398.046761888567
 30
0.0
 11
2923.095309557985
 21
1520.490679235906
 31
0.0
  0
LINE
  5
12B6
330
1A
100
AcDbEntity
  8
COSTRUZIONE
 62
     0
100
AcDbLine
 10
2923.095309557985
 20
1520.490679235906
 30
0.0
 11
3068.621053236132
 21
1559.406738215996
 31
0.0
  0
CIRCLE
  5
12B8
330
1A
100
AcDbEntity
  8
COSTRUZIONE
 62
     0
100
AcDbCircle
 10
2751.041550399104
 20
1406.888598130706
 30
0.0
 40
20.0
  0
CIRCLE
  5
12B9
330
1A
100
AcDbEntity
  8
COSTRUZIONE
 62
     0
100
AcDbCircle
 10
2751.041550399104
 20
1406.888598130706
 30
0.0
 40
45.0
  0
ARC
  5
12BA
330
1A
100
AcDbEntity
  8
COSTRUZIONE
 62
     0
100
AcDbCircle
 10
2758.153823000048
 20
1474.706411560755
 30
0.0
 40
125.6564807499745
100
AcDbArc
 50
249.1361252309028
 51
323.2079858276465
  0
LINE
  5
12BC
330
1A
100
AcDbEntity
  8
COSTRUZIONE
 62
     0
100
AcDbLine
 10
2467.758585562796
 20
1460.560082643818
 30
0.0
 11
2713.401404524301
 21
1357.289325091022
 31
0.0
  0
LINE
  5
12D6
330
1A
100
AcDbEntity
  8
0
 62
     0
100
AcDbLine
 10
3568.963136281964
 20
664.4304625418198
 30
0.0
 11
3107.432595759934
 21
664.4304625418198
 31
0.0
  0
LINE
  5
12D7
330
1A
100
AcDbEntity
  8
0
 62
     0
100
AcDbLine
 10
3568.963136281964
 20
784.4304625418198
 30
0.0
 11
3107.432595759934
 21
784.4304625418198
 31
0.0
  0
LINE
  5
12D8
330
1A
100
AcDbEntity
  8
0
 62
     0
100
AcDbLine
 10
3069.107188961567
 20
784.4304625418198
 30
0.0
 11
2631.982204567327
 21
784.4304625418198
 31
0.0
  0
LINE
  5
12D9
330
1A
100
AcDbEntity
  8
0
 62
     0
100
AcDbLine
 10
3069.107188961567
 20
664.4304625418198
 30
0.0
 11
2512.704855420986
 21
664.43046254182
 31
0.0
  0
LINE
  5
130A
330
1A
100
AcDbEntity
  8
0
 62
     0
100
AcDbLine
 10
1828.429549279724
 20
784.4304625418198
 30
0.0
 11
1236.022895884347
 21
784.4304625418198
 31
0.0
  0
LINE
  5
1388
330
1A
100
AcDbEntity
  8
ASSE
 62
     0
100
AcDbLine
 39
0.1234
 10
1946.481202750113
 20
874.3226214177568
 30
0.0
 11
2098.62562190348
 21
979.9853725962648
 31
0.0
  0
LINE
  5
138C
330
1A
100
AcDbEntity
  8
ASSE
 62
     0
100
AcDbLine
 39
0.1234
 10
1947.736572392022
 20
875.1699861212896
 30
0.0
 11
1805.83365359116
 21
941.9872253015602
 31
0.0
  0
ARC
  5
138D
330
1A
100
AcDbEntity
  8
0
 62
     0
100
AcDbCircle
 10
1813.151709410396
 20
938.3658985491241
 30
0.0
 40
40.0
100
AcDbArc
 50
250.791179653806
 51
59.16654380826197
  0
ARC
  5
1390
330
1A
100
AcDbEntity
  8
0
 62
     0
100
AcDbCircle
 10
1959.897846442937
 20
727.7128500482513
 30
0.0
 40
40.0
100
AcDbArc
 50
9.437246467977708
 51
180.3487550146119
  0
ARC
  5
1392
330
1A
100
AcDbEntity
  8
0
 62
     0
100
AcDbCircle
 10
1947.706898426065
 20
874.9950918475006
 30
0.0
 40
150.0
100
AcDbArc
 50
170.1832626356915
 51
259.443099690747
  0
ARC
  5
1395
330
1A
100
AcDbEntity
  8
0
 62
     0
100
AcDbCircle
 10
1947.706898426065
 20
874.9950918475006
 30
0.0
 40
150.0
100
AcDbArc
 50
290.0795500057743
 51
18.18508207489277
  0
LINE
  5
1398
330
1A
100
AcDbEntity
  8
ASSE
 62
     0
100
AcDbLine
 39
0.1234
 10
1960.549528501215
 20
722.1314746979593
 30
0.0
 11
1947.736572392022
 21
875.1699861212891
 31
0.0
  0
ARC
  5
139A
330
1A
100
AcDbEntity
  8
0
 62
     0
100
AcDbCircle
 10
2513.219537302884
 20
874.9950918475006
 30
0.0
 40
150.0
100
AcDbArc
 50
40.58063406382613
 51
96.38257802314498
  0
ARC
  5
139B
330
1A
100
AcDbEntity
  8
0
 62
     0
100
AcDbCircle
 10
2647.774726318553
 20
938.3658985491241
 30
0.0
 40
40.0
100
AcDbArc
 50
120.8334561917379
 51
289.2088203461938
  0
LINE
  5
139C
330
1A
100
AcDbEntity
  8
ASSE
 62
     0
100
AcDbLine
 39
0.1234
 10
2513.189863336927
 20
875.1699861212896
 30
0.0
 11
2655.092782137788
 21
941.9872253015602
 31
0.0
  0
CIRCLE
  5
139D
330
1A
100
AcDbEntity
  8
0
 62
     0
100
AcDbCircle
 10
2513.219537302884
 20
874.9950918475006
 30
0.0
 40
40.0
  0
LINE
  5
139E
330
1A
100
AcDbEntity
  8
ASSE
 62
     0
100
AcDbLine
 39
0.1234
 10
2500.376907227735
 20
722.1314746979593
 30
0.0
 11
2513.189863336927
 21
875.1699861212891
 31
0.0
  0
ARC
  5
139F
330
1A
100
AcDbEntity
  8
0
 62
     0
100
AcDbCircle
 10
2501.028589286012
 20
727.7128500482513
 30
0.0
 40
40.0
100
AcDbArc
 50
359.6512449853881
 51
170.5627535320223
  0
ARC
  5
13A0
330
1A
100
AcDbEntity
  8
0
 62
     0
100
AcDbCircle
 10
2513.219537302884
 20
874.9950918475006
 30
0.0
 40
150.0
100
AcDbArc
 50
280.5569003092528
 51
9.816737364308464
  0
ARC
  5
13A1
330
1A
100
AcDbEntity
  8
0
 62
     0
100
AcDbCircle
 10
2513.219537302884
 20
874.9950918475006
 30
0.0
 40
150.0
100
AcDbArc
 50
161.8149179251071
 51
249.9204499942255
  0
LINE
  5
13A2
330
1A
100
AcDbEntity
  8
ASSE
 62
     0
100
AcDbLine
 39
0.1234
 10
2514.445232978836
 20
874.3226214177568
 30
0.0
 11
2362.300813825469
 21
979.9853725962648
 31
0.0
  0
INSERT
  5
13C9
330
1A
100
AcDbEntity
  8
0
 62
     0
100
AcDbBlockReference
  2
A$C2
 10
1293.682438315193
 20
579.4424732606103
 30
0.0
  0
LINE
  5
13CA
330
1A
100
AcDbEntity
  8
0
 62
     0
100
AcDbLine
 10
1293.682438315193
 20
664.43046254182
 30
0.0
 11
1235.616274233197
 21
664.43046254182
 31
0.0
  0
LINE
  5
144A
330
1A
100
AcDbEntity
  8
ASSE
 62
     0
100
AcDbLine
 10
3707.434107779782
 20
724.7946640539485
 30
0.0
 11
585.2418702849189
 21
724.7946640539481
 31
0.0
  0
LINE
  5
144B
330
1A
100
AcDbEntity
  8
0
 62
     0
100
AcDbLine
 10
2899.25930480579
 20
2151.92963662984
 30
0.0
 11
1333.958494652561
 21
2151.92963662984
 31
0.0
  0
LINE
  5
144C
330
1A
100
AcDbEntity
  8
0
 62
     0
100
AcDbLine
 10
1334.11854708584
 20
2182.014708672363
 30
0.0
 11
2897.343334068576
 21
2182.014708672363
 31
0.0
  0
LINE
  5
144D
330
1A
100
AcDbEntity
  8
0
  6
CONTINUOUS
 62
     0
100
AcDbLine
 10
1198.047343284251
 20
2190.014708672364
 30
0.0
 11
3108.099657753275
 21
2190.014708672364
 31
0.0
  0
LINE
  5
144E
330
1A
100
AcDbEntity
  8
0
  6
CONTINUOUS
 62
     0
100
AcDbLine
 10
1205.6117970146
 20
2182.014708672363
 30
0.0
 11
1334.457748224389
 21
2182.014708672363
 31
0.0
  0
ARC
  5
144F
330
1A
100
AcDbEntity
  8
0
  6
CONTINUOUS
 62
     0
100
AcDbCircle
 10
1401.974957799417
 20
2179.014708672363
 30
0.0
 40
3.000000000000001
100
AcDbArc
 50
0.0
 51
90.00000000000005
  0
LINE
  5
1450
330
1A
100
AcDbEntity
  8
0
  6
CONTINUOUS
 62
     0
100
AcDbLine
 10
1404.974957799417
 20
2155.014708672363
 30
0.0
 11
1404.974957799417
 21
2179.014708672363
 31
0.0
  0
LINE
  5
1451
330
1A
100
AcDbEntity
  8
0
  6
CONTINUOUS
 62
     0
100
AcDbLine
 10
1374.974957799417
 20
2152.014708672363
 30
0.0
 11
1401.974957799417
 21
2152.014708672363
 31
0.0
  0
ARC
  5
1452
330
1A
100
AcDbEntity
  8
0
  6
CONTINUOUS
 62
     0
100
AcDbCircle
 10
1401.974957799417
 20
2155.014708672363
 30
0.0
 40
3.000000000000001
100
AcDbArc
 50
270.0
 51
0.0
  0
LINE
  5
1453
330
1A
100
AcDbEntity
  8
0
  6
CONTINUOUS
 62
     0
100
AcDbLine
 10
3098.300767664282
 20
2182.939518380174
 30
0.0
 11
2900.396763396731
 21
2182.939518380174
 31
0.0
  0
ARC
  5
1454
330
1A
100
AcDbEntity
  8
0
  6
CONTINUOUS
 62
     0
100
AcDbCircle
 10
2901.078876453571
 20
2179.939518380174
 30
0.0
 40
3.000000000000001
100
AcDbArc
 50
90.00000000000005
 51
180.0
  0
LINE
  5
1455
330
1A
100
AcDbEntity
  8
0
  6
CONTINUOUS
 62
     0
100
AcDbLine
 10
2898.078876453572
 20
2179.939518380174
 30
0.0
 11
2898.078876453572
 21
2155.939518380174
 31
0.0
  0
LINE
  5
1456
330
1A
100
AcDbEntity
  8
0
  6
CONTINUOUS
 62
     0
100
AcDbLine
 10
2901.078876453571
 20
2152.939518380175
 30
0.0
 11
2928.078876453572
 21
2152.939518380175
 31
0.0
  0
ARC
  5
1457
330
1A
100
AcDbEntity
  8
0
  6
CONTINUOUS
 62
     0
100
AcDbCircle
 10
2901.078876453571
 20
2155.939518380174
 30
0.0
 40
3.000000000000001
100
AcDbArc
 50
180.0
 51
270.0
  0
LINE
  5
1459
330
1A
100
AcDbEntity
  8
0
 62
     0
100
AcDbLine
 10
1205.552769276302
 20
637.272950024715
 30
0.0
 11
1205.552769276302
 21
1775.858464878732
 31
0.0
  0
LINE
  5
145A
330
1A
100
AcDbEntity
  8
0
 62
     0
100
AcDbLine
 10
1235.576997993022
 20
1880.707484038575
 30
0.0
 11
1235.576997993022
 21
636.4422270682316
 31
0.0
  0
LINE
  5
145B
330
1A
100
AcDbEntity
  8
0
  6
CONTINUOUS
 62
     0
100
AcDbLine
 10
1205.457015488904
 20
637.4091265076167
 30
0.0
 11
1205.457015488904
 21
438.8226120781999
 31
0.0
  0
ARC
  5
145C
330
1A
100
AcDbEntity
  8
0
  6
CONTINUOUS
 62
     0
100
AcDbCircle
 10
1232.457015488904
 20
636.2673073033511
 30
0.0
 40
3.000000000000001
100
AcDbArc
 50
0.0
 51
90.00000000000005
  0
ARC
  5
145D
330
1A
100
AcDbEntity
  8
0
  6
CONTINUOUS
 62
     0
100
AcDbCircle
 10
1208.457015488904
 20
636.2673073033511
 30
0.0
 40
3.000000000000001
100
AcDbArc
 50
90.00000000000005
 51
180.0
  0
LINE
  5
145E
330
1A
100
AcDbEntity
  8
0
  6
CONTINUOUS
 62
     0
100
AcDbLine
 10
1232.457015488904
 20
639.2673073033511
 30
0.0
 11
1208.457015488904
 21
639.2673073033511
 31
0.0
  0
LINE
  5
145F
330
1A
100
AcDbEntity
  8
0
  6
CONTINUOUS
 62
     0
100
AcDbLine
 10
1235.457015488904
 20
636.2673073033511
 30
0.0
 11
1235.457015488904
 21
609.2673073033511
 31
0.0
  0
LINE
  5
1460
330
1A
100
AcDbEntity
  8
0
  6
CONTINUOUS
 62
     0
100
AcDbLine
 10
1205.457015488904
 20
1775.016717853413
 30
0.0
 11
1205.457015488904
 21
2182.052139959082
 31
0.0
  0
LINE
  5
1461
330
1A
100
AcDbEntity
  8
0
  6
CONTINUOUS
 62
     0
100
AcDbLine
 10
1235.457015488904
 20
1984.698009360876
 30
0.0
 11
1235.457015488904
 21
2011.698009360876
 31
0.0
  0
ARC
  5
1462
330
1A
100
AcDbEntity
  8
0
  6
CONTINUOUS
 62
     0
100
AcDbCircle
 10
1232.457015488904
 20
1984.698009360876
 30
0.0
 40
3.000000000000001
100
AcDbArc
 50
270.0
 51
0.0
  0
ARC
  5
1463
330
1A
100
AcDbEntity
  8
0
  6
CONTINUOUS
 62
     0
100
AcDbCircle
 10
1208.457015488904
 20
1984.698009360876
 30
0.0
 40
3.000000000000001
100
AcDbArc
 50
180.0
 51
270.0
  0
LINE
  5
1464
330
1A
100
AcDbEntity
  8
0
  6
CONTINUOUS
 62
     0
100
AcDbLine
 10
1232.457015488904
 20
1981.698009360876
 30
0.0
 11
1208.457015488904
 21
1981.698009360876
 31
0.0
  0
LINE
  5
1465
330
1A
100
AcDbEntity
  8
0
 62
     0
100
AcDbLine
 10
1336.439252780475
 20
438.8367454968529
 30
0.0
 11
2775.816761609029
 21
438.8367454968529
 31
0.0
  0
LINE
  5
1466
330
1A
100
AcDbEntity
  8
0
 62
     0
100
AcDbLine
 10
1335.776221512906
 20
468.7021835871592
 30
0.0
 11
2603.058622282531
 21
468.7021835871592
 31
0.0
  0
LINE
  5
1468
330
1A
100
AcDbEntity
  8
0
  6
CONTINUOUS
 62
     0
100
AcDbLine
 10
1403.794100998669
 20
438.8226120781999
 30
0.0
 11
1205.343524296875
 21
438.8226120781999
 31
0.0
  0
ARC
  5
1469
330
1A
100
AcDbEntity
  8
0
  6
CONTINUOUS
 62
     0
100
AcDbCircle
 10
1403.479430955112
 20
465.8226120782002
 30
0.0
 40
3.000000000000001
100
AcDbArc
 50
0.0
 51
90.00000000000005
  0
LINE
  5
146A
330
1A
100
AcDbEntity
  8
0
  6
CONTINUOUS
 62
     0
100
AcDbLine
 10
1406.479430955112
 20
465.8226120782002
 30
0.0
 11
1406.479430955112
 21
441.8226120782001
 31
0.0
  0
ARC
  5
146B
330
1A
100
AcDbEntity
  8
0
  6
CONTINUOUS
 62
     0
100
AcDbCircle
 10
1403.479430955112
 20
441.8226120782001
 30
0.0
 40
3.000000000000001
100
AcDbArc
 50
270.0
 51
0.0
  0
LINE
  5
146C
330
1A
100
AcDbEntity
  8
0
  6
CONTINUOUS
 62
     0
100
AcDbLine
 10
1379.479430955112
 20
468.8226120782001
 30
0.0
 11
1403.479430955112
 21
468.8226120782001
 31
0.0
  0
LINE
  5
146E
330
1A
100
AcDbEntity
  8
0
 62
     0
100
AcDbLine
 10
2603.653607268196
 20
639.5731809476237
 30
0.0
 11
2603.653607268196
 21
438.987679655287
 31
0.0
  0
LINE
  5
1470
330
1A
100
AcDbEntity
  8
0
 62
     0
100
AcDbLine
 10
3099.260984940448
 20
639.5731809476237
 30
0.0
 11
2603.653607268196
 21
639.5731809476237
 31
0.0
  0
LINE
  5
1472
330
1A
100
AcDbEntity
  8
0
 62
     0
100
AcDbLine
 10
3099.227074840591
 20
1982.869670587643
 30
0.0
 11
3099.227074840591
 21
634.393697106736
 31
0.0
  0
LINE
  5
1473
330
1A
100
AcDbEntity
  8
0
 62
     0
100
AcDbLine
 10
3069.160204648265
 20
639.5589981388002
 30
0.0
 11
3069.160204648265
 21
1982.869670587643
 31
0.0
  0
LINE
  5
1474
330
1A
100
AcDbEntity
  8
0
  6
CONTINUOUS
 62
     0
100
AcDbLine
 10
3099.227074840591
 20
635.8796801066891
 30
0.0
 11
3099.227074840591
 21
438.7672558907197
 31
0.0
  0
LINE
  5
1475
330
1A
100
AcDbEntity
  8
0
  6
CONTINUOUS
 62
     0
100
AcDbLine
 10
3098.300767664282
 20
1985.391469229614
 30
0.0
 11
3098.300767664282
 21
2182.958345464253
 31
0.0
  0
ARC
  5
1476
330
1A
100
AcDbEntity
  8
0
  6
CONTINUOUS
 62
     0
100
AcDbCircle
 10
3095.300767664283
 20
1985.66129322457
 30
0.0
 40
3.000000000000001
100
AcDbArc
 50
270.0
 51
0.0
  0
LINE
  5
1477
330
1A
100
AcDbEntity
  8
0
  6
CONTINUOUS
 62
     0
100
AcDbLine
 10
3068.300767664283
 20
1985.66129322457
 30
0.0
 11
3068.300767664283
 21
2009.66129322457
 31
0.0
  0
ARC
  5
1478
330
1A
100
AcDbEntity
  8
0
  6
CONTINUOUS
 62
     0
100
AcDbCircle
 10
3071.300767664283
 20
1985.66129322457
 30
0.0
 40
3.000000000000001
100
AcDbArc
 50
180.0
 51
270.0
  0
LINE
  5
1479
330
1A
100
AcDbEntity
  8
0
  6
CONTINUOUS
 62
     0
100
AcDbLine
 10
3095.300767664283
 20
1982.661293224571
 30
0.0
 11
3071.300767664283
 21
1982.661293224571
 31
0.0
  0
LINE
  5
147B
330
1A
100
AcDbEntity
  8
0
 62
     0
100
AcDbLine
 10
1198.392877782942
 20
2189.969696010424
 30
0.0
 11
1198.392877782942
 21
430.7693648793091
 31
0.0
  0
LINE
  5
147C
330
1A
100
AcDbEntity
  8
0
  6
CONTINUOUS
 62
     0
100
AcDbLine
 10
3107.227074840591
 20
2189.793338074089
 30
0.0
 11
3107.227074840591
 21
430.8226120782001
 31
0.0
  0
LINE
  5
147D
330
1A
100
AcDbEntity
  8
0
  6
CONTINUOUS
 62
     0
100
AcDbLine
 10
3099.286958521688
 20
438.8226120781999
 30
0.0
 11
2776.155372203934
 21
438.8226120781999
 31
0.0
  0
LINE
  5
147E
330
1A
100
AcDbEntity
  8
0
  6
CONTINUOUS
 62
     0
100
AcDbLine
 10
3107.24146753014
 20
430.8226120782001
 30
0.0
 11
1198.040562200114
 21
430.8226120782001
 31
0.0
  0
LINE
  5
147F
330
1A
100
AcDbEntity
  8
0
 62
     0
100
AcDbLine
 10
3183.929953523566
 20
1590.242299341453
 30
0.0
 11
3194.946614662523
 21
1615.330373157267
 31
0.0
  0
LINE
  5
1480
330
1A
100
AcDbEntity
  8
0
  6
CONTINUOUS
 62
     0
100
AcDbLine
 10
3545.839757948101
 20
1985.391469229614
 30
0.0
 11
3545.839757948101
 21
2182.958345464253
 31
0.0
  0
LINE
  5
1481
330
1A
100
AcDbEntity
  8
0
  6
CONTINUOUS
 62
     0
100
AcDbLine
 10
3542.839757948101
 20
1982.661293224571
 30
0.0
 11
3518.8397579481
 21
1982.661293224571
 31
0.0
  0
ARC
  5
1482
330
1A
100
AcDbEntity
  8
0
  6
CONTINUOUS
 62
     0
100
AcDbCircle
 10
3518.8397579481
 20
1985.66129322457
 30
0.0
 40
3.000000000000001
100
AcDbArc
 50
180.0
 51
270.0
  0
LINE
  5
1483
330
1A
100
AcDbEntity
  8
0
  6
CONTINUOUS
 62
     0
100
AcDbLine
 10
3515.839757948099
 20
1985.66129322457
 30
0.0
 11
3515.839757948099
 21
2009.66129322457
 31
0.0
  0
ARC
  5
1484
330
1A
100
AcDbEntity
  8
0
  6
CONTINUOUS
 62
     0
100
AcDbCircle
 10
3542.839757948101
 20
1985.66129322457
 30
0.0
 40
3.000000000000001
100
AcDbArc
 50
270.0
 51
0.0
  0
LINE
  5
1485
330
1A
100
AcDbEntity
  8
0
  6
CONTINUOUS
 62
     0
100
AcDbLine
 10
3545.839757948101
 20
2182.939518380174
 30
0.0
 11
3347.935753680548
 21
2182.939518380174
 31
0.0
  0
ARC
  5
1486
330
1A
100
AcDbEntity
  8
0
  6
CONTINUOUS
 62
     0
100
AcDbCircle
 10
3348.61786673739
 20
2179.939518380174
 30
0.0
 40
3.000000000000001
100
AcDbArc
 50
90.00000000000005
 51
180.0
  0
LINE
  5
1487
330
1A
100
AcDbEntity
  8
0
  6
CONTINUOUS
 62
     0
100
AcDbLine
 10
3348.61786673739
 20
2152.939518380175
 30
0.0
 11
3375.617866737389
 21
2152.939518380175
 31
0.0
  0
ARC
  5
1488
330
1A
100
AcDbEntity
  8
0
  6
CONTINUOUS
 62
     0
100
AcDbCircle
 10
3348.61786673739
 20
2155.939518380174
 30
0.0
 40
3.000000000000001
100
AcDbArc
 50
180.0
 51
270.0
  0
LINE
  5
1489
330
1A
100
AcDbEntity
  8
0
  6
CONTINUOUS
 62
     0
100
AcDbLine
 10
3345.61786673739
 20
2179.939518380174
 30
0.0
 11
3345.61786673739
 21
2155.939518380174
 31
0.0
  0
LINE
  5
148B
330
1A
100
AcDbEntity
  8
0
  6
CONTINUOUS
 62
     0
100
AcDbLine
 10
3106.920662661567
 20
2190.014708672364
 30
0.0
 11
3554.766065124409
 21
2190.014708672364
 31
0.0
  0
LINE
  5
148C
330
1A
100
AcDbEntity
  8
0
 62
     0
100
AcDbLine
 10
3106.43671049063
 20
2152.670708958058
 30
0.0
 11
3349.933219144368
 21
2152.670708958058
 31
0.0
  0
LINE
  5
148F
330
1A
100
AcDbEntity
  8
0
 62
     0
100
AcDbLine
 10
3106.43671049063
 20
1238.60325186204
 30
0.0
 11
3349.933219144368
 21
1238.60325186204
 31
0.0
  0
LINE
  5
1490
330
1A
100
AcDbEntity
  8
0
  6
CONTINUOUS
 62
     0
100
AcDbLine
 10
3106.920662661567
 20
1201.259252147734
 30
0.0
 11
3555.638648037094
 21
1201.259252147734
 31
0.0
  0
LINE
  5
1491
330
1A
100
AcDbEntity
  8
0
  6
CONTINUOUS
 62
     0
100
AcDbLine
 10
3545.839757948101
 20
1405.882491590483
 30
0.0
 11
3545.839757948101
 21
1208.315615355845
 31
0.0
  0
ARC
  5
1492
330
1A
100
AcDbEntity
  8
0
  6
CONTINUOUS
 62
     0
100
AcDbCircle
 10
3542.839757948101
 20
1405.612667595528
 30
0.0
 40
3.000000000000001
100
AcDbArc
 50
0.0
 51
89.99999999999994
  0
LINE
  5
1493
330
1A
100
AcDbEntity
  8
0
  6
CONTINUOUS
 62
     0
100
AcDbLine
 10
3515.839757948099
 20
1405.612667595528
 30
0.0
 11
3515.839757948099
 21
1381.612667595528
 31
0.0
  0
ARC
  5
1494
330
1A
100
AcDbEntity
  8
0
  6
CONTINUOUS
 62
     0
100
AcDbCircle
 10
3518.8397579481
 20
1405.612667595528
 30
0.0
 40
3.000000000000001
100
AcDbArc
 50
89.99999999999994
 51
179.9999999999999
  0
LINE
  5
1495
330
1A
100
AcDbEntity
  8
0
  6
CONTINUOUS
 62
     0
100
AcDbLine
 10
3542.839757948101
 20
1408.612667595527
 30
0.0
 11
3518.8397579481
 21
1408.612667595527
 31
0.0
  0
LINE
  5
1496
330
1A
100
AcDbEntity
  8
0
  6
CONTINUOUS
 62
     0
100
AcDbLine
 10
3545.839757948101
 20
1208.334442439922
 30
0.0
 11
3347.935753680548
 21
1208.334442439922
 31
0.0
  0
LINE
  5
1497
330
1A
100
AcDbEntity
  8
0
  6
CONTINUOUS
 62
     0
100
AcDbLine
 10
3348.61786673739
 20
1238.334442439922
 30
0.0
 11
3375.617866737389
 21
1238.334442439922
 31
0.0
  0
LINE
  5
1498
330
1A
100
AcDbEntity
  8
0
  6
CONTINUOUS
 62
     0
100
AcDbLine
 10
3345.61786673739
 20
1211.334442439923
 30
0.0
 11
3345.61786673739
 21
1235.334442439922
 31
0.0
  0
ARC
  5
1499
330
1A
100
AcDbEntity
  8
0
  6
CONTINUOUS
 62
     0
100
AcDbCircle
 10
3348.61786673739
 20
1235.334442439922
 30
0.0
 40
3.000000000000001
100
AcDbArc
 50
89.99999999999994
 51
179.9999999999999
  0
ARC
  5
149A
330
1A
100
AcDbEntity
  8
0
  6
CONTINUOUS
 62
     0
100
AcDbCircle
 10
3348.61786673739
 20
1211.334442439923
 30
0.0
 40
3.000000000000001
100
AcDbArc
 50
179.9999999999999
 51
270.0
  0
LINE
  5
149B
330
1A
100
AcDbEntity
  8
0
  6
CONTINUOUS
 62
     0
100
AcDbLine
 10
3554.766065124409
 20
1201.480622746009
 30
0.0
 11
3554.766065124409
 21
2190.024200307854
 31
0.0
  0
LINE
  5
149C
330
1A
100
AcDbEntity
  8
0
 62
     0
100
AcDbLine
 10
3516.231646434615
 20
1982.862699407963
 30
0.0
 11
3516.231646434615
 21
1408.310088939618
 31
0.0
  0
LINE
  5
149D
330
1A
100
AcDbEntity
  8
0
 62
     0
100
AcDbLine
 10
1197.432629483103
 20
1236.130819711476
 30
0.0
 11
953.9361208293668
 21
1236.130819711476
 31
0.0
  0
LINE
  5
149E
330
1A
100
AcDbEntity
  8
0
  6
CONTINUOUS
 62
     0
100
AcDbLine
 10
1196.948677312168
 20
1198.78681999717
 30
0.0
 11
749.1032748493251
 21
1198.78681999717
 31
0.0
  0
LINE
  5
149F
330
1A
100
AcDbEntity
  8
0
  6
CONTINUOUS
 62
     0
100
AcDbLine
 10
1196.948677312168
 20
2187.542276521801
 30
0.0
 11
748.2306919366401
 21
2187.542276521801
 31
0.0
  0
LINE
  5
14A0
330
1A
100
AcDbEntity
  8
0
 62
     0
100
AcDbLine
 10
1197.432629483103
 20
2150.198276807495
 30
0.0
 11
953.9361208293668
 21
2150.198276807495
 31
0.0
  0
LINE
  5
14A1
330
1A
100
AcDbEntity
  8
0
  6
CONTINUOUS
 62
     0
100
AcDbLine
 10
758.0295820256343
 20
1982.919037079052
 30
0.0
 11
758.0295820256343
 21
2180.48591331369
 31
0.0
  0
LINE
  5
14A2
330
1A
100
AcDbEntity
  8
0
  6
CONTINUOUS
 62
     0
100
AcDbLine
 10
758.0295820256343
 20
2180.46708622961
 30
0.0
 11
955.9335862931858
 21
2180.46708622961
 31
0.0
  0
LINE
  5
14A3
330
1A
100
AcDbEntity
  8
0
  6
CONTINUOUS
 62
     0
100
AcDbLine
 10
955.2514732363452
 20
2150.46708622961
 30
0.0
 11
928.2514732363452
 21
2150.46708622961
 31
0.0
  0
ARC
  5
14A4
330
1A
100
AcDbEntity
  8
0
  6
CONTINUOUS
 62
     0
100
AcDbCircle
 10
955.2514732363452
 20
2177.467086229611
 30
0.0
 40
3.000000000000001
100
AcDbArc
 50
359.9999999999998
 51
90.0
  0
ARC
  5
14A5
330
1A
100
AcDbEntity
  8
0
  6
CONTINUOUS
 62
     0
100
AcDbCircle
 10
955.2514732363452
 20
2153.46708622961
 30
0.0
 40
3.000000000000001
100
AcDbArc
 50
269.9999999999999
 51
359.9999999999998
  0
LINE
  5
14A6
330
1A
100
AcDbEntity
  8
0
  6
CONTINUOUS
 62
     0
100
AcDbLine
 10
958.2514732363451
 20
2177.467086229611
 30
0.0
 11
958.2514732363451
 21
2153.46708622961
 31
0.0
  0
LINE
  5
14A7
330
1A
100
AcDbEntity
  8
0
  6
CONTINUOUS
 62
     0
100
AcDbLine
 10
761.0295820256343
 20
1980.188861074007
 30
0.0
 11
785.0295820256343
 21
1980.188861074007
 31
0.0
  0
ARC
  5
14A8
330
1A
100
AcDbEntity
  8
0
  6
CONTINUOUS
 62
     0
100
AcDbCircle
 10
785.0295820256343
 20
1983.188861074006
 30
0.0
 40
3.000000000000001
100
AcDbArc
 50
269.9999999999999
 51
359.9999999999998
  0
LINE
  5
14A9
330
1A
100
AcDbEntity
  8
0
  6
CONTINUOUS
 62
     0
100
AcDbLine
 10
788.0295820256344
 20
1983.188861074006
 30
0.0
 11
788.0295820256344
 21
2007.188861074007
 31
0.0
  0
ARC
  5
14AA
330
1A
100
AcDbEntity
  8
0
  6
CONTINUOUS
 62
     0
100
AcDbCircle
 10
761.0295820256343
 20
1983.188861074006
 30
0.0
 40
3.000000000000001
100
AcDbArc
 50
180.0
 51
269.9999999999999
  0
LINE
  5
14AB
330
1A
100
AcDbEntity
  8
0
  6
CONTINUOUS
 62
     0
100
AcDbLine
 10
758.0295820256343
 20
1205.86201028936
 30
0.0
 11
955.9335862931858
 21
1205.86201028936
 31
0.0
  0
LINE
  5
14AC
330
1A
100
AcDbEntity
  8
0
  6
CONTINUOUS
 62
     0
100
AcDbLine
 10
955.2514732363452
 20
1235.86201028936
 30
0.0
 11
928.2514732363452
 21
1235.86201028936
 31
0.0
  0
LINE
  5
14AD
330
1A
100
AcDbEntity
  8
0
  6
CONTINUOUS
 62
     0
100
AcDbLine
 10
958.2514732363451
 20
1208.86201028936
 30
0.0
 11
958.2514732363451
 21
1232.862010289359
 31
0.0
  0
ARC
  5
14AE
330
1A
100
AcDbEntity
  8
0
  6
CONTINUOUS
 62
     0
100
AcDbCircle
 10
955.2514732363452
 20
1232.862010289359
 30
0.0
 40
3.000000000000001
100
AcDbArc
 50
0.0000000000000799
 51
90.00000000000005
  0
ARC
  5
14AF
330
1A
100
AcDbEntity
  8
0
  6
CONTINUOUS
 62
     0
100
AcDbCircle
 10
955.2514732363452
 20
1208.86201028936
 30
0.0
 40
3.000000000000001
100
AcDbArc
 50
270.0
 51
0.0000000000000799
  0
LINE
  5
14B0
330
1A
100
AcDbEntity
  8
0
  6
CONTINUOUS
 62
     0
100
AcDbLine
 10
749.1032748493251
 20
2187.320905923526
 30
0.0
 11
749.1032748493251
 21
1198.777328361681
 31
0.0
  0
LINE
  5
14B1
330
1A
100
AcDbEntity
  8
0
 62
     0
100
AcDbLine
 10
787.6376935391198
 20
1405.938829261572
 30
0.0
 11
787.6376935391198
 21
1980.491439729916
 31
0.0
  0
LINE
  5
14B2
330
1A
100
AcDbEntity
  8
0
  6
CONTINUOUS
 62
     0
100
AcDbLine
 10
758.0295820256343
 20
1403.410059439919
 30
0.0
 11
758.0295820256343
 21
1205.843183205282
 31
0.0
  0
ARC
  5
14B3
330
1A
100
AcDbEntity
  8
0
  6
CONTINUOUS
 62
     0
100
AcDbCircle
 10
761.0295820256343
 20
1403.140235444964
 30
0.0
 40
3.000000000000001
100
AcDbArc
 50
90.00000000000005
 51
180.0
  0
LINE
  5
14B4
330
1A
100
AcDbEntity
  8
0
  6
CONTINUOUS
 62
     0
100
AcDbLine
 10
788.0295820256344
 20
1403.140235444964
 30
0.0
 11
788.0295820256344
 21
1379.140235444964
 31
0.0
  0
ARC
  5
14B5
330
1A
100
AcDbEntity
  8
0
  6
CONTINUOUS
 62
     0
100
AcDbCircle
 10
785.0295820256343
 20
1403.140235444964
 30
0.0
 40
3.000000000000001
100
AcDbArc
 50
0.0000000000000799
 51
90.00000000000005
  0
LINE
  5
14B6
330
1A
100
AcDbEntity
  8
0
  6
CONTINUOUS
 62
     0
100
AcDbLine
 10
761.0295820256343
 20
1406.140235444964
 30
0.0
 11
785.0295820256343
 21
1406.140235444964
 31
0.0
  0
LINE
  5
14B7
330
1A
100
AcDbEntity
  8
COSTRUZIONE
 62
     0
100
AcDbLine
 10
3107.237289383374
 20
1766.409704588719
 30
0.0
 11
3134.845480115958
 21
1773.792604354269
 31
0.0
  0
LINE
  5
14BA
330
1A
100
AcDbEntity
  8
COSTRUZIONE
 62
     0
100
AcDbLine
 10
3068.114776246922
 20
1738.505039995286
 30
0.0
 11
2770.203405882277
 21
1655.356482290122
 31
0.0
  0
LINE
  5
14BB
330
1A
100
AcDbEntity
  8
COSTRUZIONE
 62
     0
100
AcDbLine
 10
3107.558003368851
 20
1591.105903769581
 30
0.0
 11
3372.33174711897
 21
1665.00558367798
 31
0.0
  0
LINE
  5
14BC
330
1A
100
AcDbEntity
  8
COSTRUZIONE
 62
     0
100
AcDbLine
 10
3107.316980156872
 20
1569.754687219901
 30
0.0
 11
3183.929953523566
 21
1590.242299341453
 31
0.0
  0
DIMENSION
  5
14D0
330
1A
100
AcDbEntity
  8
QUOTA
 62
     0
100
AcDbDimension
  2
*D12
 10
3107.24146753014
 20
237.8538306344907
 30
0.0
 11
2152.641014865127
 21
264.8538306344907
 31
0.0
 70
    32
  1
1910 mm
  3
BASE
100
AcDbAlignedDimension
 13
1198.040562200114
 23
430.8226120782001
 33
0.0
 14
3107.24146753014
 24
430.8226120782001
 34
0.0
100
AcDbRotatedDimension
  0
DIMENSION
  5
14E8
330
1A
100
AcDbEntity
  8
QUOTA
 62
     0
100
AcDbDimension
  2
*D13
 10
3641.497250753006
 20
237.8538306344907
 30
0.0
 11
3374.362162796799
 21
264.8538306344907
 31
0.0
 70
    32
  1
530 mm
  3
BASE
100
AcDbAlignedDimension
 13
3107.227074840591
 23
430.8226120782001
 33
0.0
 14
3641.497250753006
 24
346.0271833091101
 34
0.0
100
AcDbRotatedDimension
  0
DIMENSION
  5
1500
330
1A
100
AcDbEntity
  8
QUOTA
 62
     0
100
AcDbDimension
  2
*D14
 10
1198.392877782942
 20
237.8538306344907
 30
0.0
 11
920.1883449664883
 21
264.8538306344907
 31
0.0
 70
    32
  1
560 mm
  3
BASE
100
AcDbAlignedDimension
 13
641.9838121500342
 23
376.2285475724703
 33
0.0
 14
1198.392877782942
 24
430.8226120782001
 34
0.0
100
AcDbRotatedDimension
  0
TEXT
  5
150C
330
1A
100
AcDbEntity
  8
TESTO
 62
     0
100
AcDbText
 10
2325.514164447655
 20
342.2615118284666
 30
0.0
 40
50.0
  1
QUADRO ELETTRICO
100
AcDbText
  0
LINE
  5
150D
330
1A
100
AcDbEntity
  8
TESTO
 62
     0
100
AcDbLine
 10
2316.561245058648
 20
325.8969153844755
 30
0.0
 11
3096.922036583993
 21
325.8969153844755
 31
0.0
  0
DIMENSION
  5
151A
330
1A
100
AcDbEntity
  8
QUOTA
 62
     0
100
AcDbDimension
  2
*D15
 10
3554.766065124409
 20
2431.237884177315
 30
0.0
 11
2151.498378530523
 21
2458.237884177315
 31
0.0
 70
    32
  1
2800 mm
  3
BASE
100
AcDbAlignedDimension
 13
748.2306919366401
 23
2187.542276521801
 33
0.0
 14
3554.766065124409
 24
2190.024200307854
 34
0.0
100
AcDbRotatedDimension
  0
DIMENSION
  5
1532
330
1A
100
AcDbEntity
  8
QUOTA
 62
     0
100
AcDbDimension
  2
*D16
 10
551.2048854498931
 20
724.7946640539481
 30
0.0
 11
524.204885449893
 21
577.8086380660744
 31
0.0
 70
    32
  1
300 mm
  3
BASE
100
AcDbAlignedDimension
 13
1198.392877782942
 23
430.8226120782001
 33
0.0
 14
576.2418702849189
 24
724.7946640539481
 34
0.0
 50
90.0
100
AcDbRotatedDimension
  0
DIMENSION
  5
1555
330
1A
100
AcDbEntity
  8
QUOTA
 62
     0
100
AcDbDimension
  2
*D17
 10
551.2048854498933
 20
2187.542276521801
 30
0.0
 11
524.2048854498931
 21
1456.168470287874
 31
0.0
 70
    32
  1
1470 mm
  3
BASE
100
AcDbAlignedDimension
 13
585.2418702849189
 23
724.7946640539481
 33
0.0
 14
748.2306919366401
 24
2187.542276521801
 34
0.0
 50
90.0
100
AcDbRotatedDimension
  0
DIMENSION
  5
158E
330
1A
100
AcDbEntity
  8
QUOTA
 62
     0
100
AcDbDimension
  2
*D18
 10
462.6180109365487
 20
430.8226120782002
 30
0.0
 11
435.6180109365486
 21
1309.182444300001
 31
0.0
 70
    32
  1
1770 mm
  3
BASE
100
AcDbAlignedDimension
 13
551.2048854498933
 23
2187.542276521801
 33
0.0
 14
551.2048854498931
 24
430.8226120782002
 34
0.0
 50
90.0
100
AcDbRotatedDimension
  0
LINE
  5
15F5
330
1A
100
AcDbEntity
  8
SQUADRATURA
 62
     0
100
AcDbLine
 10
967.1495398768612
 20
2861.994299272522
 30
0.0
 11
-399.3651409272235
 21
2861.994299272522
 31
0.0
  0
LINE
  5
15F6
330
1A
100
AcDbEntity
  8
TESTO
 62
     0
100
AcDbLine
 10
-396.5272674971966
 20
2744.69114536436
 30
0.0
 11
860.8365711955284
 21
2744.69114536436
 31
0.0
  0
LINE
  5
15F7
330
1A
100
AcDbEntity
  8
TESTO
 62
     0
100
AcDbLine
 10
-396.5272674971966
 20
2733.042240070671
 30
0.0
 11
860.8365711955284
 21
2733.042240070671
 31
0.0
  0
TEXT
  5
15F8
330
1A
100
AcDbEntity
  8
TESTO
 62
     0
100
AcDbText
 10
-399.7888235264613
 20
2755.814693994167
 30
0.0
 40
84.0
  1
ETICAP SYSTEM 
  7
ROMANC
100
AcDbText
  0
LINE
  5
15F9
330
1A
100
AcDbEntity
  8
SQUADRATURA
 62
     0
100
AcDbLine
 10
324.3482680684916
 20
2715.856695370137
 30
0.0
 11
966.5835357607022
 21
2715.856695370137
 31
0.0
  0
LINE
  5
15FA
330
1A
100
AcDbEntity
  8
SQUADRATURA
 62
     0
100
AcDbLine
 10
324.3482680684916
 20
2715.856695370137
 30
0.0
 11
-399.3651409272235
 21
2715.856695370137
 31
0.0
  0
TEXT
  5
15FB
330
1A
100
AcDbEntity
  8
TESTO
 62
     0
100
AcDbText
 10
674.0555745291982
 20
2754.468755714551
 30
0.0
 40
50.4
  1
canelli
  7
ROMANC
100
AcDbText
  0
LINE
  5
15FE
330
1A
100
AcDbEntity
  8
0
 62
     0
100
AcDbLine
 10
860.8365711955284
 20
2744.69114536436
 30
0.0
 11
950.6493021106683
 21
2744.69114536436
 31
0.0
  0
LINE
  5
15FF
330
1A
100
AcDbEntity
  8
0
 62
     0
100
AcDbLine
 10
860.8365711955284
 20
2733.042240070671
 30
0.0
 11
950.6493021106683
 21
2733.042240070671
 31
0.0
  0
LINE
  5
1600
330
1A
100
AcDbEntity
  8
SQUADRATURA
 62
     0
100
AcDbLine
 10
966.8686381236971
 20
2715.856695370137
 30
0.0
 11
966.8686381236971
 21
2861.994299272522
 31
0.0
  0
TEXT
  5
1601
330
1A
100
AcDbEntity
  8
TESTO
 62
     0
100
AcDbText
 10
-393.1202228626332
 20
1424.910099490676
 30
0.0
 40
42.0
  1
CONS. ARIA 200L/H
  7
ROMANC
100
AcDbText
  0
LINE
  5
1602
330
1A
100
AcDbEntity
  8
SQUADRATURA
 62
     0
100
AcDbLine
 10
-399.3651409272235
 20
2862.705157880032
 30
0.0
 11
-399.3651409272235
 21
1380.17147504073
 31
0.0
  0
LINE
  5
1604
330
1A
100
AcDbEntity
  8
SQUADRATURA
 62
     0
100
AcDbLine
 10
-399.0546675807818
 20
1380.102244001191
 30
0.0
 11
342.8278924833175
 21
1380.102244001191
 31
0.0
  0
LINE
  5
1605
330
1A
100
AcDbEntity
  8
TESTO
 62
     0
100
AcDbLine
 10
-399.0546675807818
 20
1396.810815330632
 30
0.0
 11
283.8220029139016
 21
1396.810815330632
 31
0.0
  0
LINE
  5
1606
330
1A
100
AcDbEntity
  8
TESTO
 62
     0
100
AcDbLine
 10
-399.0546675807818
 20
1413.452111926564
 30
0.0
 11
283.8220029139016
 21
1413.452111926564
 31
0.0
  0
LINE
  5
1607
330
1A
100
AcDbEntity
  8
SQUADRATURA
 62
     0
100
AcDbLine
 10
342.8256962183441
 20
1380.307759983794
 30
0.0
 11
342.8256962183441
 21
2715.856695370137
 31
0.0
  0
LINE
  5
1608
330
1A
100
AcDbEntity
  8
SQUADRATURA
 62
     0
100
AcDbLine
 10
-399.0546675807818
 20
1514.896745266512
 30
0.0
 11
343.3098685961171
 21
1514.896745266512
 31
0.0
  0
LINE
  5
1609
330
1A
100
AcDbEntity
  8
TESTO
 62
     0
100
AcDbLine
 10
-399.3651409272235
 20
1531.987886684218
 30
0.0
 11
155.6067971599848
 21
1531.987886684218
 31
0.0
  0
LINE
  5
160A
330
1A
100
AcDbEntity
  8
TESTO
 62
     0
100
AcDbLine
 10
-399.3651409272235
 20
1546.96504897363
 30
0.0
 11
155.6067971599848
 21
1546.96504897363
 31
0.0
  0
TEXT
  5
160B
330
1A
100
AcDbEntity
  8
TESTO
 62
     0
100
AcDbText
 10
-389.7859132436232
 20
1554.854696521615
 30
0.0
 40
42.0
  1
POTENZA 2 KW
  7
ROMANC
100
AcDbText
  0
LINE
  5
160C
330
1A
100
AcDbEntity
  8
TESTO
 62
     0
100
AcDbLine
 10
-399.3651409272235
 20
2302.616369872446
 30
0.0
 11
-20.63428933851486
 21
2302.616369872446
 31
0.0
  0
LINE
  5
160D
330
1A
100
AcDbEntity
  8
TESTO
 62
     0
100
AcDbLine
 10
-399.3651409272235
 20
2401.132682180606
 30
0.0
 11
5.614379642501261
 21
2401.132682180606
 31
0.0
  0
LINE
  5
160E
330
1A
100
AcDbEntity
  8
TESTO
 62
     0
100
AcDbLine
 10
-399.3651409272235
 20
2289.303336080898
 30
0.0
 11
-20.63428933851486
 21
2289.303336080898
 31
0.0
  0
TEXT
  5
160F
330
1A
100
AcDbEntity
  8
TESTO
 62
     0
100
AcDbText
 10
-389.7859132436232
 20
2309.338380345909
 30
0.0
 40
42.0
  1
6.000 B/h
  7
ROMANC
100
AcDbText
  0
LINE
  5
1610
330
1A
100
AcDbEntity
  8
TESTO
 62
     0
100
AcDbLine
 10
-399.3651409272235
 20
2047.438696550133
 30
0.0
 11
-106.879931092939
 21
2047.438696550133
 31
0.0
  0
LINE
  5
1611
330
1A
100
AcDbEntity
  8
TESTO
 62
     0
100
AcDbLine
 10
-399.3651409272235
 20
2037.453919754305
 30
0.0
 11
-106.879931092939
 21
2037.453919754305
 31
0.0
  0
TEXT
  5
1612
330
1A
100
AcDbEntity
  8
TESTO
 62
     0
100
AcDbText
 10
-393.1202228626332
 20
2052.781094422809
 30
0.0
 40
42.0
  1
3000 mm
  7
ROMANC
100
AcDbText
  0
LINE
  5
1613
330
1A
100
AcDbEntity
  8
TESTO
 62
     0
100
AcDbLine
 10
-399.3651409272235
 20
2173.572830101528
 30
0.0
 11
286.7965875636473
 21
2173.572830101528
 31
0.0
  0
LINE
  5
1614
330
1A
100
AcDbEntity
  8
TESTO
 62
     0
100
AcDbLine
 10
-399.3651409272235
 20
1931.135322538779
 30
0.0
 11
283.9456593359208
 21
1931.135322538779
 31
0.0
  0
LINE
  5
1615
330
1A
100
AcDbEntity
  8
TESTO
 62
     0
100
AcDbLine
 10
-399.3651409272235
 20
1804.993729711019
 30
0.0
 11
217.8361273660084
 21
1804.993729711019
 31
0.0
  0
LINE
  5
1616
330
1A
100
AcDbEntity
  8
TESTO
 62
     0
100
AcDbLine
 10
-399.3651409272235
 20
2158.595662003456
 30
0.0
 11
287.821832178186
 21
2158.595662003456
 31
0.0
  0
LINE
  5
1617
330
1A
100
AcDbEntity
  8
TESTO
 62
     0
100
AcDbLine
 10
-399.3651409272235
 20
1917.822288747229
 30
0.0
 11
285.4481403769203
 21
1917.822288747229
 31
0.0
  0
LINE
  5
1618
330
1A
100
AcDbEntity
  8
TESTO
 62
     0
100
AcDbLine
 10
-399.3651409272235
 20
1790.016567421607
 30
0.0
 11
219.338608407008
 21
1790.016567421607
 31
0.0
  0
TEXT
  5
1619
330
1A
100
AcDbEntity
  8
TESTO
 62
     0
100
AcDbText
 10
-393.1202228626332
 20
2179.393777701889
 30
0.0
 40
42.0
  1
LUNGHEZZA NASTRO
  7
ROMANC
100
AcDbText
  0
TEXT
  5
161A
330
1A
100
AcDbEntity
  8
TESTO
 62
     0
100
AcDbText
 10
-396.4545231945472
 20
1939.496060538084
 30
0.0
 40
42.0
  1
DIMENSIONI NASTRO
  7
ROMANC
100
AcDbText
  0
TEXT
  5
161B
330
1A
100
AcDbEntity
  8
TESTO
 62
     0
100
AcDbText
 10
-389.7859132436232
 20
1812.883377259005
 30
0.0
 40
42.0
  1
ALTEZZA 100 mm
  7
ROMANC
100
AcDbText
  0
LINE
  5
161C
330
1A
100
AcDbEntity
  8
SQUADRATURA
 62
     0
100
AcDbLine
 10
-399.0546675807818
 20
2385.325125631699
 30
0.0
 11
343.3098685961171
 21
2385.325125631699
 31
0.0
  0
LINE
  5
161D
330
1A
100
AcDbEntity
  8
SQUADRATURA
 62
     0
100
AcDbLine
 10
-399.0546675807818
 20
2265.507798273107
 30
0.0
 11
343.3098685961171
 21
2265.507798273107
 31
0.0
  0
LINE
  5
161E
330
1A
100
AcDbEntity
  8
SQUADRATURA
 62
     0
100
AcDbLine
 10
-399.0546675807818
 20
2137.369816807893
 30
0.0
 11
343.3098685961171
 21
2137.369816807893
 31
0.0
  0
LINE
  5
161F
330
1A
100
AcDbEntity
  8
SQUADRATURA
 62
     0
100
AcDbLine
 10
-399.0546675807818
 20
2024.20899763209
 30
0.0
 11
343.3098685961171
 21
2024.20899763209
 31
0.0
  0
LINE
  5
1620
330
1A
100
AcDbEntity
  8
SQUADRATURA
 62
     0
100
AcDbLine
 10
-399.0546675807818
 20
1896.071021975533
 30
0.0
 11
343.3098685961171
 21
1896.071021975533
 31
0.0
  0
LINE
  5
1621
330
1A
100
AcDbEntity
  8
SQUADRATURA
 62
     0
100
AcDbLine
 10
-399.0546675807818
 20
1772.925426003902
 30
0.0
 11
343.3098685961171
 21
1772.925426003902
 31
0.0
  0
LINE
  5
1622
330
1A
100
AcDbEntity
  8
TESTO
 62
     0
100
AcDbLine
 10
-399.0546675807818
 20
1671.480792663955
 30
0.0
 11
313.9954428963283
 21
1671.480792663955
 31
0.0
  0
LINE
  5
1623
330
1A
100
AcDbEntity
  8
TESTO
 62
     0
100
AcDbLine
 10
-399.0546675807818
 20
1654.839496068023
 30
0.0
 11
315.4979239373241
 21
1654.839496068023
 31
0.0
  0
LINE
  5
1624
330
1A
100
AcDbEntity
  8
SQUADRATURA
 62
     0
100
AcDbLine
 10
-399.0546675807818
 20
1638.130924738582
 30
0.0
 11
342.7972343816258
 21
1638.130924738582
 31
0.0
  0
TEXT
  5
1625
330
1A
100
AcDbEntity
  8
TESTO
 62
     0
100
AcDbText
 10
-393.1202228626332
 20
1682.938780228067
 30
0.0
 40
42.0
  1
LARGHEZZA 120 mm
  7
ROMANC
100
AcDbText
  0
LINE
  5
162D
330
1A
100
AcDbEntity
  8
TESTO
 62
     0
100
AcDbLine
 10
-106.879931092939
 20
2037.453919754305
 30
0.0
 11
-54.11037121960379
 21
2037.453919754305
 31
0.0
  0
LINE
  5
162E
330
1A
100
AcDbEntity
  8
TESTO
 62
     0
100
AcDbLine
 10
-106.879931092939
 20
2047.438696550133
 30
0.0
 11
-54.11037121960379
 21
2047.438696550133
 31
0.0
  0
LINE
  5
162F
330
1A
100
AcDbEntity
  8
TESTO
 62
     0
100
AcDbLine
 10
-20.63428933851486
 20
2289.303336080898
 30
0.0
 11
5.632294536972151
 21
2289.303336080898
 31
0.0
  0
LINE
  5
1630
330
1A
100
AcDbEntity
  8
TESTO
 62
     0
100
AcDbLine
 10
-20.63428933851486
 20
2302.616369872446
 30
0.0
 11
5.632294536972151
 21
2302.616369872446
 31
0.0
  0
LINE
  5
1631
330
1A
100
AcDbEntity
  8
TESTO
 62
     0
100
AcDbLine
 10
5.614379642501261
 20
2401.132682180606
 30
0.0
 11
26.77200474939832
 21
2401.132682180606
 31
0.0
  0
LINE
  5
1635
330
1A
100
AcDbEntity
  8
TESTO
 62
     0
100
AcDbLine
 10
-399.3651409272235
 20
2633.420092041517
 30
0.0
 11
-73.13163691123874
 21
2633.420092041517
 31
0.0
  0
LINE
  5
1636
330
1A
100
AcDbEntity
  8
TESTO
 62
     0
100
AcDbLine
 10
-399.3651409272235
 20
2620.107052441309
 30
0.0
 11
-73.13163691123874
 21
2620.107052441309
 31
0.0
  0
TEXT
  5
1637
330
1A
100
AcDbEntity
  8
TESTO
 62
     0
100
AcDbText
 10
-389.7859132436232
 20
2639.197740744504
 30
0.0
 40
42.0
  1
MODELLO
  7
ROMANC
100
AcDbText
  0
LINE
  5
1638
330
1A
100
AcDbEntity
  8
TESTO
 62
     0
100
AcDbLine
 10
-399.3651409272235
 20
2414.445721780815
 30
0.0
 11
5.614379642501261
 21
2414.445721780815
 31
0.0
  0
TEXT
  5
1639
330
1A
100
AcDbEntity
  8
TESTO
 62
     0
100
AcDbText
 10
-389.7859132436232
 20
2422.623414230633
 30
0.0
 40
42.0
  1
PRODUZIONE
  7
ROMANC
100
AcDbText
  0
TEXT
  5
163A
330
1A
100
AcDbEntity
  8
TESTO
 62
     0
100
AcDbText
 10
-393.1202228626332
 20
2532.576534363498
 30
0.0
 40
42.0
  1
MO 6T 2S 
  7
ROMANC
100
AcDbText
  0
LINE
  5
163B
330
1A
100
AcDbEntity
  8
SQUADRATURA
 62
     0
100
AcDbLine
 10
-399.0546675807818
 20
2601.661981378819
 30
0.0
 11
343.3098685961171
 21
2601.661981378819
 31
0.0
  0
LINE
  5
163C
330
1A
100
AcDbEntity
  8
SQUADRATURA
 62
     0
100
AcDbLine
 10
-399.0546675807818
 20
2491.829425007397
 30
0.0
 11
343.3098685961171
 21
2491.829425007397
 31
0.0
  0
LINE
  5
163D
330
1A
100
AcDbEntity
  8
TESTO
 62
     0
100
AcDbLine
 10
-399.3651409272235
 20
2526.01024597743
 30
0.0
 11
-25.20888500539478
 21
2526.01024597743
 31
0.0
  0
LINE
  5
163E
330
1A
100
AcDbEntity
  8
TESTO
 62
     0
100
AcDbLine
 10
-399.3651409272235
 20
2511.033077879359
 30
0.0
 11
-25.20888500539478
 21
2511.033077879359
 31
0.0
  0
LINE
  5
163F
330
1A
100
AcDbEntity
  8
TESTO
 62
     0
100
AcDbLine
 10
5.614379642501261
 20
2414.445721780815
 30
0.0
 11
26.77200474939832
 21
2414.445721780815
 31
0.0
  0
LINE
  5
164B
330
1A
100
AcDbEntity
  8
COSTRUZIONE
 62
     0
100
AcDbLine
 10
1198.868067919335
 20
1839.443954529966
 30
0.0
 11
1188.187208824974
 21
1847.735171594351
 31
0.0
  0
LINE
  5
164C
330
1A
100
AcDbEntity
  8
COSTRUZIONE
 62
     0
100
AcDbLine
 10
1235.799490820739
 20
1617.6231480388
 30
0.0
 11
1554.806200882167
 21
1369.988210179615
 31
0.0
  0
CIRCLE
  5
164D
330
1A
100
AcDbEntity
  8
0
 62
     0
100
AcDbCircle
 10
2229.603902752136
 20
1226.136065003403
 30
0.0
 40
40.0
  0
ARC
  5
1677
330
1A
100
AcDbEntity
  8
0
 62
     0
100
AcDbCircle
 10
2229.445221435188
 20
1226.280850675969
 30
0.0
 40
254.7280072819678
100
AcDbArc
 50
104.1472834683645
 51
165.8608490226246
  0
ARC
  5
1678
330
1A
100
AcDbEntity
  8
0
 62
     0
100
AcDbCircle
 10
2229.445221435188
 20
1226.280850675969
 30
0.0
 40
94.3941626023602
100
AcDbArc
 50
216.4500244010596
 51
235.5125656503131
  0
LINE
  5
167D
330
1A
100
AcDbEntity
  8
0
 62
     0
100
AcDbLine
 10
2279.260495099332
 20
1463.586414421715
 30
0.0
 11
2279.260495099332
 21
1311.839451774462
 31
0.0
  0
LINE
  5
167E
330
1A
100
AcDbEntity
  8
0
 62
     0
100
AcDbLine
 10
2279.260495099332
 20
1140.722249577478
 30
0.0
 11
2279.260495099332
 21
988.9752869302247
 31
0.0
  0
LINE
  5
167F
330
1A
100
AcDbEntity
  8
0
 62
     0
100
AcDbLine
 10
2179.629947771043
 20
988.9752869302244
 30
0.0
 11
2179.629947771043
 21
1140.722249577476
 31
0.0
  0
LINE
  5
1680
330
1A
100
AcDbEntity
  8
0
 62
     0
100
AcDbLine
 10
2179.629947771043
 20
1311.839451774463
 30
0.0
 11
2179.629947771043
 21
1463.586414421716
 31
0.0
  0
ARC
  5
1682
330
1A
100
AcDbEntity
  8
0
 62
     0
100
AcDbCircle
 10
2229.445221435188
 20
1226.280850675969
 30
0.0
 40
254.7280072819678
100
AcDbArc
 50
284.1472834683651
 51
345.8608490226247
  0
LINE
  5
1687
330
1A
100
AcDbEntity
  8
0
 62
     0
100
AcDbLine
 10
2315.92769856696
 20
1274.752402174113
 30
0.0
 11
2467.085443648522
 21
1274.752402174113
 31
0.0
  0
LINE
  5
1688
330
1A
100
AcDbEntity
  8
0
 62
     0
100
AcDbLine
 10
2315.027361263821
 20
1176.499260467949
 30
0.0
 11
2466.759272895279
 21
1176.499260467949
 31
0.0
  0
LINE
  5
1689
330
1A
100
AcDbEntity
  8
0
 62
     0
100
AcDbLine
 10
2143.863081606553
 20
1276.062440883991
 30
0.0
 11
1992.131169975096
 21
1276.062440883991
 31
0.0
  0
LINE
  5
168A
330
1A
100
AcDbEntity
  8
0
 62
     0
100
AcDbLine
 10
2144.793268409338
 20
1175.18921430603
 30
0.0
 11
1992.465033415501
 21
1175.18921430603
 31
0.0
  0
ARC
  5
168C
330
1A
100
AcDbEntity
  8
0
 62
     0
100
AcDbCircle
 10
2229.445221435188
 20
1226.280850675969
 30
0.0
 40
254.7280072819678
100
AcDbArc
 50
13.82308055591626
 51
75.85271653163487
  0
ARC
  5
168E
330
1A
100
AcDbEntity
  8
0
 62
     0
100
AcDbCircle
 10
2229.445221435188
 20
1226.280850675969
 30
0.0
 40
254.7280072819678
100
AcDbArc
 50
194.4556630448472
 51
255.8527165316353
  0
ARC
  5
168F
330
1A
100
AcDbEntity
  8
0
 62
     0
100
AcDbCircle
 10
2467.085443648522
 20
1284.752402174111
 30
0.0
 40
10.0
100
AcDbArc
 50
270.0
 51
13.82308055591664
  0
ARC
  5
1690
330
1A
100
AcDbEntity
  8
0
 62
     0
100
AcDbCircle
 10
2289.260495099334
 20
1463.586414421715
 30
0.0
 40
10.0
100
AcDbArc
 50
75.85271653163409
 51
180.0
  0
ARC
  5
1691
330
1A
100
AcDbEntity
  8
0
 62
     0
100
AcDbCircle
 10
2169.629947771043
 20
1463.586414421716
 30
0.0
 40
10.0
100
AcDbArc
 50
359.9999999999987
 51
104.1472834683633
  0
ARC
  5
1692
330
1A
100
AcDbEntity
  8
0
 62
     0
100
AcDbCircle
 10
1992.131169975096
 20
1286.062440883991
 30
0.0
 40
10.0
100
AcDbArc
 50
165.860849022625
 51
270.0
  0
ARC
  5
1693
330
1A
100
AcDbEntity
  8
0
 62
     0
100
AcDbCircle
 10
1992.465033415501
 20
1165.18921430603
 30
0.0
 40
10.0
100
AcDbArc
 50
90.0
 51
194.4556630448472
  0
ARC
  5
1694
330
1A
100
AcDbEntity
  8
0
 62
     0
100
AcDbCircle
 10
2169.629947771043
 20
988.9752869302244
 30
0.0
 40
10.0
100
AcDbArc
 50
255.8527165316365
 51
0.0
  0
ARC
  5
1695
330
1A
100
AcDbEntity
  8
0
 62
     0
100
AcDbCircle
 10
2289.260495099334
 20
988.9752869302247
 30
0.0
 40
10.0
100
AcDbArc
 50
180.0
 51
284.147283468366
  0
ARC
  5
1696
330
1A
100
AcDbEntity
  8
0
 62
     0
100
AcDbCircle
 10
2466.759272895279
 20
1166.499260467949
 30
0.0
 40
10.0
100
AcDbArc
 50
345.8608490226247
 51
90.0
  0
ARC
  5
1697
330
1A
100
AcDbEntity
  8
0
 62
     0
100
AcDbCircle
 10
2169.629947771043
 20
1140.722249577476
 30
0.0
 40
10.0
100
AcDbArc
 50
0.0
 51
55.04203781756604
  0
ARC
  5
1698
330
1A
100
AcDbEntity
  8
0
 62
     0
100
AcDbCircle
 10
2144.793268409338
 20
1165.18921430603
 30
0.0
 40
10.0
100
AcDbArc
 50
35.81723704780621
 51
90.0
  0
ARC
  5
169B
330
1A
100
AcDbEntity
  8
0
 62
     0
100
AcDbCircle
 10
2229.445221435188
 20
1226.280850675969
 30
0.0
 40
94.3941626023602
100
AcDbArc
 50
124.957962182434
 51
145.0645914169005
  0
ARC
  5
169D
330
1A
100
AcDbEntity
  8
0
 62
     0
100
AcDbCircle
 10
2229.445221435188
 20
1226.280850675969
 30
0.0
 40
94.3941626023602
100
AcDbArc
 50
34.06296612388231
 51
55.04203781756462
  0
ARC
  5
169F
330
1A
100
AcDbEntity
  8
0
 62
     0
100
AcDbCircle
 10
2229.445221435188
 20
1226.280850675969
 30
0.0
 40
94.3941626023602
100
AcDbArc
 50
304.9579621824353
 51
325.0645914169004
  0
ARC
  5
16A0
330
1A
100
AcDbEntity
  8
0
 62
     0
100
AcDbCircle
 10
2289.260495099334
 20
1140.722249577478
 30
0.0
 40
10.0
100
AcDbArc
 50
124.9579621824339
 51
180.0
  0
ARC
  5
16A1
330
1A
100
AcDbEntity
  8
0
 62
     0
100
AcDbCircle
 10
2315.027361263821
 20
1166.499260467949
 30
0.0
 40
10.0
100
AcDbArc
 50
90.0
 51
145.0645914169015
  0
ARC
  5
16A2
330
1A
100
AcDbEntity
  8
0
 62
     0
100
AcDbCircle
 10
2315.92769856696
 20
1284.752402174111
 30
0.0
 40
10.0
100
AcDbArc
 50
214.0629661238828
 51
270.0
  0
ARC
  5
16A3
330
1A
100
AcDbEntity
  8
0
 62
     0
100
AcDbCircle
 10
2289.260495099334
 20
1311.839451774462
 30
0.0
 40
10.0
100
AcDbArc
 50
180.0
 51
235.0420378175659
  0
ARC
  5
16A4
330
1A
100
AcDbEntity
  8
0
 62
     0
100
AcDbCircle
 10
2169.629947771043
 20
1311.839451774463
 30
0.0
 40
10.0
100
AcDbArc
 50
304.9579621824339
 51
0.0
  0
ARC
  5
16A5
330
1A
100
AcDbEntity
  8
0
 62
     0
100
AcDbCircle
 10
2143.863081606553
 20
1286.062440883991
 30
0.0
 40
10.0
100
AcDbArc
 50
270.0
 51
325.0645914169016
  0
LINE
  5
1809
330
1A
100
AcDbEntity
  8
TESTO
 62
     0
100
AcDbLine
 10
2316.561245058648
 20
315.8969153844755
 30
0.0
 11
3096.922036583993
 21
315.8969153844755
 31
0.0
  0
ENDSEC
  0
SECTION
  2
OBJECTS
  0
DICTIONARY
  5
C
330
0
100
AcDbDictionary
  3
ACAD_GROUP
350
D
  3
ACAD_MLINESTYLE
350
E
  3
ACAD_PLOTSTYLENAME
350
16A8
  3
ACAD_LAYOUT
350
16AA
  3
ACAD_PLOTSETTINGS
350
16AB
  3
ACDBHEADERROUNDTRIPXREC
350
1892
  0
DICTIONARY
  5
187F
330
1A
100
AcDbDictionary
280
     1
  3
ACAD_LAYOUTSELFREF
360
18B3
  0
DICTIONARY
  5
187D
330
17
100
AcDbDictionary
280
     1
  3
ACAD_LAYOUTSELFREF
360
18B2
  0
DICTIONARY
  5
D
102
{ACAD_REACTORS
330
C
102
}
330
C
100
AcDbDictionary
  0
DICTIONARY
  5
E
102
{ACAD_REACTORS
330
C
102
}
330
C
100
AcDbDictionary
  3
STANDARD
350
13
  0
ACDBDICTIONARYWDFLT
  5
16A8
102
{ACAD_REACTORS
330
C
102
}
330
C
100
AcDbDictionary
281
     1
  3
Normal
350
16A9
100
AcDbDictionaryWithDefault
340
16A9
  0
DICTIONARY
  5
16AA
102
{ACAD_REACTORS
330
C
102
}
330
C
100
AcDbDictionary
  0
DICTIONARY
  5
16AB
102
{ACAD_REACTORS
330
C
102
}
330
C
100
AcDbDictionary
  0
DICTIONARY
  5
1892
102
{ACAD_REACTORS
330
C
102
}
330
C
100
AcDbDictionary
  3
TSTACKALIGN
350
1893
  3
TSTACKSIZE
350
1894
  3
HYPERLINKBASE
350
1895
  3
STYLESHEET
350
1896
  3
LAYOUTDICT
350
1897
  3
PLOTSETDICT
350
1898
  3
PLOTSTYLNAMDICT
350
1899
  3
LWETCUNION
350
189A
  3
INSUNITS
350
189B
  3
CEPSNTYPE
350
189C
  3
FINGERPRINTGUID
350
189D
  3
VERSIONGUID
350
189E
  3
PSVPSCALE
350
189F
  3
PUCSORTHOREF
350
18A0
  3
PUCSORTHOVIEW
350
18A1
  3
PUCSBASE
350
18A2
  3
PUCSORGTOP
350
18A3
  3
PUCSORGBOTTOM
350
18A4
  3
PUCSORGLEFT
350
18A5
  3
PUCSORGRIGHT
350
18A6
  3
PUCSORGFRONT
350
18A7
  3
PUCSORGBACK
350
18A8
  3
UCSORTHOREF
350
18A9
  3
UCSORTHOVIEW
350
18AA
  3
UCSBASE
350
18AB
  3
UCSORGTOP
350
18AC
  3
UCSORGBOTTOM
350
18AD
  3
UCSORGLEFT
350
18AE
  3
UCSORGRIGHT
350
18AF
  3
UCSORGFRONT
350
18B0
  3
UCSORGBACK
350
18B1
  0
XRECORD
  5
18B3
102
{ACAD_REACTORS
330
187F
102
}
330
187F
100
AcDbXrecord
340
1A
  0
XRECORD
  5
18B2
102
{ACAD_REACTORS
330
187D
102
}
330
187D
100
AcDbXrecord
340
17
  0
MLINESTYLE
  5
13
102
{ACAD_REACTORS
330
E
102
}
330
E
100
AcDbMlineStyle
  2
STANDARD
 70
     0
  3

 62
     0
 51
90.0
 52
90.0
 71
     2
 49
0.5
 62
   256
  6
BYLAYER
 49
-0.5
 62
   256
  6
BYLAYER
  0
ACDBPLACEHOLDER
  5
16A9
102
{ACAD_REACTORS
330
16A8
102
}
330
16A8
100
AcDbPlaceHolder
280
     0
  0
XRECORD
  5
1893
102
{ACAD_REACTORS
330
1892
102
}
330
1892
100
AcDbXrecord
 90
        1
  0
XRECORD
  5
1894
102
{ACAD_REACTORS
330
1892
102
}
330
1892
100
AcDbXrecord
 90
       70
  0
XRECORD
  5
1895
102
{ACAD_REACTORS
330
1892
102
}
330
1892
100
AcDbXrecord
  1

  0
XRECORD
  5
1896
102
{ACAD_REACTORS
330
1892
102
}
330
1892
100
AcDbXrecord
  1

  0
XRECORD
  5
1897
102
{ACAD_REACTORS
330
1892
102
}
330
1892
100
AcDbXrecord
340
16AA
  0
XRECORD
  5
1898
102
{ACAD_REACTORS
330
1892
102
}
330
1892
100
AcDbXrecord
340
16AB
  0
XRECORD
  5
1899
102
{ACAD_REACTORS
330
1892
102
}
330
1892
100
AcDbXrecord
340
16A8
  0
XRECORD
  5
189A
102
{ACAD_REACTORS
330
1892
102
}
330
1892
100
AcDbXrecord
 90
    14877
  0
XRECORD
  5
189B
102
{ACAD_REACTORS
330
1892
102
}
330
1892
100
AcDbXrecord
 90
        0
  0
XRECORD
  5
189C
102
{ACAD_REACTORS
330
1892
102
}
330
1892
100
AcDbXrecord
 90
        0
  0
XRECORD
  5
189D
102
{ACAD_REACTORS
330
1892
102
}
330
1892
100
AcDbXrecord
  1
{8C3DFF44-FD6F-4209-B4F4-AEFE581BFFFC}
  0
XRECORD
  5
189E
102
{ACAD_REACTORS
330
1892
102
}
330
1892
100
AcDbXrecord
  1
{38F6681C-CC83-448A-99D4-EEB5D8763048}
  0
XRECORD
  5
189F
102
{ACAD_REACTORS
330
1892
102
}
330
1892
100
AcDbXrecord
 40
0.0
  0
XRECORD
  5
18A0
102
{ACAD_REACTORS
330
1892
102
}
330
1892
100
AcDbXrecord
340
0
  0
XRECORD
  5
18A1
102
{ACAD_REACTORS
330
1892
102
}
330
1892
100
AcDbXrecord
 70
     0
  0
XRECORD
  5
18A2
102
{ACAD_REACTORS
330
1892
102
}
330
1892
100
AcDbXrecord
340
0
  0
XRECORD
  5
18A3
102
{ACAD_REACTORS
330
1892
102
}
330
1892
100
AcDbXrecord
 10
0.0
 20
0.0
 30
0.0
  0
XRECORD
  5
18A4
102
{ACAD_REACTORS
330
1892
102
}
330
1892
100
AcDbXrecord
 10
0.0
 20
0.0
 30
0.0
  0
XRECORD
  5
18A5
102
{ACAD_REACTORS
330
1892
102
}
330
1892
100
AcDbXrecord
 10
0.0
 20
0.0
 30
0.0
  0
XRECORD
  5
18A6
102
{ACAD_REACTORS
330
1892
102
}
330
1892
100
AcDbXrecord
 10
0.0
 20
0.0
 30
0.0
  0
XRECORD
  5
18A7
102
{ACAD_REACTORS
330
1892
102
}
330
1892
100
AcDbXrecord
 10
0.0
 20
0.0
 30
0.0
  0
XRECORD
  5
18A8
102
{ACAD_REACTORS
330
1892
102
}
330
1892
100
AcDbXrecord
 10
0.0
 20
0.0
 30
0.0
  0
XRECORD
  5
18A9
102
{ACAD_REACTORS
330
1892
102
}
330
1892
100
AcDbXrecord
340
0
  0
XRECORD
  5
18AA
102
{ACAD_REACTORS
330
1892
102
}
330
1892
100
AcDbXrecord
 70
     0
  0
XRECORD
  5
18AB
102
{ACAD_REACTORS
330
1892
102
}
330
1892
100
AcDbXrecord
340
0
  0
XRECORD
  5
18AC
102
{ACAD_REACTORS
330
1892
102
}
330
1892
100
AcDbXrecord
 10
0.0
 20
0.0
 30
0.0
  0
XRECORD
  5
18AD
102
{ACAD_REACTORS
330
1892
102
}
330
1892
100
AcDbXrecord
 10
0.0
 20
0.0
 30
0.0
  0
XRECORD
  5
18AE
102
{ACAD_REACTORS
330
1892
102
}
330
1892
100
AcDbXrecord
 10
0.0
 20
0.0
 30
0.0
  0
XRECORD
  5
18AF
102
{ACAD_REACTORS
330
1892
102
}
330
1892
100
AcDbXrecord
 10
0.0
 20
0.0
 30
0.0
  0
XRECORD
  5
18B0
102
{ACAD_REACTORS
330
1892
102
}
330
1892
100
AcDbXrecord
 10
0.0
 20
0.0
 30
0.0
  0
XRECORD
  5
18B1
102
{ACAD_REACTORS
330
1892
102
}
330
1892
100
AcDbXrecord
 10
0.0
 20
0.0
 30
0.0
  0
ENDSEC
  0
EOF
